
//----- song id: ptay
#TITLE:Dance Partay;
#ARTIST:DKC Crew;
#BANNER:Dance Partay.png;
#BACKGROUND:Dance Partay-bg.png;
#CDTITLE:./CDTITLES/DDR II.png;
#MUSIC:Dance Partay.ogg;
#SAMPLESTART:44.4;
#SAMPLELENGTH:15;
#BPMS:0=135;
#NOTES:
     dance-single:
     :
     Beginner:
     2:
     :
0000
0000
0000
0000
,
0000
0000
0000
0000
,
0000
0000
0000
0000
,
0000
0000
0000
0000
,
0000
0000
0000
0000
,
0000
0000
0000
0000
,
0000
0000
0000
0000
,
0000
0000
0000
0000
,
0000
0000
0000
0000
,
0001
0000
0000
0000
,
0001
0000
0000
0000
,
0001
0000
0000
0000
,
0001
0000
0000
0000
,
1000
0000
0000
0000
,
1000
0000
0000
0000
,
1000
0000
0000
0000
,
1000
1000
1000
0000
,
0010
0000
0000
0000
,
0010
0000
0000
0000
,
1000
0000
0001
0000
,
1000
0000
0001
0000
,
0010
0000
0000
0000
,
0010
0000
0000
0000
,
0001
0000
1000
0000
,
1001
0000
0000
0000
,
0001
0001
0001
0000
,
0010
0010
0010
0000
,
1000
1000
1000
0000
,
0100
0000
0000
0000
,
1000
1000
1000
0000
,
0010
0010
0010
0000
,
0001
0001
0001
0000
,
1001
0000
0000
0000
,
1000
0000
0000
0000
,
1000
0000
0000
0000
,
1000
0000
0000
0000
,
1000
0000
0000
0000
,
0001
0000
0000
0000
,
0001
0000
0000
0000
,
0001
0000
0000
0000
,
0001
0001
0001
0000
,
0010
0000
0000
0000
,
0010
0000
0000
0000
,
0001
0000
1000
0000
,
0001
0000
1000
0000
,
0010
0000
0000
0000
,
0010
0000
0000
0000
,
1000
0000
0001
0000
,
1001
0000
0000
0000
,
1000
1000
1000
0000
,
0010
0010
0010
0000
,
0001
0001
0001
0000
,
0100
0000
0000
0000
,
0001
0001
0001
0000
,
0010
0010
0010
0000
,
1000
1000
1000
0000
,
1001
0000
0000
0000
,
0000
0000
0000
0000
;
#NOTES:
     dance-single:
     :
     Easy:
     5:
     :
0000
0000
0000
0000
,
0000
0000
0000
0000
,
0000
0000
0000
0000
,
0000
0000
0000
0000
,
0000
0000
0000
0000
,
0000
0000
0000
0000
,
0000
0000
0000
0000
,
0000
0000
0000
0000
,
0000
0000
0000
0000
,
1000
0000
0001
1000
,
0001
0000
0100
0100
,
0010
0000
1000
1000
,
0001
0000
1000
1000
,
0001
0000
0100
0000
,
0010
0000
1000
0000
,
0100
0000
0010
0000
,
0001
0001
1000
1000
,
0002
0000
1003
0000
,
2000
0000
3001
0000
,
0010
0000
0010
0000
,
0100
0100
0100
0000
,
0002
0000
1003
0000
,
2000
0000
3001
0000
,
0010
0000
0010
0000
,
1000
1000
1000
1000
,
2000
0000
0100
3001
,
0002
0000
0010
0103
,
0020
0000
0001
0031
,
2000
0010
3010
0000
,
0002
0000
0100
1003
,
2000
0000
0010
3100
,
0020
0000
1000
1030
,
0001
1000
0001
1000
,
0001
0000
1000
0001
,
1000
0000
0100
0100
,
0010
0000
0001
0001
,
1000
0000
0001
0001
,
1000
0000
0100
0000
,
0010
0000
0001
0000
,
0100
0000
0010
0000
,
1000
1000
0001
0001
,
2000
0000
3001
0000
,
0002
0000
1003
0000
,
0010
0000
0010
0000
,
0100
0100
0100
0000
,
2000
0000
3001
0000
,
0002
0000
1003
0000
,
0010
0000
0010
0000
,
0001
0001
0001
0001
,
0002
0000
0100
1003
,
2000
0000
0010
3100
,
0020
0000
1000
1030
,
0002
0010
0013
0000
,
2000
0000
0100
3001
,
0002
0000
0010
0103
,
0020
0000
0001
0031
,
1000
0001
1000
0001
,
0000
0000
0000
0000
;
#NOTES:
     dance-single:
     :
     Medium:
     7:
     :
0000
0000
0000
0000
,
0000
0000
0000
0000
,
0000
0000
0000
0000
,
0000
0000
0000
0000
,
0000
0000
0000
0000
,
0000
0000
0000
0000
,
0000
0000
0000
0000
,
0000
0000
0000
0000
,
0000
0000
0000
0000
,
0000
0000
0001
0000
1000
0100
0010
0000
,
0000
0000
0001
0000
0100
0010
0001
0000
,
0000
0000
0100
0000
0010
0001
0010
0000
,
1000
0000
0010
0000
1000
0100
0001
0000
,
0100
0000
1000
0000
0010
1000
0001
0000
,
0100
0000
0010
0000
0100
1000
0010
0000
,
0100
0000
0001
0000
0010
0100
0010
0000
,
1000
0001
1000
0001
0200
0000
0300
0000
,
0020
1000
0100
1030
,
0200
0010
0001
0310
,
1000
0001
0100
1000
,
0001
0000
0010
0000
1000
0010
0001
0000
,
0020
0001
0100
0031
,
0200
0010
1000
0310
,
0001
1000
0100
0001
,
1001
0110
1001
0110
,
1001
0000
0100
0010
1000
0000
0010
0000
,
0110
0000
1000
0100
0010
0000
0100
0000
,
1100
0000
0001
0100
0001
0000
1000
0000
,
0101
0000
1000
0010
1000
0000
0100
0000
,
1001
0000
0100
0010
0001
0000
0010
0000
,
0110
0000
0001
0100
0010
0000
0100
0000
,
0101
0000
1000
0100
1000
0000
0001
0000
,
1000
0001
1000
0001
,
0000
0000
1000
0000
0001
0100
0010
0000
,
0000
0000
1000
0000
0100
0010
1000
0000
,
0000
0000
0100
0000
0010
1000
0010
0000
,
0001
0000
0010
0000
0001
0100
1000
0000
,
0100
0000
0001
0000
0010
0001
1000
0000
,
0100
0000
0010
0000
0100
0001
0010
0000
,
0100
0000
1000
0000
0010
0100
0010
0000
,
0001
1000
0001
1000
0200
0000
0300
0000
,
2000
0001
0100
3001
,
0002
0010
1000
0013
,
0100
1000
0100
0001
,
0100
0000
0010
0000
0001
0010
1000
0000
,
0002
1000
0100
1003
,
2000
0010
0001
3010
,
0100
0001
0100
1000
,
0001
0000
1000
0000
0001
1000
0001
0000
,
1001
0000
0100
0010
0001
0000
0010
0000
,
0110
0000
0001
0100
0010
0000
0100
0000
,
0101
0000
1000
0100
1000
0000
0001
0000
,
1100
0000
0001
0010
0001
0000
0100
0000
,
1001
0000
0100
0010
1000
0000
0010
0000
,
0110
0000
1000
0100
0010
0000
0100
0000
,
1100
0000
0001
0100
0001
0000
1000
0000
,
0001
1000
0001
1000
,
0000
0000
0000
0000
;
#NOTES:
     dance-single:
     :
     Hard:
     11:
     :
0000
0000
0000
0000
,
0000
0000
0000
0000
,
0000
0000
0000
0000
,
0000
0000
0000
0000
,
0000
0000
0000
0000
,
0000
0000
0000
0000
,
0000
0000
0000
0000
,
0000
0000
0000
0000
,
0000
0000
0000
0000
,
0000
0000
1000
0100
1000
0010
0011
0000
,
0000
0010
1000
0100
0001
0100
1100
0000
,
0000
0010
0100
0001
0010
1000
1010
0000
,
0000
0001
0100
1000
0100
0001
1001
0000
,
0000
0100
0010
1000
0100
0001
0010
0000
,
0100
1000
0010
0100
1000
0001
0010
0000
,
0000
0100
0010
1000
1100
0000
0011
0000
,
0100
0100
0100
0100
0100
0010
1001
0000
,
0200
0001
0010
1000
,
0320
0001
0100
1030
,
0000
0100
0001
0100
0010
1000
0100
0000
,
0011
0010
0100
1000
0010
0001
0100
0000
,
0020
0001
0100
1000
,
0230
0001
0010
1300
,
0000
0001
0100
0010
1000
0100
0100
1000
,
0001
0101
0001
0101
,
1001
0000
0000
0100
0010
0000
0000
1000
0100
0000
0010
0000
0100
0000
0000
0000
,
0011
0000
0000
0100
0001
0000
0000
1000
0010
0000
0100
0000
0100
0000
0000
0000
,
0110
0000
0000
0001
0100
0000
0000
1000
0010
0000
0100
0000
0001
0000
0000
0000
,
1010
0000
0000
0001
0100
0000
0000
0010
1000
0000
0100
0000
0010
0000
0000
0000
,
1001
0000
0000
0100
0010
0000
0000
0001
0100
0000
0010
0000
0100
0000
0000
0000
,
1010
0000
0000
0100
1000
0000
0000
0001
0010
0000
0100
0000
0100
0000
0000
0000
,
0110
0000
0000
1000
0100
0000
0000
0001
0010
0000
0100
0000
1000
0000
0000
0000
,
0001
1001
0001
1001
,
0001
0100
0001
0100
0001
0010
1010
0000
,
0100
0010
0001
0100
1000
0100
0101
0000
,
0001
0010
0110
0000
0010
0001
0011
0000
,
0010
1000
0100
0001
0100
1000
1001
0000
,
1000
0100
0010
0001
0100
1000
0010
0000
,
0100
0001
0010
0100
0001
1000
0010
0000
,
0001
0100
0010
0001
0101
0000
1010
0000
,
0100
0100
0100
0100
0100
0010
1001
0000
,
0200
0010
0001
1000
,
0320
0100
1000
0031
,
1000
0100
1000
1000
0010
0100
0001
0000
,
0010
0100
0010
0000
0001
0000
0100
0000
0010
0000
1000
0000
0001
0000
0000
0000
,
0020
0100
0001
1000
,
0230
0010
1000
0301
,
1000
0100
0001
0001
0010
0100
0001
0000
,
0100
0001
0100
0000
1000
0000
0100
0000
0010
0000
0001
0000
1000
0000
0000
0000
,
1001
0000
0000
0100
0010
0000
0000
0001
0100
0000
0010
0000
0100
0000
0000
0000
,
1010
0000
0000
0100
1000
0000
0000
0001
0010
0000
0100
0000
0100
0000
0000
0000
,
0110
0000
0000
1000
0100
0000
0000
0001
0010
0000
0100
0000
1000
0000
0000
0000
,
0011
0000
0000
1000
0100
0000
0000
0010
0001
0000
0100
0000
0010
0000
0000
0000
,
1001
0000
0000
0100
0010
0000
0000
1000
0100
0000
0010
0000
0100
0000
0000
0000
,
0011
0000
0000
0100
0001
0000
0000
1000
0010
0000
0100
0000
0100
0000
0000
0000
,
0110
0000
0000
0001
0100
0000
0000
1000
0010
0000
0100
0000
0001
0000
0000
0000
,
1000
1001
0001
1001
,
0000
0000
0000
0000
;
#NOTES:
     dance-single:
     :
     Challenge:
     13:
     :
0000
0000
0000
0000
,
0000
0000
0000
0000
,
0000
0000
0000
0000
,
0000
0000
0000
0000
,
0000
0000
0000
0000
,
2002
0000
0000
3003
,
0010
0200
0000
0000
0000
0000
0300
0000
,
2002
0000
0000
3003
,
0010
0010
0100
0100
,
0001
0000
0100
0000
0010
0000
1000
0100
1000
0000
0100
0000
0010
0000
0000
0000
,
0001
0000
0100
0000
0010
0000
1000
0001
1000
0000
0100
0000
0010
0000
0000
0000
,
0001
0000
0100
0000
0010
0000
1000
0100
1000
0000
0100
0000
0010
0000
0000
0000
,
0100
0000
1000
0000
0001
0000
0100
0001
0100
0000
0010
0000
0100
0000
0000
0000
,
0000
0000
0001
0000
0010
0001
1000
0000
0100
1000
0000
0001
0100
0000
0001
0000
,
0000
0000
1000
0000
0010
1000
0001
0000
0100
0001
0000
1000
0100
0000
1000
0000
,
0000
0000
0001
0000
0010
0100
1000
0000
0001
0100
0000
0010
1000
0000
0001
0000
,
1000
1000
0001
0001
1000
0001
1001
0000
,
0010
0000
0010
1000
0100
0000
0100
0001
,
0010
0000
0010
1000
0100
1000
0010
1000
,
0100
0000
0100
0001
0010
0000
0010
1000
,
0100
0000
0100
0001
0010
0001
0100
0000
,
0000
0001
0100
1000
0001
1000
0100
0001
,
1000
0100
0001
1000
0001
0100
1000
0000
,
0001
0000
0010
0000
1000
0000
0100
0100
,
0010
0010
0010
0010
,
0110
0000
0001
0100
0000
0010
1000
0010
1000
0000
0001
0000
1000
0000
0000
0000
,
0110
0000
1000
0100
0000
0010
0001
0010
0001
0000
1000
0000
0001
0000
0000
0000
,
1100
0000
0001
0100
0000
0010
0100
0010
0100
0000
0001
0000
1000
0000
0000
0000
,
1010
0000
0001
0010
0000
0100
1000
0100
1000
0000
0001
0000
1000
0000
0000
0000
,
0110
0000
0010
1000
0000
0001
1000
0001
1000
0000
0100
0000
0010
0000
0000
0000
,
1001
0000
0100
0010
0000
0001
0010
0001
1000
0000
0001
0000
0100
0000
0000
0000
,
0110
0000
0010
1000
0000
0001
1000
0001
0100
0000
0001
0000
1000
0000
0000
0000
,
0002
0000
0000
2000
0000
0000
3003
0000
,
1000
0000
0100
0000
0010
0000
0001
0100
0001
0000
0100
0000
0010
0000
0000
0000
,
1000
0000
0100
0000
0010
0001
1000
0001
1000
0000
0010
0000
0100
0000
0000
0000
,
1000
0000
0100
0000
0010
0000
0001
0100
0001
0000
0100
0000
0010
0000
0000
0000
,
0100
0000
0001
0000
1000
0100
1000
0100
0010
0000
0100
0000
1000
0000
0000
0000
,
0000
0000
1000
0000
0010
1000
0001
0000
0100
0001
0000
1000
0100
0000
1000
0000
,
0000
0000
0001
0000
0010
0001
1000
0000
0100
1000
0000
0001
0100
0000
0001
0000
,
0000
0000
1000
0000
0010
0100
0001
0000
1000
0100
0000
0010
0001
0000
1000
0000
,
0001
0001
1000
1000
0001
1000
1001
0000
,
0010
0000
0010
0001
0100
0000
0100
1000
,
0010
0000
0010
0100
0010
0000
0001
0000
0100
0000
0001
0000
0010
0000
0000
0000
,
0100
0000
0100
1000
0010
0000
0010
0001
,
0100
0010
0100
0000
0100
0000
1000
0000
0010
0000
1000
0000
0100
0000
0000
0000
,
0000
1000
0100
0001
1000
0001
0100
1000
,
0001
1000
0001
0000
0100
0000
1000
0000
0001
0000
1000
0000
0100
0000
0000
0000
,
0001
0100
1000
0010
,
0100
0010
0100
0000
0010
0000
0010
0000
0100
0000
0100
0000
0100
0000
0000
0000
,
0110
0000
1000
0100
0000
0010
0001
0010
0001
0000
1000
0000
0001
0000
0000
0000
,
0110
0000
0001
0100
0000
0010
1000
0010
1000
0000
0001
0000
1000
0000
0000
0000
,
0101
0000
1000
0100
0000
0010
0100
0010
0100
0000
1000
0000
0001
0000
0000
0000
,
0011
0000
1000
0010
0000
0100
0001
0100
0001
0000
1000
0000
0001
0000
0000
0000
,
0110
0000
0010
0001
0000
1000
0001
1000
0001
0000
0100
0000
0010
0000
0000
0000
,
1001
0000
0100
0010
0000
1000
0010
1000
0001
0000
1000
0000
0100
0000
0000
0000
,
0110
0000
0010
0001
0000
1000
0001
1000
0100
0000
1000
0000
0001
0000
0000
0000
,
1000
1000
0001
0001
,
0110
0000
0000
0000
,
0000
0000
0000
0000
;
#NOTES:
     dance-double:
     :
     Easy:
     5:
     :
00000000
00000000
00000000
00000000
,
00000000
00000000
00000000
00000000
,
00000000
00000000
00000000
00000000
,
00000000
00000000
00000000
00000000
,
00000000
00000000
00000000
00000000
,
00000000
00000000
00000000
00000000
,
00000000
00000000
00000000
00000000
,
00000000
00000000
00000000
00000000
,
00000000
00000000
00000000
00000000
,
00000010
00000000
00001000
00000001
,
00001000
00000000
00000100
00000100
,
00010000
00000000
00001000
00001000
,
00010000
00000000
01000000
01000000
,
10000000
00000000
01000000
00000000
,
00100000
00000000
00001000
00000000
,
00010000
00000000
00000010
00000000
,
00000100
00001000
00010000
00100000
,
20000000
00000000
31000000
00000000
,
00200000
00000000
00301000
00000000
,
00010000
00000000
00001000
00000000
,
00000100
00000001
00000100
00000000
,
00000002
00000000
00000103
00000000
,
00000020
00000000
00010030
00000000
,
00001000
00000000
00010000
00000000
,
00001000
00001000
00010000
00010000
,
00011000
00000000
01000000
00010000
,
00011000
00000000
00000010
00000100
,
00011000
00000000
00010000
00100000
,
00011000
00000000
00001000
00010000
,
00011000
00000000
00000100
00001000
,
00011000
00000000
00100000
01000000
,
00011000
00000000
00001000
00000010
,
00001000
00010000
00001000
00010000
,
00000100
00000000
00001000
00000001
,
00001000
00000000
00000010
00000010
,
00010000
00000000
00001000
00001000
,
00010000
00000000
00100000
00100000
,
10000000
00000000
00100000
00000000
,
01000000
00000000
00001000
00000000
,
00010000
00000000
00000100
00000000
,
00000010
00001000
00010000
01000000
,
00200000
00000000
00310000
00000000
,
00002000
00000000
00013000
00000000
,
00000010
00000000
00010000
00000000
,
00000100
00000010
00000100
00000000
,
00000020
00000000
00001030
00000000
,
00020000
00000000
00031000
00000000
,
00100000
00000000
00001000
00000000
,
00010000
00010000
00001000
00001000
,
00011000
00000000
00000100
00001000
,
00011000
00000000
00100000
01000000
,
00011000
00000000
00001000
00000010
,
00011000
00000000
00010000
00001000
,
00011000
00000000
01000000
00010000
,
00011000
00000000
00000010
00000100
,
00011000
00000000
00010000
00100000
,
00010000
00001000
00010000
00001000
,
00011000
00000000
00000000
00000000
,
00000000
00000000
00000000
00000000
;
#NOTES:
     dance-double:
     :
     Medium:
     8:
     :
00000000
00000000
00000000
00000000
,
00000000
00000000
00000000
00000000
,
00000000
00000000
00000000
00000000
,
00000000
00000000
00000000
00000000
,
00000000
00000000
00000000
00000000
,
00000000
00000000
00000000
00000000
,
00000000
00000000
00000000
00000000
,
00000000
00000000
00000000
00000000
,
00000000
00000000
00000000
00000000
,
00000000
00000000
00010000
00000000
10000000
01000000
00100000
00000000
,
00000000
00000000
00001000
00000000
00000100
00000010
00001000
00000000
,
00000000
00000000
00000001
00000000
00000010
00000100
00000010
00000000
,
00001000
00000000
00010000
00000000
01000000
10000000
01000000
00000000
,
00100000
00000000
00010000
00000000
01000000
00100000
10000000
00000000
,
01000000
00000000
00100000
00000000
00001000
00010000
00000010
00000000
,
00000100
00000000
00000001
00000000
00000100
00000010
00000100
00000000
,
00001000
00010000
00100000
10000000
02000000
00000000
03000000
00000000
,
00200000
10000000
01000000
10300000
,
00002000
00100000
00010000
00103000
,
00001000
00000100
00000001
00000010
,
00000100
00000000
00001000
00000000
00010000
00001000
00000100
00000000
,
00000020
00000001
00000100
00000031
,
00020000
00000010
00001000
00030010
,
00010000
01000000
10000000
00100000
,
00011000
00011000
00011000
00011000
,
00011000
00000000
01000000
00100000
10000000
00000000
00010000
00000000
,
00011000
00000000
00000100
00000010
00000100
00000000
00001000
00000000
,
00011000
00000000
00010000
01000000
00010000
00000000
00001000
00000000
,
00011000
00000000
00001000
00000100
00000010
00000000
00001000
00000000
,
00011000
00000000
00000100
00000010
00000001
00000000
00001000
00000000
,
00011000
00000000
01000000
00100000
01000000
00000000
00010000
00000000
,
00011000
00000000
00001000
00000100
00001000
00000000
00010000
00000000
,
00001000
00010000
00001000
00010000
,
00000000
00000000
00001000
00000000
00000001
00000100
00000010
00000000
,
00000000
00000000
00010000
00000000
01000000
00100000
00010000
00000000
,
00000000
00000000
10000000
00000000
00100000
01000000
00100000
00000000
,
00010000
00000000
00001000
00000000
00000100
00000001
00000100
00000000
,
00000010
00000000
00001000
00000000
00000100
00000010
00000001
00000000
,
00000100
00000000
00000010
00000000
00010000
00001000
00100000
00000000
,
01000000
00000000
10000000
00000000
01000000
00100000
01000000
00000000
,
00010000
00001000
00000010
00000001
00000200
00000000
00000300
00000000
,
00000020
00000100
00001000
00000130
,
00020000
00100000
00001000
00130000
,
00010000
00100000
10000000
01000000
,
00010000
00000000
00001000
00000000
00010000
00100000
10000000
00000000
,
00200000
01000000
00010000
01300000
,
00002000
00000010
00010000
00003010
,
00001000
00000010
00000001
00000100
,
00001000
00000000
00010000
00000000
00001000
00010000
00001000
00000000
,
00011000
00000000
00000100
00000010
00000001
00000000
00001000
00000000
,
00011000
00000000
01000000
00100000
01000000
00000000
00010000
00000000
,
00011000
00000000
00001000
00000100
00001000
00000000
00010000
00000000
,
00011000
00000000
00010000
01000000
00100000
00000000
00010000
00000000
,
00011000
00000000
01000000
00100000
10000000
00000000
00010000
00000000
,
00011000
00000000
00000100
00000010
00000100
00000000
00001000
00000000
,
00011000
00000000
00010000
01000000
00010000
00000000
00001000
00000000
,
00010000
00001000
00010000
00001000
,
00011000
00000000
00000000
00000000
,
00000000
00000000
00000000
00000000
;
#NOTES:
     dance-double:
     :
     Hard:
     11:
     :
00000000
00000000
00000000
00000000
,
00000000
00000000
00000000
00000000
,
00000000
00000000
00000000
00000000
,
00000000
00000000
00000000
00000000
,
00000000
00000000
00000000
00000000
,
00000000
00000000
00000000
00000000
,
00000000
00000000
00000000
00000000
,
00000000
00000000
00000000
00000000
,
00000000
00000000
00000000
00000000
,
00000000
00000000
10000000
01000000
10000000
00100000
00010000
00000000
,
00000000
00001000
00000100
00000001
00000010
00000100
00001000
00000000
,
00000000
00000010
00010000
00001000
00010000
00000100
00000110
00000000
,
00000000
00010000
00001000
00100000
01000000
10000000
10010000
00000000
,
00000000
01000000
00100000
10000000
01000000
00010000
00001000
00000000
,
00000100
00000001
00000010
00000100
00010000
00001000
00100000
00000000
,
00000000
01000000
00100000
00010000
10000000
00000000
00110000
00000000
,
01000000
00100000
00010000
00001000
00000100
00000010
00000001
00000000
,
00000200
00001000
00000001
00000010
,
00002300
00000100
00010000
00103000
,
00000000
01000000
00010000
01000000
00100000
00010000
00001000
00000000
,
00010000
00100000
01000000
10000000
01000000
00010000
00100000
00000000
,
02000000
00010000
10000000
00100000
,
03020000
01000000
00001000
00030010
,
00000000
00000100
00001000
00000100
00000010
00001000
00010000
00000000
,
00001000
00100000
00000010
00010000
,
00011000
00000000
00000000
01000000
00100000
00000000
00000000
10000000
01000000
00000000
00100000
00000000
00001000
00000000
00000000
00000000
,
00011000
00000000
00000000
00000100
00001000
00000000
00000000
00000001
00000010
00000000
00000100
00000000
00000100
00000000
00000000
00000000
,
00011000
00000000
00000000
00010000
01000000
00000000
00000000
10000000
00100000
00000000
01000000
00000000
00010000
00000000
00000000
00000000
,
00011000
00000000
00000000
00010000
01000000
00000000
00000000
00100000
10000000
00000000
01000000
00000000
00100000
00000000
00000000
00000000
,
00011000
00000000
00000000
00000100
00000010
00000000
00000000
00000001
00000100
00000000
00000010
00000000
00010000
00000000
00000000
00000000
,
00011000
00000000
00000000
01000000
00010000
00000000
00000000
10000000
00100000
00000000
01000000
00000000
01000000
00000000
00000000
00000000
,
00011000
00000000
00000000
00001000
00000100
00000000
00000000
00000001
00000010
00000000
00000100
00000000
00001000
00000000
00000000
00000000
,
00000010
00100000
00001000
00010000
,
01000000
00000000
10000000
00100000
10000000
01000000
00010000
00000000
,
00001000
00000000
00000010
00000001
00000100
00000010
00001000
00000000
,
00000100
00001000
00010000
00000000
00010000
00001000
00000100
00000000
,
00001000
00010000
00001000
01000000
00100000
10000000
10010000
00000000
,
01000000
00100000
01000000
10000000
00100000
00010000
00001000
00000000
,
00000010
00000001
00000100
00000010
00010000
00001000
01000000
00000000
,
00010000
00100000
10000000
00000000
10000000
00100000
00010000
00000000
,
00100000
01000000
00010000
00001000
00000010
00000100
00000001
00000000
,
00002000
00100000
00000100
00100000
,
00003200
00000001
00001000
00000301
,
00000010
00000100
00001000
00000000
00010000
01000000
00100000
00000000
,
00010000
01000000
10000000
01000000
00100000
10000000
10000000
00000000
,
00020000
00000010
01000000
00000010
,
02030000
10000000
00010000
13000000
,
00100000
01000000
00010000
00000000
00001000
00000100
00000010
00000000
,
00000001
00000100
00001000
00010000
00100000
10000000
00010000
00000000
,
00011000
00000000
00000000
00100000
01000000
00000000
00000000
10000000
00100000
00000000
01000000
00000000
00001000
00000000
00000000
00000000
,
00011000
00000000
00000000
00000010
00001000
00000000
00000000
00000001
00000100
00000000
00000010
00000000
00000010
00000000
00000000
00000000
,
00011000
00000000
00000000
00010000
00100000
00000000
00000000
10000000
01000000
00000000
00100000
00000000
00010000
00000000
00000000
00000000
,
00011000
00000000
00000000
00010000
00100000
00000000
00000000
01000000
10000000
00000000
00100000
00000000
01000000
00000000
00000000
00000000
,
00011000
00000000
00000000
00000010
00000100
00000000
00000000
00000001
00000010
00000000
00000100
00000000
00010000
00000000
00000000
00000000
,
00011000
00000000
00000000
00100000
00010000
00000000
00000000
10000000
01000000
00000000
00100000
00000000
00100000
00000000
00000000
00000000
,
00011000
00000000
00000000
00001000
00000010
00000000
00000000
00000001
00000100
00000000
00000010
00000000
00001000
00000000
00000000
00000000
,
00000100
01000000
00001000
00010000
,
00011000
00000000
00000000
00000000
,
00000000
00000000
00000000
00000000
;
#NOTES:
     dance-double:
     :
     Challenge:
     12:
     :
00000000
00000000
00000000
00000000
,
00000000
00000000
00000000
00000000
,
00000000
00000000
00000000
00000000
,
00000000
00000000
00000000
00000000
,
00000000
00000000
00000000
00000000
,
00011000
00000100
00000000
00000100
,
00011000
01000000
00000000
01000000
,
00011000
00000100
00000000
00000100
,
00010000
00010000
00001000
00001000
,
00000000
00000000
00010000
00000010
00000001
00000010
00010000
00000000
,
00000000
00000100
00010000
01000000
00001000
00010000
00000010
00000000
,
00000000
00000001
00000100
00010000
00001000
00100000
00010000
00000000
,
00000000
10000000
01000000
00010000
00100000
01000000
00100000
00000000
,
00000000
10000000
01000000
00010000
00000100
00000010
00000001
00000000
,
00001000
00000001
00000100
00001000
01000000
00100000
10000000
00000000
,
00000000
00010000
00100000
01000000
10000000
00000000
00010000
00000000
,
00001000
00001000
00000010
00000010
00000100
00000001
00001000
00000000
,
00001001
00002001
00010000
00023000
,
10000000
00000000
10030000
00000000
00100000
10000000
00010000
00000000
,
00000000
10000000
01000000
00100000
00010000
00001000
00000100
00000000
,
00000010
00000001
00000100
00000010
00001000
00010000
01000000
00000000
,
10010000
10020000
00001000
00032000
,
00000001
00000000
00003001
00000000
00000010
00000001
00001000
00000000
,
00000000
00000001
00000100
00000010
00001000
00010000
01000000
00000000
,
10000000
00010000
10000000
00010000
,
01100000
00000000
10000000
01000000
00010000
00001000
00000100
00000000
,
00000110
00000000
00000001
00000100
00001000
00010000
01000000
00000000
,
01100000
00000000
10000000
01000000
00010000
00001000
00000100
00000000
,
00000110
00000000
00000001
00000100
00001000
00010000
01000000
00000000
,
10020000
00031000
00002001
00013000
,
10020000
00031000
00002001
00013000
,
10010000
00000000
01000000
00100000
00010000
00001000
00000100
00000010
,
00000002
00000000
00000000
00002000
00000000
00000000
00003003
00000000
,
00000010
00001000
00010000
00001000
00000010
00001000
00010000
00000000
,
00001000
00010000
01000000
00100000
00010000
00001000
00100000
00000000
,
10000000
00010000
01000000
00010000
00000100
00001000
00000010
00000000
,
00010000
00001000
00000100
00000001
00000010
00000100
00000010
00000000
,
00000010
00000000
00000001
00000100
00000000
00000000
00001000
00000000
01000000
00000000
00100000
10000000
00000000
00000000
00000000
00000000
,
00010000
00000000
10000000
01000000
00000000
00000000
00010000
00000000
00000100
00000000
00000010
00000001
00000000
00000000
00000000
00000000
,
00001000
00001000
00000010
00000000
00000100
00000001
00001000
00000000
,
00010000
00010000
00100000
00100000
01000000
10000000
00010000
00000000
,
10010000
10020000
00001000
00032000
,
00003001
00000000
00000001
00001000
00000001
00000000
00000001
00000000
00000010
00000000
00000001
00000000
00001000
00000000
00000000
00000000
,
00000001
00000100
00000010
00001000
00010000
01000000
00100000
00000000
,
10000000
01000000
10000000
00000000
01000000
00000000
00100000
00000000
00010000
00000000
00001000
00000000
00000100
00000000
00000000
00000000
,
00001001
00002001
00010000
00023000
,
10030000
00000000
10000000
00010000
10000000
00000000
10000000
00000000
00100000
00000000
10000000
00000000
00010000
00000000
00000000
00000000
,
10000000
01000000
00100000
00010000
00001000
00000100
00000010
00000000
,
00000001
00001000
00000001
00000000
00001000
00000000
00001000
00000000
00000001
00000000
00001000
00000000
00000001
00000000
00000000
00000000
,
00000110
00000000
00010000
10000000
,
01100000
00000000
00001000
00000001
,
00000110
00000000
00010000
10000000
,
01100000
00000000
00001000
00000001
,
00002001
00013000
10020000
00031000
,
00002001
00013000
10020000
00031000
,
00001001
00000000
00000100
00000010
00001000
00010000
01000000
00100000
,
20000000
00000000
00000000
00020000
00000000
00000000
30030000
00000000
,
01100000
00000000
00000000
00000000
,
00000000
00000000
00000000
00000000
;
