#TITLE:Daily Lunch Special;
#ARTIST:Lucky Vacuum;
#BANNER:Daily Lunch Special.png;
#BACKGROUND:Daily Lunch Special-bg.png;
#CDTITLE:./CDTITLES/Reflec beat colette.png;
#MUSIC:Daily Lunch Special.ogg;
#SAMPLESTART:19.755;
#SAMPLELENGTH:15;
#BPMS:0=205;
#NOTES:
     dance-single:
     :
     Beginner:
     3:
     :
0000
0000
0000
0000
,
0000
0000
0000
0000
,
0000
0000
0000
0000
,
0000
0000
0000
0000
,
0000
0000
0000
0000
,
0000
1000
0000
1000
,
0000
1000
1000
0000
,
0000
0001
0000
0001
,
0000
0001
0001
0000
,
0000
1000
0000
1000
,
0000
1000
1000
0000
,
0000
0001
0000
0001
,
0000
0001
0001
0000
,
0000
0010
0000
0010
,
0000
0010
0010
0000
,
0000
0100
0000
0100
,
0000
0100
0100
0000
,
0000
0001
0000
0001
,
0000
0001
0000
0001
,
0000
0100
0000
0100
,
0000
0100
0000
0100
,
0000
1000
0000
1000
,
0000
1000
1000
0000
,
0000
0010
0000
0010
,
0000
0010
0010
0000
,
0000
0001
0000
0001
,
0000
0001
0001
0000
,
0000
1000
0000
1000
,
0000
1000
1000
0000
,
0000
0001
0000
0001
,
0000
1000
0000
1000
,
0000
0010
0000
0010
,
0000
0010
0000
0010
,
0000
0010
0010
0000
,
0100
0000
0000
0000
,
0000
0000
0000
0000
,
0001
0000
0000
0000
,
0000
0000
0000
0000
,
0100
0000
0000
0000
,
0000
0000
0000
0000
,
1000
0000
0000
0000
,
0000
0000
0000
0000
,
0010
0000
0000
0000
,
0010
0000
0000
0000
,
0001
0000
0000
0000
,
0010
0000
0000
0000
,
1000
0000
0000
0000
,
1000
0000
0000
0000
,
0010
0000
0000
0000
,
0100
0100
0100
0100
,
0100
0000
0000
0000
,
0000
0000
0000
0000
,
0000
0000
0000
0000
,
0000
0000
0000
0000
,
0001
0000
0001
0000
,
1000
0000
1000
0000
,
0010
0010
0020
0000
,
0030
0000
0000
0000
,
0000
0000
0000
0000
,
0000
0001
0000
0001
,
0000
0100
0100
0000
,
0000
1000
0000
1000
,
0000
0100
0100
0000
,
0000
0001
0000
0001
,
0000
1000
0000
1000
,
0000
0001
0000
0001
,
0000
0100
0100
0000
,
0000
1000
0000
1000
,
0000
1000
1000
0000
,
0000
0001
0000
0001
,
0000
0001
0001
0000
,
0000
0100
0000
0100
,
0000
0100
0000
0100
,
0000
0010
0000
0010
,
0000
0010
0010
0010
,
0000
0010
0000
0010
,
0000
0100
0000
0100
,
0000
0001
0000
0001
,
0000
1000
1000
1000
,
0000
0001
0000
0001
,
0000
0010
0000
0010
,
0000
1000
0000
1000
,
0000
0001
0001
0001
,
0000
0100
0000
0100
,
0000
0100
0000
0100
,
0000
0010
0000
0010
,
0000
0100
0000
0100
,
0000
0001
0000
0001
,
0000
1000
0000
1000
,
0000
0010
0000
0010
,
0000
0100
0100
0100
,
0000
0001
0001
0001
,
0000
1000
1000
1000
,
0000
0001
1000
0000
,
2002
0000
0000
0000
,
3003
0000
0000
0000
,
0200
0000
0000
0000
,
0300
0000
0000
0000
,
0020
0000
0000
0000
,
0030
0000
0000
0000
,
0200
0000
0000
0000
,
0300
0000
0000
0000
,
0000
0000
0000
0000
;
#NOTES:
     dance-single:
     :
     Easy:
     7:
     :
0000
0000
0000
0000
,
0000
0000
0000
0000
,
0000
0000
0000
0000
,
0000
0000
0000
0000
,
0000
0000
0000
0000
,
0000
1000
0010
1000
,
0001
0001
0100
0000
,
0000
0010
1000
0001
,
0000
0010
0001
1000
,
0000
0001
0100
0001
,
1000
1000
0010
0000
,
0000
0100
0010
0100
,
0001
0001
1000
0000
,
0000
0100
0001
0100
,
0010
0010
1000
0000
,
0000
0000
0001
0000
0001
0000
0000
1000
,
0000
0000
0001
0000
2002
0000
0000
3003
,
0000
0100
0001
1000
,
0010
0000
0000
0200
0000
0000
0000
0300
,
0000
0010
1000
0100
,
0010
0000
0000
0200
0000
0000
0300
0000
,
1000
1000
0001
0001
,
1000
0000
0100
0000
0002
0000
0000
0003
,
0000
0001
0100
1000
,
0010
0000
0010
0000
0200
0000
0000
0300
,
0000
0001
1000
0001
,
1000
0000
0000
0200
0000
0000
0000
0300
,
0000
0010
0001
0100
,
0010
0000
0000
0200
0000
0000
0300
0000
,
0001
0001
1000
1000
,
0001
0000
0010
0000
2000
0000
0000
3000
,
0000
1000
0010
0001
,
1000
0010
0010
0010
,
0100
0010
1001
0000
,
0200
0000
0000
0300
,
0002
0000
0000
0003
,
2000
0000
0000
3000
,
0020
0000
0000
0030
,
0200
0000
0000
0300
,
0002
0000
0000
0003
,
0020
0000
0000
0030
,
0200
0000
0000
0300
,
1000
0000
1000
0000
,
0100
0000
0100
0000
,
0001
0000
0001
0000
,
1000
0000
0001
0000
,
0010
0000
0010
0000
,
1000
0000
1000
0000
,
0001
0000
0001
0000
,
0010
0100
0100
0100
,
2002
0000
0000
0000
,
0000
0000
0000
0000
,
0000
0000
0000
0000
,
0000
0000
0000
3003
,
1000
0001
1000
0001
,
1000
0001
1000
0001
,
0010
0000
0010
0000
0010
0000
0010
0020
,
0000
0000
0000
0000
,
0030
0000
0000
0000
,
0001
0100
0010
1000
,
0001
0000
0000
2000
0000
0000
0000
3001
,
0000
0001
1000
0100
,
0010
0000
0000
0200
0000
0000
0300
0000
,
1000
1000
0100
0010
,
1000
0000
0001
0000
0200
0000
0000
0310
,
0000
0000
0010
0000
0100
0000
0000
1000
,
0000
0000
0001
0000
2002
0000
0000
3003
,
0000
0010
0001
0100
,
0010
0000
0000
0002
0000
0000
0000
1003
,
0000
1000
0100
0010
,
1000
0000
0000
2000
0000
0000
3000
0000
,
0001
1000
0010
0100
,
0001
0000
0010
0000
0100
0000
0000
1000
,
0000
0001
0100
0010
,
0000
1000
0000
0000
1000
0000
0000
2000
,
0000
3001
0100
0010
,
0100
0001
0010
0100
,
1000
0010
0100
0001
,
1000
0100
0001
0100
,
1000
1000
0010
0100
,
1000
0001
0100
0010
,
0001
0001
0100
0010
,
1000
0000
0001
0000
2002
0000
0000
3003
,
0000
0100
0010
0100
,
0010
0000
0020
0000
0000
0000
0000
0130
,
0000
1000
0001
1000
,
0010
0100
0001
0000
,
1000
1000
0010
0010
,
0100
0001
1000
0100
,
0010
0010
0001
0001
,
1000
0010
0010
0010
,
1000
0100
0100
0100
,
1000
0010
0010
0010
,
1000
0001
1001
0000
,
0200
0000
0000
0300
,
0002
0000
0000
0003
,
0020
0000
0000
0030
,
2000
0000
0000
3000
,
0200
0000
0000
0300
,
0002
0000
0000
0003
,
0020
0000
0000
0030
,
2000
0000
0000
3000
,
1001
0000
0000
0000
,
0000
0000
0000
0000
;
#NOTES:
     dance-single:
     :
     Medium:
     10:
     :
0000
0000
0000
0000
,
0000
0000
0000
0000
,
0000
0000
0000
0000
,
0000
0000
0000
0000
,
0000
0000
0000
0000
0000
0000
0000
0200
,
0000
0301
1000
0001
,
0010
0000
0100
0000
0010
0010
0000
0200
,
0000
0000
1300
0000
0001
0000
1000
0001
,
0000
0001
1000
0000
0001
0000
0001
0200
,
0000
0310
1000
0001
,
1000
0000
0100
0000
0010
0010
0000
0200
,
0000
0310
0001
1000
,
0001
0000
0100
0000
0010
0010
0000
2000
,
0000
3100
0001
0100
,
0010
0000
0001
0000
1000
1000
0000
0020
,
0000
0000
0130
0000
0001
0000
0010
0100
,
0000
0100
0000
0100
1000
0000
0000
0002
,
0000
0000
0103
0000
0010
1000
0010
0000
,
0100
0001
0000
0200
0000
0000
0000
0310
,
0000
1000
0001
0000
1000
0000
0100
0000
,
0010
0100
0000
0010
0000
0001
0000
1000
,
0001
0000
0001
0000
1000
0100
0000
0020
,
0000
0000
0000
0000
0000
0000
0000
0130
,
0000
0001
1000
0000
1000
0000
0001
0100
,
0000
0010
0100
0010
0200
0000
0000
0301
,
0000
0001
1000
0000
1000
0100
1000
0000
,
1000
0100
0000
0020
0000
0000
0000
0130
,
0000
0001
0100
0000
0001
1000
0001
0000
,
0001
0010
0000
0100
0000
1000
0000
0001
,
0100
0000
0100
0000
0010
0100
0000
0002
,
0000
0000
0000
0000
0000
0000
0000
1003
,
0000
1000
0001
0000
0001
0000
0100
0000
,
0000
0010
1000
0000
0001
0010
0000
0100
,
0000
0010
0100
0000
1001
0000
0000
0000
,
0020
0000
0000
0000
,
2000
0000
0000
3030
,
0200
0000
0000
0000
,
0302
0000
0013
0000
,
0020
0000
0000
0000
,
0002
0000
0000
0033
,
0200
0000
0000
0000
,
2300
0000
3001
0000
,
0100
0100
0001
0001
,
1000
1000
0100
0100
,
0001
0001
1000
1000
,
0100
0001
0010
1000
,
0100
0100
1000
1000
,
0001
0001
0100
0100
,
1000
1000
0001
0001
,
0100
0110
1001
0110
,
2002
0000
0000
0000
,
0000
0000
0000
0000
,
0000
0000
0000
0000
,
0000
0000
0000
3003
,
0100
0000
0001
0000
0100
0000
0010
0010
,
0100
0000
1000
0000
0100
0000
0010
0010
,
0110
0000
1010
0000
0101
0000
1000
0200
,
0000
0001
0010
1300
,
0000
0001
0001
0001
,
1000
0001
1000
0000
0010
0100
0010
0000
,
0001
1000
0000
0200
0000
0000
0000
0310
,
0000
0010
0001
0000
0100
0000
1000
0000
,
0001
0010
1000
0100
,
1000
0100
1000
0000
1000
0001
0000
0020
,
0000
0000
0100
0000
0100
0000
0100
0130
,
0000
0000
1000
0000
0001
0000
1000
0010
,
0000
0010
0100
0010
0200
0000
0000
0301
,
0000
1000
1000
0000
0001
0000
0100
0000
,
1000
0100
0000
2000
0000
0000
0000
3100
,
0000
0010
0010
0000
0001
0000
1000
0000
,
0100
0001
0000
1000
0000
0001
0000
1000
,
0010
0000
0100
0000
0001
0100
0000
0020
,
0000
0000
0100
0000
0100
0000
0100
0130
,
0000
0000
1000
0000
0001
0000
0100
0100
,
0000
0001
0001
0000
1000
1000
0000
1001
,
0000
0010
0100
0010
0000
1000
0010
0000
,
0100
0001
0000
0010
0001
0000
1000
0200
,
0000
0000
0320
0000
,
0032
0000
0000
0000
2003
0000
0000
3002
,
0000
0000
0000
0000
0003
1000
0010
0000
,
0100
0001
0100
0001
0000
1000
0001
2000
,
0000
0000
3100
0000
0010
0001
0000
1000
,
0000
0001
0100
0001
0100
0000
0010
0200
,
0000
0310
1000
0000
0001
0010
0000
1000
,
0010
0000
0001
0020
0000
0100
0000
0130
,
0000
0100
1000
0000
0001
0000
0100
0000
,
1000
0001
0100
0010
,
1000
0001
0100
0000
0010
0100
0000
0002
,
0000
1000
0000
1000
0000
1000
0000
1003
,
0000
0000
0100
0000
1000
0010
1000
0010
,
0000
0010
0100
0000
0100
0010
0000
0110
,
0000
0001
1000
0000
1000
0001
0000
1001
,
0000
0100
0010
0000
0010
0100
0000
0110
,
0000
0001
1000
0000
1001
0000
0000
0000
,
0020
0000
0000
0001
0000
0000
0031
0000
,
0002
0000
0000
0100
0000
0000
0103
0000
,
0200
0000
0000
0010
0000
0000
0310
0000
,
2000
0000
0000
3000
,
0002
0000
0000
0010
0000
0000
0013
0000
,
0020
0000
0000
0100
0000
0000
0130
0000
,
0200
0000
0000
1000
0000
0000
1300
0000
,
2000
0000
0000
3000
,
1001
0000
0000
0000
,
0000
0000
0000
0000
;
#NOTES:
     dance-single:
     :
     Hard:
     14:
     :
0000
0000
0000
0000
,
0000
0000
0000
0000
,
0000
0000
0000
0000
,
0000
0000
0000
0000
,
0000
0000
0000
0000
0000
0000
0000
0201
,
0000
0310
1000
0000
0100
1000
0001
0000
,
1000
0100
1000
0001
0100
0010
0000
0120
,
0000
1030
0001
0000
0010
0001
1000
0010
,
0000
0010
0100
0001
0100
0001
1000
1200
,
0000
0310
0001
0000
0100
0001
1000
0000
,
0010
1000
0001
0010
0100
0010
0000
2100
,
0000
3001
0100
0000
0010
1000
0100
0000
,
0010
0001
1000
0010
0100
0001
0000
0102
,
0000
1003
0010
0000
0100
0001
1000
0000
,
0100
1000
0001
1000
0100
0010
0000
0120
,
0000
0031
1000
0000
0100
1000
0001
1000
,
0000
0110
0000
0001
1000
0000
0000
2100
,
0000
3010
0100
0001
1000
0010
0100
0001
,
0010
0001
0000
2002
0000
0000
3003
1001
,
0000
0000
0010
0000
1000
0000
0100
0000
1000
0000
0001
0100
0001
0000
1000
0000
,
0001
0100
0010
1000
0001
0010
0001
1000
,
0010
0100
0010
0100
0001
1000
0000
2001
,
0000
0000
0010
0000
0010
0000
3010
1001
,
0000
1000
0001
0010
0100
0000
0100
0010
,
0000
0100
1000
0001
2002
0000
3003
1001
,
0000
1000
0100
0001
0100
0010
0100
1000
,
0001
1000
0000
0220
0000
0000
0330
1001
,
0000
0000
1000
0000
0010
0000
0100
0000
0010
0000
1000
0001
1000
0000
0001
0000
,
0100
0010
0100
0001
0010
0001
1000
0001
,
0100
0010
0100
0010
1000
0001
0000
2001
,
0000
0000
0010
0000
0010
0000
3010
1001
,
0000
0001
0010
0100
1000
0010
0100
0010
,
0000
1000
0010
0100
0001
0010
0100
0010
,
0000
0000
0010
0000
0001
0000
0000
0000
0110
0000
0001
1000
0001
0000
0000
0000
,
0200
0000
0000
0001
0000
0000
0000
0000
,
0320
0000
0000
0001
0000
0000
0000
0000
,
2030
0000
0000
0001
0000
0000
3100
0000
,
0020
0000
0032
0000
,
0203
0000
0000
0010
0000
0000
0000
0000
,
0302
0000
0000
0010
0000
0000
1003
0000
,
0200
0000
0000
1000
0000
0000
0310
0000
,
0001
0100
0010
1000
,
0001
0010
0100
0010
0001
0010
0100
0000
,
1000
0010
0100
0010
1000
0010
0100
0000
,
0001
0010
0100
1000
0100
0010
0001
0000
,
0001
0000
1000
0100
1000
0000
0001
0000
1000
0010
1000
0000
0001
0000
1000
0000
,
0001
0010
1000
0010
1000
0010
0001
0000
,
1000
0010
0001
0010
0001
0010
1000
0000
,
0001
0100
1000
0100
1000
0100
0010
0100
,
0001
1010
0101
0110
,
2002
0000
0000
0000
,
0000
0000
0000
0000
,
0000
0000
0000
0000
,
0000
0000
0000
3003
,
0110
0000
0001
1000
1010
0000
1000
0001
,
0011
0000
0001
0100
0110
0000
1000
0100
,
0110
0001
0100
0010
1000
0001
1000
0020
,
0000
0130
0001
1000
0100
0010
0001
1000
,
0000
0110
0110
0110
,
0010
0100
1000
0001
0100
0010
0100
0001
,
1000
0010
0000
2020
0000
0000
3030
0101
,
0000
0000
0001
0000
0100
0000
0010
0000
1000
0000
0100
1000
0100
0000
0010
0000
,
0001
0100
0010
0001
0010
0100
0001
1000
,
0001
0010
0001
0010
0100
1000
0000
0201
,
0000
0000
0010
0000
0010
0000
0310
1100
,
0000
0100
0010
0100
1000
0000
0001
0011
,
0000
0100
1000
0010
0100
0010
0100
0110
,
0000
0010
0001
0010
1000
0010
0001
0010
,
0100
0001
0000
0022
0000
0000
0033
1100
,
0000
0000
0001
0000
1000
0000
0010
0000
0100
0000
0010
1000
0010
0000
1000
0000
,
0010
0100
0001
0010
0001
1000
0100
0001
,
0100
0010
0100
0010
0001
0100
0000
1002
,
0000
0000
0010
0000
0010
0000
0013
1001
,
0000
1000
0100
0010
0001
1000
0010
0100
,
0000
0001
0010
1000
1000
0010
0001
0200
,
0000
0000
0310
0000
0010
0000
2000
0000
0010
0000
3010
0000
0100
0000
0010
0100
,
0010
0000
1000
0000
0010
1000
0010
0000
1000
0000
0001
0000
0010
0000
2100
0000
,
0000
3001
1020
0130
,
2010
0000
3100
0000
0012
0000
1003
0001
,
0100
0010
0100
0010
1000
0100
1000
0001
,
0010
0001
0100
0020
0000
1030
0001
2000
,
0000
0000
3100
0000
0010
0001
1000
1001
,
0000
0010
0100
0010
1000
0100
0010
0011
,
0000
0001
0100
1000
0100
0001
0100
1000
,
0100
0001
0100
0010
0000
0110
0000
1001
,
0000
1000
0010
0100
0001
0100
0010
1000
,
0100
0000
0010
0000
0001
0000
1000
0000
0001
0100
0001
0100
0001
0000
1000
0000
,
0020
0000
0100
0000
0100
0000
1030
2001
,
0000
0010
0000
0010
0000
3010
1000
1001
,
0000
0000
1010
0000
0001
0100
0010
0100
,
0000
0000
0100
0000
0001
1000
0001
0000
0010
0000
0001
1000
0001
0000
0100
0000
,
0000
0000
0010
0000
1000
0001
1000
0000
0100
0000
1000
0001
1000
0000
0010
0000
,
0000
0000
1000
0000
0010
0100
0010
0000
0001
0000
0010
0100
0010
0000
1000
0000
,
0000
0000
0001
0000
1001
0000
0000
0000
0110
0000
1000
0001
1000
0000
0000
0000
,
0020
0000
0000
0100
0000
0000
0031
0000
,
2000
0000
0000
0100
0000
0000
3010
0000
,
0200
0000
0000
1000
0000
0000
0301
0000
,
0002
0000
0000
1000
0000
0000
0103
0000
,
2100
0000
0000
0010
0000
0000
3100
0000
,
0021
0000
0000
1000
0000
0000
0031
0000
,
1200
0000
0000
0010
0000
0000
1300
0000
,
0102
0000
0000
1000
0000
0000
0013
0000
,
1001
0000
0000
0000
,
0000
0000
0000
0000
;
#NOTES:
     dance-double:
     :
     Easy:
     7:
     :
00000000
00000000
00000000
00000000
,
00000000
00000000
00000000
00000000
,
00000000
00000000
00000000
00000000
,
00000000
00000000
00000000
00000000
,
00000000
00000000
00000000
00000000
00000000
00000000
00000000
00010000
,
00000000
00001000
00001000
00000000
,
01000000
00000000
01000000
00000000
00100000
00000000
00000000
10000000
,
00000000
00000000
00010000
00000000
00010000
00000000
00000000
01000000
,
00000000
00000000
00001000
00000000
00001000
00000000
00000000
00010000
,
00000000
00000100
00000100
00000000
,
00000010
00000000
00000010
00000000
00000100
00000000
00000000
00001000
,
00000000
00000001
00000001
00000000
,
00000100
00000000
00000100
00000000
00000010
00000000
00000000
00000100
,
00000000
00001000
00001000
00000000
,
00100000
00000000
00100000
00000000
00010000
00000000
00000000
10000000
,
00000000
00000000
01000000
00000000
01000000
00000000
00000000
00010000
,
00000000
00000000
00001000
00000000
00011000
00000000
00000000
00010000
,
00000000
00001000
00001000
00000000
,
00000100
00000000
00000000
00002000
00000000
00000000
00000000
00003001
,
00000000
00000010
00000010
00000000
,
00000100
00000000
00000000
00002000
00000000
00000000
00003000
00000000
,
00010000
00000100
00010000
00000000
,
00001000
00000000
00100000
00000000
00002000
00000000
00000000
00013000
,
00000000
00000000
01000000
00000000
01000000
00000000
00000000
00010000
,
00000000
00000000
00100000
00000000
02000000
00000000
00000000
03100000
,
00000000
01000000
01000000
00000000
,
00010000
00000000
00000000
00002000
00000000
00000000
00000000
00013000
,
00000000
00000010
00000010
00000000
,
00001000
00001000
00000010
00000000
,
00000100
00000000
00000100
00000000
00000001
00000000
00000000
00000020
,
00000000
00000000
00000000
00000000
00000000
00000000
00000000
00000130
,
00000000
00000100
00000100
00000100
,
00000000
00001000
00000000
00000000
00001000
00000000
00000000
00010000
,
00000000
00001000
00011000
00000000
,
02000000
00000000
00000000
03000000
,
20000000
00000000
00000000
30000000
,
00200000
00000000
00000000
00300000
,
00002000
00000000
00000000
00003000
,
00000200
00000000
00000000
00000300
,
00000002
00000000
00000000
00000003
,
00000020
00000000
00000000
00000030
,
00020000
00000000
00000000
00030000
,
00001000
00000000
00001000
00000000
,
00010000
00000000
00010000
00000000
,
01000000
00000000
01000000
00000000
,
10000000
00000000
00010000
00000000
,
10000000
00000000
10000000
00000000
,
00100000
00000000
00100000
00000000
,
00010000
00000000
00010000
00000000
,
00001000
00010000
00010000
00010000
,
00022000
00000000
00000000
00000000
,
00000000
00000000
00000000
00000000
,
00000000
00000000
00000000
00000000
,
00000000
00000000
00000000
00033000
,
00010000
00001000
00000010
00000000
,
00001000
00010000
00100000
00000000
,
00010000
00000000
00001000
00000000
00000010
00000000
00000000
00000020
,
00000000
00000000
00000000
00000000
,
00000030
00000000
00000000
00000000
,
00000001
00000010
00000100
00010000
,
00001000
00000000
00000000
00002000
00000000
00000000
00000000
00013000
,
00000000
00001000
00100000
00010000
,
01000000
00000000
00000000
00200000
00000000
00000000
00300000
00000000
,
10000000
00000000
10000000
00000000
01000000
00000000
00000000
02000000
,
00000000
00000000
00000000
00000000
00000000
00000000
00000000
03100000
,
00000000
00000000
01000000
00000000
01000000
00000000
00000000
00010000
,
00000000
00000000
00001000
00000000
00002000
00000000
00000000
00013000
,
00000000
00010000
00001000
00000100
,
00000001
00000000
00000000
00000002
00000000
00000000
00000000
00000013
,
00000000
00000010
00000100
00001000
,
00010000
00000000
00000000
00002000
00000000
00000000
00003000
00000000
,
00010000
00001000
00010000
00000000
,
00010000
00000000
01000000
00000000
10000000
00000000
00000000
10000000
,
00000000
00100000
01000000
00100000
,
00000000
00010000
00000000
00000000
00010000
00000000
00000000
00020000
,
00000000
00031000
00010000
00000010
,
00010000
00000000
00000100
00000000
00001000
00000000
00000000
00000002
,
00000000
00001003
00000020
00000130
,
00002000
00003100
00020000
00031000
,
00010000
00001000
00010000
01000000
,
10000000
00000000
00010000
00000000
01000000
00000000
00000000
00200000
,
00000000
01300000
00100000
00010000
,
00001000
00000000
00010000
00000000
00001000
00000000
00000000
00011000
,
00000000
00000100
00000010
00000100
,
00001000
00000000
00000000
00002000
00000000
00000000
00000000
00003001
,
00000000
00000100
00001000
00010000
,
00100000
01000000
00010000
00010000
,
10000000
01000000
00010000
01000000
,
00100000
00000000
00100000
00000000
00100000
00000000
00000000
01000000
,
00000000
10000000
01000000
00010000
,
00000000
00001000
00000000
00000000
00010000
00000000
00010000
00000000
,
00000000
00001000
00000000
00000000
00000100
00000000
00000100
00000000
,
00000000
00000001
00000000
00000000
00000001
00000000
00000000
00000100
,
00000000
00001000
00001001
00000000
,
00000200
00000000
00000000
00000300
,
00000002
00000000
00000000
00000003
,
00000020
00000000
00000000
00000030
,
00020000
00000000
00000000
00030000
,
02000000
00000000
00000000
03000000
,
20000000
00000000
00000000
30000000
,
00200000
00000000
00000000
00300000
,
00020000
00000000
00000000
00030000
,
00011000
00000000
00000000
00000000
,
00000000
00000000
00000000
00000000
;
#NOTES:
     dance-double:
     :
     Medium:
     10:
     :
00000000
00000000
00000000
00000000
,
00000000
00000000
00000000
00000000
,
00000000
00000000
00000000
00000000
,
00000000
00000000
00000000
00000000
,
00000000
00000000
00000000
00000000
00000000
00000000
00000000
00002000
,
00000000
00003100
00010000
00001000
,
01000000
00000000
00010000
00000000
00100000
00100000
00000000
02000000
,
00000000
00000000
13000000
00000000
00010000
00000000
01000000
00010000
,
00000000
01000000
00001000
00000000
00010000
00000000
00010000
00000200
,
00000000
00001300
00000010
00010000
,
00000100
00000000
00000010
00000000
00000001
00000001
00000000
00000200
,
00000000
00000310
00001000
00000001
,
00000100
00000000
00001000
00000000
00010000
00010000
00000000
00002000
,
00000000
01003000
00010000
01000000
,
00100000
00000000
10000000
00000000
01000000
01000000
00000000
00020000
,
00000000
00000000
00031000
00000000
00010000
00000000
00000100
00000010
,
00000000
00000100
00000000
00000010
00000100
00000000
00000000
00000002
,
00000000
00000000
00000013
00000000
00000100
00001000
00000100
00000000
,
00010000
00001000
00000000
00200000
00000000
00000000
00000000
01300000
,
00000000
10000000
00010000
00000000
10000000
00100000
10000000
00000000
,
00100000
01000000
00000000
00010000
00000000
00100000
00000000
10000000
,
00100000
00000000
00001000
00000000
00010000
00001000
00000000
00020000
,
00000000
00000000
00000000
00000000
00000000
00000000
00000000
00030100
,
00000000
00001000
00000010
00000000
00000100
00000000
00000001
00001000
,
00000000
00000010
00000100
00000010
00000200
00000000
00000000
00001300
,
00000000
00010000
00001000
00000000
01000000
00010000
01000000
00000000
,
00100000
10000000
00000000
02000000
00000000
00000000
00000000
03100000
,
00000000
10000000
00100000
00000000
00010000
00100000
00010000
00000000
,
00100000
00001000
00000000
00010000
00000000
00001000
00000000
00000010
,
00000100
00000000
00000001
00000000
00000100
00000010
00000000
00000002
,
00000000
00000000
00000000
00000000
00000000
00000000
00000000
00000103
,
00000000
00000010
00000100
00000000
00000001
00000000
00001000
00000000
,
00000000
00000010
00001000
00000000
00010000
00100000
00000000
00010000
,
00000000
00001000
00010000
00000000
00011000
00000000
00000000
00000000
,
00000200
00000000
00000000
00000000
,
00000302
00000000
00000000
00000000
,
00000023
00000000
00000000
00000000
,
00002030
00000000
00023000
00000000
,
02030000
00000000
00000000
00000000
,
23000000
00000000
00000000
00000000
,
30200000
00000000
00000000
00000000
,
00320000
00000000
00031000
00000000
,
00010000
00010000
00000100
00000010
,
00000001
00000001
00000100
00000010
,
00001000
00001000
00000100
00010000
,
00001000
00000010
00001000
00010000
,
00001000
00001000
00100000
01000000
,
10000000
10000000
01000000
00100000
,
00010000
00010000
01000000
00100000
,
00010000
00011000
00011000
00011000
,
00022000
00000000
00000000
00000000
,
00000000
00000000
00000000
00000000
,
00000000
00000000
00000000
00000000
,
00000000
00000000
00000000
00033000
,
00000100
00000000
00001000
00000100
00010000
00000000
00001000
00000000
,
00100000
00000000
00010000
00100000
00001000
00000000
00010000
00000000
,
00000200
00000000
00000001
00000000
00000310
00000000
00001000
00020000
,
00000000
00001000
00130000
01000000
,
00000000
00100000
00100000
00100000
,
10000000
00010000
10000000
00000000
00100000
01000000
00100000
00000000
,
00010000
00001000
00000000
00020000
00000000
00000000
00000000
00130000
,
00000000
00100000
00010000
00000000
00001000
00000000
00000100
00000000
,
00000001
00001000
00000100
00000001
,
00000100
00000010
00000100
00000000
00001000
00000001
00000000
00002000
,
00000000
00000000
00000010
00000000
00003010
00000000
00010000
00010000
,
00000000
00000000
00001000
00000000
00010000
00000000
01000000
00100000
,
00000000
00100000
01000000
00100000
02000000
00000000
00000000
03010000
,
00000000
10000000
10000000
00000000
00100000
00000000
00010000
00000000
,
00001000
00010000
00000000
00000200
00000000
00000000
00000000
00000301
,
00000000
00000100
00001000
00000000
00000001
00000000
00000100
00000000
,
00000010
00001000
00000000
00010000
00000000
01000000
00000000
00010000
,
10000000
00010000
10000000
00000000
01000000
00100000
00000000
00020000
,
00000000
00000000
00100000
00000000
00130000
00000000
00001000
00001000
,
00000000
00000000
00010000
00000000
00001000
00000000
00000100
00000100
,
00000000
00000010
00000100
00000000
00001000
00000001
00000000
00001002
,
00000000
00000103
00000010
00001000
00000000
00001000
00000100
00000000
,
00000100
00010000
00000000
00010000
00001000
00000000
00010000
00200000
,
00000000
00000000
20300000
00000000
,
32000000
00000000
00000000
00000000
03020000
00000000
00000000
00032000
,
00000000
00000000
00000000
00000000
00000000
00013000
00000000
00000000
,
00001000
00010000
00001000
00010000
00000000
00000100
00001000
00000200
,
00000000
00000000
00001300
00000000
00000010
00000100
00000000
00000001
,
00000000
00000001
00000100
00000001
00000100
00000000
00000010
00000200
,
00000000
00001300
00010000
00000000
00010000
00001000
00000000
00001000
,
00100000
00000000
00100000
00020000
00000000
10000000
00000000
10030000
,
00000000
00010000
10000000
00000000
00100000
00000000
00010000
00000000
,
00001000
00000000
00010000
00000000
01000000
00000000
10000000
00010000
,
10000000
00000000
00010000
00000000
00100000
00000000
01000000
00020000
,
00000000
00001000
00000000
00001000
00000000
00001000
00000000
00030200
,
00000000
00000000
00000310
00000000
00000010
00000001
00000010
00000001
,
00000000
00000001
00000100
00000000
00000010
00001000
00000000
00001001
,
00000000
00000010
00000100
00000000
00001000
00010000
00000000
00011000
,
00000000
00001000
00100000
00000000
00010000
01000000
00000000
01100000
,
00000000
10000000
00010000
00000000
10010000
00000000
00000000
00000000
,
20000000
00000000
00000000
01000000
00000000
00000000
31000000
00000000
,
00200000
00000000
00000000
00010000
00000000
00000000
00310000
00000000
,
00002000
00000000
00000000
00000100
00000000
00000000
00003100
00000000
,
00000020
00000000
00000000
00000030
,
00000002
00000000
00000000
00000100
00000000
00000000
00000103
00000000
,
00000020
00000000
00000000
00001000
00000000
00000000
00001030
00000000
,
00020000
00000000
00000000
01000000
00000000
00000000
01030000
00000000
,
00200000
00000000
00000000
00300000
,
10010000
00000000
00000000
00000000
,
00000000
00000000
00000000
00000000
;
#NOTES:
     dance-double:
     :
     Hard:
     14:
     :
00000000
00000000
00000000
00000000
,
00000000
00000000
00000000
00000000
,
00000000
00000000
00000000
00000000
,
00000000
00000000
00000000
00000000
,
00000000
00000000
00000000
00000000
00000000
00000000
00000000
00102000
,
00000000
00013000
00000100
00000000
00000010
00000001
00001000
00000000
,
00000001
00000100
00000010
00001000
00000100
00010000
00000000
00020010
,
00000000
00031000
00100000
00000000
00010000
01000000
00100000
10000000
,
00000000
10000000
01000000
00010000
00001000
00000000
00010000
00002000
,
00000000
00003100
00000010
00000000
00000010
00001000
00000001
00000000
,
00000100
00000001
00001000
00000100
00000010
00000100
00000000
00000021
,
00000000
00001030
00010000
00000000
00001000
00010000
01000000
00000000
,
10000000
01000000
00100000
00010000
10000000
00010000
00000000
12000000
,
00000000
03100000
00010000
00000000
01000000
00001000
00010000
00000000
,
00001000
00010000
00000100
00001000
00000010
00000100
00000000
00000102
,
00000000
00001003
00000010
00000000
00000001
00000010
00000100
00000010
,
00000000
00000110
00000000
00001000
00010000
00000000
00000000
00012000
,
00000000
00103000
00001000
00010000
00001000
01000000
00010000
10000000
,
00100000
01000000
00000000
02200000
00000000
00000000
03300000
10010000
,
00000000
00000000
00100000
00000000
10000000
00000000
01000000
00000000
10000000
00000000
00100000
10000000
00100000
00000000
01000000
00000000
,
00010000
00100000
00010000
01000000
00001000
00010000
00001000
00010000
,
00000010
00001000
00000010
00001000
00000100
00000010
00000000
00000012
,
00000000
00000000
00000100
00000000
00000100
00000000
00000103
00001001
,
00000000
00000010
00000001
00000100
00000010
00000000
00001000
00000001
,
00000000
00000100
00001000
00010000
00022000
00000000
00033000
00011000
,
00000000
00001000
00100000
00001000
00010000
00000100
00010000
00001000
,
00100000
00010000
00000000
00202000
00000000
00000000
00303000
10010000
,
00000000
00000000
01000000
00000000
10000000
00000000
00010000
00000000
01000000
00000000
00100000
10000000
00100000
00000000
01000000
00000000
,
00010000
00100000
10000000
00100000
01000000
00010000
00001000
00000100
,
00000010
00000100
00000010
00000100
00000001
00001000
00000000
00001002
,
00000000
00000000
00000100
00000000
00000100
00000000
00000103
00001001
,
00000000
00000001
00000010
00000100
00001000
00000100
00000010
00000100
,
00000000
00001000
00000010
00001000
00000001
00001000
00000100
00010000
,
00000000
00000000
00001000
00000000
00010000
00000000
00000000
00000000
00011000
00000000
00010000
00001000
00010000
00000000
00000000
00000000
,
00020000
00000000
00000000
00001000
00000000
00000000
00000000
00000000
,
00230000
00000000
00000000
10000000
00000000
00000000
00000000
00000000
,
02300000
00000000
00000000
10000000
00000000
00000000
00100000
00000000
,
03020000
00000000
00032000
00000000
,
00003200
00000000
00000000
00000001
00000000
00000000
00000000
00000000
,
00000320
00000000
00000000
00000100
00000000
00000000
00000001
00000000
,
00000230
00000000
00000000
00000010
00000000
00000000
00001300
00000000
,
00000010
00001000
00010000
01000000
,
00100000
01000000
00010000
00001000
00010000
01000000
00100000
00000000
,
00001000
00010000
00100000
01000000
00100000
00010000
00001000
00000000
,
00010000
00000010
00000100
00001000
00000100
00000010
00010000
00000000
,
00001000
00000000
00010000
00000010
00010000
00000000
00001000
00000000
00010000
00000100
00010000
00000000
00001000
00000000
00000000
00000000
,
00001000
00000100
00000001
00000100
00000001
00000010
00001000
00000000
,
00000010
00001000
00000010
00001000
00010000
00001000
00010000
00000000
,
00001000
00010000
00100000
10000000
00100000
10000000
01000000
00010000
,
00001000
00001010
00011000
00110000
,
00022000
00000000
00000000
00000000
,
00000000
00000000
00000000
00000000
,
00000000
00000000
00000000
00000000
,
00000000
00000000
00000000
00033000
,
00010100
00000000
00000000
00000000
00001000
00000000
00000010
00000000
00000110
00000000
00000000
00000000
00000010
00000000
00000100
00000010
,
00000100
00000000
00000000
00000000
00001000
00000000
00010000
00000000
00101000
00000000
00000000
00000000
00010000
00000000
10000000
00010000
,
10000000
01000000
00100000
00010000
01000000
00100000
00010000
00002000
,
00000000
00013000
00001000
00000100
00000001
00001000
00000100
00000010
,
00000000
00000110
00000110
00000110
,
00000001
00000001
00000100
00000010
00001000
00001000
00000100
00010000
,
00001000
00100000
00000000
02020000
00000000
00000000
03030000
10100000
,
00000000
00000000
10000000
00000000
01000000
00000000
01000000
00000000
00100000
00000000
00010000
10000000
00010000
00000000
01000000
00000000
,
00001000
00010000
00100000
00010000
00001000
00000100
00000001
00001000
,
00000010
00000100
00000010
00000100
00000001
00000010
00000000
00000021
,
00000000
00000000
00000100
00000000
00000100
00000000
00000130
00001001
,
00000000
00000001
00000010
00001000
00010000
00000000
00001000
00010000
,
00000000
00100000
01000000
00010000
10000000
01000000
00100000
01100000
,
00000000
00100000
01000000
00010000
01000000
00100000
01000000
10000000
,
00010000
10000000
00000000
02020000
00000000
00000000
03030000
00101000
,
00000000
00000000
00010000
00000000
00001000
00000000
00010000
00000000
00000010
00000000
00001000
00000100
00001000
00000000
00000010
00000000
,
00000100
00000001
00000100
00001000
00000100
00000010
00001000
00000001
,
00000010
00000100
00001000
00000010
00000100
00001000
00000000
00200000
,
00000000
00000000
00010000
00000000
00010000
00000000
00310000
10010000
,
00000000
00100000
10000000
00010000
01000000
00100000
10000000
01000000
,
00000000
10000000
01000000
00010000
00001000
00000100
00000010
00000002
,
00000000
00000013
00000010
00002000
00000100
00003100
00000002
00000100
,
00000103
00002000
00000100
00003100
00000010
00000001
00000100
00002000
,
00000000
00013000
00200000
01300000
,
20010000
00000000
31000000
00000000
00200000
00000000
00301000
00010000
,
01000000
10000000
01000000
10000000
00100000
01000000
00010000
00100000
,
01000000
00010000
01000000
00200000
00000000
00301000
00010000
00002000
,
00000000
00000000
00003100
00000000
00001000
00010000
00001000
00010000
,
00000000
00000010
00001000
00000100
00000001
00000100
00001000
00001100
,
00000000
00001000
00000010
00000001
00000010
00001000
00000010
00000001
,
00000010
00001000
00010000
00100000
00000000
01100000
00000000
10010000
,
00000000
00010000
00100000
10000000
00010000
01000000
00010000
00001000
,
00000100
00000000
00000010
00000000
00000100
00000000
00000001
00000000
00001000
00000001
00001000
00000001
00001000
00000000
00000010
00000000
,
00000200
00000000
00000001
00000000
00000010
00000000
00001300
00020000
,
00000000
00001000
00000000
00100000
00000000
10030000
01000000
00010000
,
00000000
00000000
10010000
00000000
10000000
00010000
01000000
00100000
,
00000000
00000000
10000000
00000000
00100000
10000000
00100000
00000000
01000000
00000000
00010000
01000000
00010000
00000000
00100000
00000000
,
00000000
00000000
00001000
00000000
00010000
00000100
00010000
00000000
00001000
00000000
00010000
00000100
00010000
00000000
00000100
00000000
,
00000000
00000000
00001000
00000000
00000010
00001000
00000010
00000000
00000100
00000000
00000001
00000100
00000001
00000000
00000010
00000000
,
00000000
00000100
00000010
00000000
00001001
00000100
00000110
00000000
,
00000002
00000000
00000000
00000010
00000000
00000000
00001000
00000000
,
00000203
00000000
00000000
00000010
00000000
00000000
00001300
00000000
,
00020000
00000000
00000000
00001000
00000000
00000000
01000000
00000000
,
00032000
00000000
00000000
00000010
00000000
00000000
00013000
00000000
,
02000000
00000000
00000000
00010000
00000000
00000000
00100000
00000000
,
23000000
00000000
00000000
00010000
00000000
00000000
30100000
00000000
,
00020000
00000000
00000000
00100000
00000000
00000000
00001000
00000000
,
00032000
00000000
00000000
00010000
00000000
00000000
00003100
00000000
,
00000110
00000000
00000000
00000000
,
00000000
00000000
00000000
00000000
;
