
//----- song id: doca
#TITLE:ドリームキャッチャー;
#ARTIST:アイくるガールズ 【福島】;
#TITLETRANSLIT:DREAM CATCHER;
#ARTISTTRANSLIT: Ai kuru Girls [Fukushima];
#BANNER:DREAM CATCHER.png;
#BACKGROUND:DREAM CATCHER-bg.png;
#CDTITLE:./CDTitles/DDR (2014).png;
#MUSIC:DREAM CATCHER.ogg;
#SAMPLESTART:65.769;
#SAMPLELENGTH:15;
#BPMS:0=208;
#NOTES:
     dance-single:
     :
     Beginner:
     4:
     :
0000
0000
0000
0000
,
0000
0000
0000
0000
,
0000
0000
0000
0000
,
0001
0000
0001
0000
,
0010
0000
0010
0000
,
0000
0000
0000
0000
,
1000
0000
0001
0000
,
1000
0000
1000
0000
,
0010
0000
0010
0000
,
0000
0000
0000
0000
,
0001
0000
0100
0000
,
0000
0000
0000
0000
,
0001
0001
0001
0000
,
0001
0000
0000
0000
,
1000
1000
1000
0000
,
0010
0000
0000
0000
,
0010
0000
0000
0000
,
1000
0000
0100
0000
,
0001
0000
1001
0000
,
0000
0000
0000
0000
,
1000
0000
0001
0000
,
1000
0000
0000
0000
,
1000
0000
0001
0000
,
1000
0000
0000
0000
,
0100
0000
0100
0000
,
0010
0000
0010
0000
,
0010
0010
0010
0000
,
0010
0000
1000
0000
,
0100
0000
0001
0000
,
0000
0000
0000
0000
,
0100
0000
0100
0000
,
1000
0000
0001
0000
,
1000
0000
0001
0000
,
2002
0000
3003
0000
,
1000
0000
0001
0000
,
0010
0010
0010
0000
,
0100
0100
0100
0000
,
0010
0010
0010
0000
,
0100
0100
0100
0000
,
0010
0000
0000
0000
,
0001
0000
0000
0000
,
0100
0000
0000
0000
,
1000
0000
0000
0000
,
0010
0000
0000
0000
,
0001
0000
0000
0000
,
0100
0000
0000
0000
,
1000
1000
1000
1000
,
1000
1000
1000
1000
,
1000
1000
1000
0000
,
0001
0001
0001
0001
,
0001
0001
0001
0000
,
0001
0000
1000
0000
,
0001
0000
1000
0000
,
1001
0000
0000
0000
,
0110
0000
0000
0000
,
1001
0000
0000
0000
,
0000
0000
0000
0000
,
0010
0000
1000
0000
,
0100
0000
0001
0000
,
0000
1000
0000
0001
,
0000
1000
1000
0000
,
0010
0000
0000
0000
,
0001
0000
0000
0000
,
0100
0000
0000
0000
,
1000
0000
0000
0000
,
0001
0001
0001
0000
,
1000
1000
1000
0000
,
0100
0100
0100
0000
,
0010
0010
0010
0000
,
1000
0000
0000
0000
,
0001
0000
0000
0000
,
0010
0000
0010
0000
,
0100
0100
0100
0000
,
0010
0000
0001
0000
,
0100
0000
1000
0000
,
0000
0001
0000
1000
,
0000
0001
0001
0000
,
1000
0000
1000
0000
,
0001
0000
0001
0000
,
0001
0000
1000
0000
,
0001
0000
1000
0000
,
1000
0000
0010
0000
,
0001
0000
0010
0000
,
0001
0000
0010
0000
,
1000
0000
0010
0000
,
0001
0000
0000
0000
,
1000
0000
0000
0000
,
0100
0100
0100
0000
,
1001
0000
0000
0000
,
0001
0000
1000
0000
,
0001
0000
1000
0000
,
0001
0000
1000
0000
,
0001
0000
1000
0000
,
2002
0000
0000
3003
,
0000
0000
0000
0000
;
#NOTES:
     dance-single:
     :
     Easy:
     6:
     :
0000
0000
0000
0000
,
0000
0000
0000
0000
,
0000
0000
0000
0000
,
0001
0001
0001
0001
,
0010
0010
0010
0000
,
0000
0000
0000
0000
,
1000
0100
0001
0000
,
1000
1000
1000
1000
,
0010
0010
0010
0000
,
0000
0000
0000
0000
,
0001
0100
1000
0000
,
1000
0000
0000
0000
,
0001
0001
0001
0000
,
0001
0000
0000
0000
,
1000
1000
1000
0000
,
0010
0000
0010
0000
,
0010
0000
0010
0000
,
1001
0000
0110
0000
,
1001
0000
0110
0000
,
0000
0000
0000
0000
,
1000
0010
0001
0010
,
1000
0000
0000
0000
,
1000
0010
0001
0010
,
1000
0000
0000
0000
,
0100
0000
0100
0000
,
0010
0000
0010
0000
,
0010
0010
0010
0000
,
0110
0000
1001
0000
,
0110
0000
1001
0000
,
0000
0000
0000
0000
,
0100
0000
0100
0000
,
1000
0100
0001
0100
,
1000
0100
0001
0000
,
2002
3003
0110
0000
,
2000
3000
0002
0003
,
1001
1001
1001
0000
,
0110
1001
0110
0000
,
1001
1001
1001
0000
,
0110
1001
0110
0000
,
0010
0000
0000
0000
,
0001
0000
0000
0000
,
0100
0000
0000
0000
,
1000
0000
0000
0000
,
0010
0000
0000
0000
,
0001
0000
0000
0000
,
0100
0000
0000
0000
,
1000
1000
1000
0000
,
1000
0000
1000
0000
,
1000
0000
1000
0000
,
1000
0001
1000
0001
,
1000
0001
1000
0001
,
0001
0000
0001
0000
,
0001
0000
0001
0000
,
1000
0100
0001
0100
,
1000
0100
0001
0100
,
1000
0000
0000
0000
,
0100
0100
0100
0000
,
0010
0000
1000
0000
,
0100
0000
0001
0000
,
0010
1000
0100
0001
,
0000
0000
0000
0000
,
0010
0010
0000
0000
,
0001
0001
0000
0000
,
0100
0100
0000
0000
,
1000
1000
0000
0000
,
0001
0001
1000
1000
,
0001
0001
0001
0000
,
1000
1000
0001
0001
,
1000
1000
1000
0000
,
1000
0000
1000
0000
,
0001
0000
0001
0000
,
0110
0000
1001
0000
,
1001
0110
1001
0000
,
0010
0000
0001
0000
,
0100
0000
1000
0000
,
0010
0001
0100
1000
,
0000
0000
0000
0000
,
1000
0000
1000
0000
,
0001
0000
0001
0000
,
0001
0000
1000
0000
,
0001
0000
1000
0000
,
1000
0000
0010
0000
,
0001
0000
0010
0000
,
0001
0000
0010
0000
,
1000
0000
0010
0000
,
0001
0000
0000
0000
,
1000
0000
0000
0000
,
1001
0000
0110
0000
,
1001
0000
0000
0000
,
0001
0100
1000
0100
,
0001
0100
1000
0100
,
0001
0100
1000
0100
,
0001
0100
1000
0000
,
2002
0000
0000
3003
,
0000
0000
0000
0000
;
#NOTES:
     dance-single:
     :
     Medium:
     9:
     :
0000
0000
0000
0000
,
0000
0000
0000
0000
,
0000
0000
0000
0000
,
2000
0001
0000
0100
,
0000
0001
0000
3100
,
1000
0001
0100
0000
0001
0000
0100
0000
,
1000
0100
0001
0100
,
0002
1000
0000
0100
,
0000
1000
0000
0103
,
1000
0001
0100
0000
0001
0000
0100
0000
,
1000
0100
0001
0100
,
1000
0001
0100
0001
,
0100
0001
1100
0000
,
0001
1000
0100
1000
,
0100
1000
0101
0000
,
0010
0001
1000
0000
0010
0000
1000
0000
,
0010
1000
0010
0110
,
1100
0000
0011
0000
,
1100
0000
0011
0000
,
1000
0001
0010
0000
0001
0000
0010
0000
,
1000
0010
0001
0010
,
1000
0010
0001
0010
,
1000
0100
1000
0000
1000
0000
1000
0000
,
0100
1000
0001
0000
0100
0000
1000
0000
,
0100
0001
0100
0100
,
0010
0100
0010
0010
,
0110
0110
0110
0000
,
0110
0010
1001
0001
,
0110
0100
1001
1000
,
0100
1000
0100
0001
,
0100
1000
0100
0001
,
1100
0100
0001
0100
,
0011
0010
1000
0010
,
2002
3003
0110
0000
,
2000
3100
0002
0013
,
0001
0000
1000
1000
0000
1000
1000
1000
,
0100
0101
0220
0330
,
1000
0000
0001
0001
0000
0001
0001
0001
,
0100
1100
0220
0330
,
2000
0001
3200
0001
,
0320
0100
0032
1000
,
2003
0100
3020
0100
,
0230
0001
0301
0000
,
0200
1000
0302
0100
,
0023
0100
0032
1000
,
0023
0100
0100
0130
,
1000
0100
0010
0002
,
1000
0000
1000
0000
,
1000
0000
1000
0003
,
1100
0101
1100
0101
,
1000
0001
1000
0001
,
1000
0001
0100
0000
1000
0000
0100
0000
,
1000
0100
1000
0100
,
1100
0100
0101
0100
,
1000
0001
1000
0100
,
0012
0000
0000
0000
,
0100
0100
0100
0100
,
0013
0010
1010
0010
,
0101
0010
0010
0010
,
1100
0100
0101
0100
,
1100
0100
0100
0100
,
0011
0010
0011
0000
,
0101
0100
0101
0000
,
1000
1000
0001
0001
,
1000
0001
1000
1000
,
0001
1000
0010
0000
0100
0000
1000
0000
,
1000
0000
0100
0000
0010
0000
0100
0010
,
1000
0010
0100
0001
,
0001
0100
0010
0000
,
1000
0001
0100
0000
1000
0000
0100
0000
,
1000
0100
0101
0000
,
1100
0000
0101
0000
,
1100
0101
1100
0000
,
0010
0010
0011
0010
,
1100
0010
0010
0010
,
0101
0100
1100
0100
,
0101
0100
0100
0100
,
1010
0010
1010
0000
,
1100
0100
1100
0000
,
0001
0001
1000
1000
,
0001
1000
0001
1000
,
1000
0000
0010
0000
0100
0010
1000
0000
,
0001
0100
0010
0010
,
0001
0000
0010
0000
0001
1000
0100
0000
,
1000
0000
0100
0000
0010
0100
0010
0000
,
0001
1000
0001
0001
,
1000
0100
1000
0000
0010
0000
0010
0000
,
1000
0001
1000
1000
,
0001
0100
0001
0000
0020
0000
0100
0000
,
0100
0130
1000
0100
,
0001
0100
1000
0100
,
0001
1000
0100
0000
1000
0000
0100
0000
,
0001
1000
0100
0000
1000
0000
0100
0000
,
2002
0000
0000
3003
,
0000
0000
0000
0000
;
#NOTES:
     dance-single:
     :
     Hard:
     11:
     :
0000
0000
0000
0000
,
0000
0000
0000
0000
,
0000
0000
0000
0000
,
1000
0001
0100
0001
1000
0000
1000
0000
,
0100
0100
0100
1001
,
1000
0001
0100
0000
0001
0000
0100
0000
,
1000
0001
0100
0000
0101
0000
1100
0000
,
0001
1000
0100
1000
0001
0000
0001
0000
,
0100
0100
0100
1001
,
0001
1000
0100
0000
1000
0000
0100
0000
,
0001
1000
0100
0000
1100
0000
0101
0000
,
0001
0100
1000
0000
0100
0000
0001
0000
,
0100
0001
1100
0000
,
1000
0100
0001
0000
0100
0000
0001
0000
,
0100
0001
1100
0000
,
1001
1001
0110
0110
,
1001
1001
0010
0110
,
1100
0000
0011
0000
,
1100
0000
0011
0000
,
0001
1000
0100
1000
0001
0000
0001
0000
,
0100
0100
0100
1001
,
0001
1000
0100
0000
1000
0000
0100
0000
,
0001
1000
0100
0000
1100
0000
0101
0000
,
1000
0001
0100
0001
1000
0000
1000
0000
,
0100
0100
0100
1001
,
1000
0001
0100
0000
0001
0000
0100
0000
,
1000
0001
0100
0000
0101
0000
1100
0000
,
1001
0100
1001
0010
,
1001
0100
1001
0010
,
0001
0010
0100
1000
,
1000
0010
0100
0001
,
1002
1003
0120
0130
,
2001
3001
0120
0130
,
2000
0001
3200
0000
,
2300
0010
3002
0000
,
1003
0000
0010
0100
0000
0001
1000
0001
,
0100
0101
0220
0330
,
1000
0000
0010
0100
0000
0001
1000
0001
,
0100
1100
0220
0330
,
0001
0000
0100
0010
0000
0000
0100
0000
,
1000
0000
1001
0000
,
0010
0000
0100
0010
0000
0000
0001
0000
,
1001
1010
0011
0000
,
1000
0000
0010
0100
0000
0000
0010
0000
,
0001
0000
1001
0000
,
0100
0000
0010
0100
0000
0000
1000
0000
,
0110
0000
0001
0010
0001
0010
0001
0010
,
0001
1000
0001
0000
1000
0100
1000
0000
,
0001
0100
0001
0000
0010
0100
0010
0000
,
0001
0100
0001
0000
1000
0010
1000
0000
,
0001
0010
0001
0000
1000
0100
1000
0000
,
0010
0100
0001
0000
0010
1000
0100
0000
,
0010
0001
1000
0000
0010
0100
0001
0000
,
1100
1100
1100
1100
,
0011
0011
0011
0011
,
2002
0000
0000
3003
,
1000
0001
1000
0100
1000
0001
0100
0000
,
0011
1000
0011
1000
,
0011
0000
1100
0000
1000
0001
0100
0001
,
2000
0000
0010
3001
,
0010
0000
1000
0000
0100
0010
0001
0000
,
1100
0100
1100
0001
,
0110
0110
1000
1000
,
0002
0000
0000
0000
0000
0000
0000
0000
1003
0000
0000
0001
0000
0000
1000
0000
,
0200
0001
0001
0301
,
1000
0010
0100
0001
0100
0001
0000
0002
,
0000
0010
0010
0013
,
1000
0001
0100
0010
1000
0100
0010
0000
,
2000
0100
0100
3100
,
0011
0010
0010
0010
,
1100
1000
1000
1000
,
1000
0010
0100
0001
,
0100
0000
0110
0000
1000
0001
0100
0000
,
1010
0001
1010
0001
,
1010
0000
0101
0000
0001
1000
0100
1000
,
0002
0000
0010
1003
,
0010
0000
0001
0000
0100
0010
1000
0000
,
0101
0100
0101
1000
,
0110
0110
0001
0001
,
2000
0000
0000
0000
3000
0001
1000
0001
,
0200
1000
1000
1300
,
0001
0100
0101
1000
,
0101
0010
1000
0010
,
0001
1000
0100
0010
0001
0100
0010
1000
,
0002
0100
0100
0103
,
1010
0010
0010
0010
,
0101
0001
0001
0001
,
0011
0001
1100
0101
,
0100
0000
0100
0000
1000
0001
0100
0010
,
1000
0001
0100
0000
0001
0000
0100
0000
,
1000
0000
0100
0000
0001
1000
0100
0000
,
1000
0001
0100
0000
0001
0000
0100
0000
,
1000
0001
0100
0000
0001
0000
0100
0000
,
2002
0000
0000
3003
,
0000
0000
0000
0000
;
#NOTES:
     dance-double:
     :
     Easy:
     6:
     :
00000000
00000000
00000000
00000000
,
00000000
00000000
00000000
00000000
,
00000000
00000000
00000000
00000000
,
10000000
10000000
10000000
10000000
,
00100000
00100000
00100000
00000000
,
00000000
00000000
00000000
00000000
,
00010000
00001000
00000100
00000000
,
00000001
00000001
00000001
00000000
,
00000010
00000010
00000010
00000000
,
00000000
00000000
00000000
00000000
,
00001000
00010000
01000000
00000000
,
00000000
00000000
00000000
00000000
,
10000000
01000000
00010000
00000000
,
00001000
00000000
00000000
00000000
,
00000100
00000001
00000100
00000000
,
00000001
00000000
00000010
00000000
,
00001000
00000000
00000100
00000000
,
00000110
00000000
00011000
00000000
,
01100000
00000000
10010000
00000000
,
00000000
00000000
00000000
00000000
,
10000000
00100000
00010000
00100000
,
10000000
00000000
00000000
00000000
,
10000000
00100000
00010000
00001000
,
00000100
00000000
00000000
00000000
,
00000100
00000000
00000100
00000000
,
00000010
00000000
00001000
00000000
,
00010000
00000000
00000000
00000000
,
00021000
00000000
00030010
00000000
,
00012000
00000000
01003000
00000000
,
00000000
00000000
00000000
00000000
,
00000000
00000000
00000000
00000000
,
10000000
01000000
00010000
00000000
,
00001000
00000100
00000001
00000000
,
00002002
00003003
00000110
00000000
,
00000000
00000000
00000000
00000000
,
00000110
00000000
00011000
00000000
,
00011000
00011000
00011000
00000000
,
00011000
00000000
01100000
00000000
,
10010000
10010000
10010000
00000000
,
00100000
00000000
00000000
00000000
,
00010000
00000000
00000000
00000000
,
00001000
00000000
00000000
00000000
,
00000100
00000000
00000000
00000000
,
00000001
00000000
00000000
00000000
,
00000010
00000000
00000000
00000000
,
00001000
00000000
00000000
00000000
,
00010000
01000000
10000000
00000000
,
10000000
00000000
10000000
00000000
,
10000000
00000000
10000000
00000000
,
10000000
00000000
01000000
00000000
,
00010000
00000000
00001000
00000000
,
00000010
00000000
00000001
00000000
,
00000100
00000000
00001000
00000000
,
00010000
00000000
00100000
00000000
,
10000000
01000000
00010000
01000000
,
20000000
00000000
00000000
30000000
,
01000000
01000000
01000000
00000000
,
00100000
00000000
10000000
00000000
,
01000000
00000000
00010000
00000000
,
00001000
00000010
00000001
00000100
,
00001000
00000000
00000000
00000000
,
00000010
00000010
00000000
00000000
,
00001000
00001000
00000000
00000000
,
00010000
00010000
00000000
00000000
,
01000000
01000000
00000000
00000000
,
10000000
10000000
00100000
00100000
,
00010000
00010000
00001000
00001000
,
00000010
00000010
00000001
00000001
,
00000100
00000100
00000100
00000000
,
00000010
00000000
00001000
00000000
,
00010000
00000000
01000000
00000000
,
10000000
00000000
01000000
00000000
,
00010000
00000000
00001000
00000000
,
00000010
00000000
00000001
00000000
,
00000100
00000000
00001000
00000000
,
00010000
00100000
10000000
01000000
,
00010000
00000000
00000000
00000000
,
00100000
00100000
00000000
00000000
,
00010000
00010000
00000000
00000000
,
00001000
00001000
00000000
00000000
,
00000100
00000100
00000000
00000000
,
00000001
00000001
00000010
00000010
,
00001000
00001000
00010000
00010000
,
00100000
00100000
10000000
10000000
,
01000000
01000000
01000000
00000000
,
00100000
00000000
00010000
00000000
,
00001000
00000000
00000100
00000000
,
00010010
00000000
00011000
00000000
,
01001000
00000000
00000000
00000000
,
00010000
00001000
00010000
00001000
,
00010000
00001000
00001000
00001000
,
00010000
00001000
00010000
00001000
,
00010000
00001000
00001000
00001000
,
00022000
00000000
00000000
00033000
,
00000000
00000000
00000000
00000000
;
#NOTES:
     dance-double:
     :
     Medium:
     8:
     :
00000000
00000000
00000000
00000000
,
00000000
00000000
00000000
00000000
,
00000000
00000000
00000000
00000000
,
00002000
00010000
00000000
01000000
,
00000000
00010000
00000000
01003000
,
00001000
01000000
00010000
01000000
,
00001000
01000000
00011000
00000000
,
00020000
00001000
00000000
00000100
,
00000000
00001000
00000000
00030100
,
00010000
00000100
00001000
00000100
,
00010000
00000100
00001000
00000100
,
00000001
00000100
00000001
00000100
,
00000001
00000100
00001100
00000000
,
00010000
00001000
00010000
00001000
,
00010000
00001000
01010000
00000000
,
00100000
10000000
00100000
10000000
,
00100000
10000000
00100000
01100000
,
11000000
00000000
00110000
00000000
,
00011000
00000000
00001100
00000000
,
00000001
00000010
00001000
00000010
,
00000001
00000010
00001000
00000010
,
00000001
00000100
00001000
00010000
,
01000000
00000000
00000000
00000000
,
01000000
10010000
01000000
10000000
,
01000000
00010000
00001000
00000100
,
00000001
00000100
00000001
00000001
,
00000110
00000110
00000110
00000000
,
00010000
00001000
00010000
00001000
,
00010000
00000000
00110000
10000000
,
01000000
10000000
01000000
00010000
,
00000000
00000000
00000000
00000000
,
00001000
00000100
00000001
00000100
,
00000000
00001000
00000000
00010000
,
00022000
00033000
00011000
00000000
,
00022000
00033000
00022000
00033000
,
00002000
00103000
00020000
00030010
,
00002000
00103000
00010000
00000000
,
00020000
00030010
00002000
00103000
,
00020000
00030010
00001000
00000000
,
00100000
00000000
10000000
00000000
,
01000000
00000000
00010000
00000000
,
00001000
00000000
00000010
00000000
,
00000001
00000100
00001000
00000000
,
00010000
00000000
01000000
00000000
,
10000000
00000000
00100000
00000000
,
10000000
00000000
01000000
00000000
,
00010000
00000000
00001000
00000000
,
00010000
00001000
00010000
00001000
,
00010000
00000100
00010000
00001000
,
00001000
00010000
00001000
00010000
,
00001000
01000000
00001000
00010000
,
00010000
00001000
00010000
00001000
,
00010000
00000100
00010000
00001000
,
00001000
00010000
00001000
00010000
,
00001000
01000000
00001000
00010000
,
00120000
00000000
00000000
00000000
,
01000000
01000000
01000000
01030000
,
10100000
01010000
00011000
00000000
,
00001000
00000100
00010000
00001000
,
00100000
00000000
10000000
00000000
,
01000000
00000000
00010000
00000000
,
00011000
00000000
00011000
00000000
,
00002000
01003000
00020000
00030100
,
00010000
00010000
00001000
00001000
,
00020000
00030010
00002000
00103000
,
00010000
00001000
00010000
00001000
,
00001000
00010000
00100000
00000000
,
10100000
00100000
01000000
00010000
,
00010000
01000000
00100000
00000000
,
10000000
01000000
00010000
00010000
,
00001000
00000100
00000001
00000001
,
00000101
00000000
00001100
00000000
,
00001100
00000101
00001100
00000000
,
00000011
00001100
00011000
00000000
,
00010000
01000000
00001000
00010000
,
00000010
00000000
00000001
00000000
,
00000100
00000000
00001000
00000000
,
00001000
00010000
00001000
00010000
,
00020000
00030100
00002000
01003000
,
00001000
00001000
00010000
00010000
,
00002000
00103000
00020000
00030010
,
00001000
00010000
00001000
00010000
,
00010000
00001000
00000010
00000000
,
00000001
00000010
00000100
00001000
,
00001000
00000100
00000010
00000000
,
00000001
00000100
00001000
00010000
,
01000000
10000000
01000000
01000000
,
10000000
01000000
00010000
00001000
,
00000000
00000000
00000000
00000000
,
00020000
00030010
00002000
00103000
,
00020000
00030100
00002000
01003000
,
00020000
00030100
00002000
01003000
,
00020000
00030010
00002000
01003000
,
02020000
00000000
00000000
03030000
,
00000000
00000000
00000000
00000000
;
#NOTES:
     dance-double:
     :
     Hard:
     10:
     :
00000000
00000000
00000000
00000000
,
00000000
00000000
00000000
00000000
,
00000000
00000000
00000000
00000000
,
00002000
00010000
00010000
01000000
,
00010000
00000000
00010000
00000000
00000000
00000000
01003000
00001000
,
00010000
00001000
01000000
00000000
00010000
00000000
01000000
00000000
,
00001000
00000000
01000000
00000000
00001000
00010000
00001000
00000000
,
00020000
00001000
00001000
00000100
,
00000000
00000000
00001000
00000000
00001000
00000000
00030100
00010000
,
00001000
00010000
00000100
00000000
00001000
00000000
00000100
00000000
,
00010000
00000100
00001000
00000100
,
00000001
00001000
00000001
00000000
00000001
00001000
00000100
00000000
,
00000001
00000100
00001100
00000000
,
00010000
00001000
00010000
00000000
00010000
00001000
00010000
00000000
,
00010000
00001000
01010000
01000000
,
10000000
00010000
10000000
00000000
00100000
00010000
10000000
00000000
,
00100000
10000000
00010000
00000000
00100000
00000000
01100000
00000000
,
11000000
00100000
00110000
00010000
,
00011000
00001000
00001100
00000010
,
00001001
00000010
00001001
00000010
,
00000001
00000000
00000010
00000001
00001000
00000000
00000010
00000000
,
00000001
00000100
00001000
00000000
00010000
00000000
01000000
00000000
,
10000000
00000000
10000000
00000000
01000000
00100000
00010000
00000000
,
01000000
10010000
01000000
10010000
,
01000000
00000000
00010000
00000000
00001000
00000100
00000001
00000000
,
00000001
00000000
00000100
00000000
00000001
00000100
00000001
00000000
,
00000101
00001100
00011000
00000000
,
00010000
00001000
00010000
00000000
00010000
00000000
00001000
00000000
,
00010000
00100000
00110000
10000000
,
01000000
00000000
10000000
01000000
00010000
00000000
00001000
00000000
,
00000100
00000001
00000010
00000100
,
00001000
00000001
00000100
00000000
00000001
00001000
00000100
00000000
,
00000001
00000000
00000100
00000000
00001000
00010000
00001000
00000000
,
00200000
00300000
00011000
00000000
,
00220000
00330000
20200000
30300000
,
10000000
00000000
00100000
01000000
00000000
00010000
10000000
00010000
,
01000000
01010000
00022000
00033000
,
00001000
00000000
00000010
00000100
00000000
00000001
00001000
00000001
,
00000100
00001100
00011000
00000000
,
00010000
00000000
01000000
10000000
00000000
00000000
01000000
00000000
,
10000000
00000000
10010000
00000000
,
00100000
00000000
01000000
00010000
00000000
00000000
00100000
00000000
,
00010000
00000010
00000100
00000000
,
00001000
00000000
00000010
00000100
00000000
00000000
00000010
00000000
,
00000001
00000000
00000011
00000000
,
00000100
00000000
00000010
00000100
00000000
00000000
00001000
00000000
,
00000110
00000000
00000001
00000010
00000001
00000000
00000110
00000000
,
00000010
00000100
00000010
00000000
00001000
00000000
00001000
00000000
,
00010000
00001000
00010000
00000000
00100000
00000000
00100000
00000000
,
00010000
01000000
00010000
00000000
10000000
00000000
10000000
00000000
,
00010000
00100000
00010000
00000000
10000000
00000000
10000000
00000000
,
00010000
01000000
00010000
00000000
00001000
00000000
00001000
00000000
,
00010000
00001000
00010000
00000000
00000010
00000000
00000010
00000000
,
00001000
00000010
00000001
00000010
,
00001000
00000001
00000100
00001000
,
00000100
00000000
00000000
00000000
,
00010000
00010000
00010000
00011000
,
00100000
00001000
00010000
00000000
00011000
00000000
00001000
00000000
,
00001000
00001000
00010000
00000000
,
00100000
10000000
01000000
00010000
,
00100000
10000000
01000000
00010000
,
00011000
00000000
00011000
00000000
,
00002000
01003000
00020000
00030100
,
00010000
00000100
00010000
00000000
00001000
00010000
00001000
00000000
,
00020000
00030010
00002000
00103000
,
00010000
00000100
00001000
00000000
00000100
00000000
00010000
00000000
,
00001000
00010000
00100000
00000000
,
10100000
00000000
00100000
00000000
01000000
00000000
00010000
10000000
,
00010000
01000000
00100000
00000000
,
10000000
00000000
01000000
00000000
00010000
00001000
00010000
00000000
,
00001000
00000100
00000001
00000001
,
00000101
00000100
00001100
00000100
,
00001100
00000101
00001100
00000000
,
00000010
00010000
00000100
00000000
00011000
00000000
00000000
00000000
,
00010000
00001000
00010000
00000000
,
00100000
10000000
01000000
00010000
,
00100000
10000000
01000000
00010000
,
00001000
00010000
00001000
00010000
,
00020000
00030100
00002000
01003000
,
00001000
00010000
00001000
00000000
00010000
00001000
00010000
00000000
,
00002000
00103000
00020000
00030010
,
00001000
00010000
00001000
00010000
,
00010000
00001000
00000010
00000000
,
00000001
00001000
00000010
00000000
00000100
00000001
00001000
00000000
,
00001000
00000001
00000100
00000000
00000010
00000000
00000010
00000000
,
00000001
00000100
00001000
00010000
,
01000000
00000000
10000000
00000000
01000000
00100000
01000000
00000000
,
10000000
01000000
00010000
01000000
,
10000000
01000000
00010000
00000000
,
00002000
00000000
00103000
00000000
00010000
00000010
00001000
00000000
,
00020000
00000000
00030010
00000000
00001000
00100000
00010000
00000000
,
00002000
00000000
00103000
00000000
00010000
00000010
00001000
00000000
,
00020000
00000000
00030010
00000000
00001000
00100000
00010000
00000000
,
02020000
00000000
00000000
03030000
,
00000000
00000000
00000000
00000000
;
