
//----- song id: tiho
#TITLE:地方創生☆チクワクティクス;
#ARTIST:日向美ビタースイーツ♪;
#TITLETRANSLIT:Chihou sousei chikuwactics;
#ARTISTTRANSLIT:Hinatabi Bittersweets♪;
#BANNER:Chihou sousei chikuwactics.png;
#BACKGROUND:Chihou sousei chikuwactics-bg.png;
#CDTITLE:./CDTitles/DDR (2014).png;
#MUSIC:Chihou sousei chikuwactics.ogg;
#SAMPLESTART:73.059;
#SAMPLELENGTH:15;
#BPMS:0=170;
#NOTES:
     dance-single:
     :
     Beginner:
     2:
     :
0000
0000
0000
0000
,
0000
0000
0000
0000
,
0000
0000
0000
0000
,
0000
0000
0000
0000
,
0000
0000
0000
0000
,
0001
0000
0000
0000
,
0010
0000
0010
0000
,
1000
0000
0000
0000
,
0001
0000
0000
0000
,
1000
0000
0000
0000
,
0010
0000
0010
0000
,
0000
0000
0000
0000
,
0000
0000
0000
0000
,
0001
0000
0000
0000
,
1000
0000
0000
0000
,
0001
0000
0000
0000
,
0010
0000
0010
0000
,
1000
0000
0000
0000
,
1000
0000
0000
0000
,
0001
0000
0000
0000
,
0010
0000
0010
0000
,
0001
0000
0000
0000
,
1000
0000
0000
0000
,
0001
0000
0000
0000
,
0100
0000
0100
0000
,
1000
0000
0000
0000
,
0001
0000
0000
0000
,
1000
0000
0000
0000
,
0010
0000
0010
0000
,
1000
0000
0000
0000
,
0001
0000
0000
0000
,
1000
0000
0000
0000
,
0100
0000
0100
0000
,
0001
0000
0000
0000
,
1000
0000
0000
0000
,
0010
0000
0010
0000
,
0010
0000
0000
0000
,
1000
0000
0000
0000
,
0001
0000
0000
0000
,
0100
0000
0000
0000
,
0010
0000
0000
0000
,
0010
0000
0000
0000
,
0100
0000
0000
0000
,
0100
0000
0100
0000
,
0000
0000
0000
0000
,
0000
0000
0000
0000
,
1001
0000
0000
0000
,
0000
0000
0000
0000
,
1001
0000
0000
0000
,
0000
0000
0000
0000
,
1001
0000
0000
0000
,
0000
0000
0000
0000
,
0001
0000
0000
0000
,
1000
0000
0000
0000
,
0110
0000
0000
0000
,
0110
0000
0110
0000
,
0001
0000
0000
0000
,
1000
0000
0000
0000
,
0010
0000
0000
0000
,
0100
0000
0100
0000
,
0001
0000
0000
0000
,
1000
0000
0000
0000
,
0010
0000
0000
0000
,
0100
0000
0100
0000
,
0001
0000
0000
0000
,
1000
0000
0000
0000
,
0100
0000
0000
0000
,
0010
0010
0010
0000
,
0000
0000
0000
0000
,
0000
0000
0000
0000
,
1001
0000
0000
0000
,
0000
0000
0000
0000
,
0000
0000
0000
0000
,
0000
0000
0000
0000
,
0000
0000
0000
0000
,
0000
0000
0000
1001
,
0000
0000
0000
0000
;
#NOTES:
     dance-single:
     :
     Easy:
     6:
     :
0000
0000
0000
0000
,
0000
0000
0000
0000
,
0000
0000
0000
0000
,
0000
0000
0000
0000
,
0000
0000
0000
0000
,
1000
0000
0001
0000
,
0010
0001
0010
0000
,
0001
0000
1000
0000
,
0010
1000
0010
0000
,
1000
0000
0001
0000
,
0100
0001
1001
0000
,
1001
0000
1001
0000
,
0100
0010
0110
0000
,
1000
0100
0010
0001
,
0100
0001
0100
0000
,
0001
0010
0100
1000
,
0010
1000
0010
0000
,
1000
0100
0010
0001
,
0100
0001
0100
0000
,
0001
0010
0100
1000
,
0010
0100
0010
0000
,
0001
1000
0100
1000
,
0001
1000
0001
0000
,
1000
0001
0100
0001
,
1000
0001
1000
0000
,
0001
1000
0010
1000
,
0001
1000
0001
0000
,
0100
0000
0010
0000
,
0110
0000
0000
0000
,
1000
0001
0100
0001
,
1000
0001
1000
0000
,
0001
1000
0100
1000
,
0001
1000
0001
0000
,
1000
0001
0010
0001
,
1000
0001
1000
0000
,
1001
0000
0100
0000
,
0210
0000
0310
0000
,
0210
0000
0310
0000
,
0210
0000
0310
0000
,
0210
0000
0310
0000
,
0010
0100
0010
0000
,
0010
0100
0010
0000
,
0010
0100
0010
0100
,
0010
0100
0010
0000
,
0110
0000
0000
0000
,
0000
0000
0000
0000
,
1001
0000
0100
0000
,
0010
0000
1000
0000
,
1001
0000
0100
0000
,
0010
0000
0001
0000
,
1001
0000
0000
0000
,
0000
0000
0000
0000
,
0001
1000
0100
0010
,
0001
1000
0001
0000
,
1000
0010
0100
0001
,
1000
0001
1000
0000
,
0010
0100
0010
0000
,
1000
0001
1000
0000
,
0001
0010
0100
1000
,
0100
1000
0001
0000
,
1000
0001
0100
0010
,
1000
0001
1000
0000
,
0001
0010
0100
1000
,
0001
1000
0001
0000
,
0100
0010
0110
0000
,
1000
0001
1001
0000
,
1001
0000
0010
0000
,
0100
0010
0110
0000
,
1001
0000
0000
0000
,
0000
0000
0000
0000
,
0110
0000
0000
0000
,
0000
0000
0000
0000
,
0000
0000
0000
0000
,
0000
0000
0000
0000
,
0000
0000
0000
0000
,
0010
0100
0001
1001
,
0000
0000
0000
0000
;
#NOTES:
     dance-single:
     :
     Medium:
     10:
     :
0000
0000
0000
0000
,
0000
0000
0000
0000
,
0000
0000
0000
0000
,
0000
0000
0000
0000
,
0000
0000
0000
0000
,
0001
0000
0010
0000
0100
0010
0100
1000
,
0100
0010
0110
0000
,
1000
0000
0001
0000
0010
0001
0010
0001
,
1000
0000
0001
0000
1000
0010
1000
0010
,
1000
0010
0100
0001
,
0100
0010
0110
0000
,
1001
0000
0110
0000
,
1001
0110
1001
0000
,
1000
0000
0100
0000
0010
0001
0010
0000
,
0001
0000
0010
0000
0100
1000
0100
0000
,
1000
0010
0100
0001
,
1000
0100
1100
0101
,
0001
0000
0100
0000
0010
1000
0010
0000
,
1000
0000
0010
0000
0100
0001
0100
0000
,
0001
0010
0100
1000
,
0001
0100
0001
1000
0010
0000
0000
0000
,
1000
0000
0100
0000
0010
0000
0001
0010
,
0001
0010
0100
1100
,
0001
0000
0010
0000
0100
0000
1000
0010
,
1000
0001
0100
0101
,
1000
0000
0100
0000
0010
0000
0001
0010
,
0001
0000
0100
0000
0010
0000
1000
0010
,
1000
1010
0001
0011
,
1001
1000
0010
1000
,
0001
0000
0100
0000
0010
0000
1000
0010
,
1000
0000
0100
0000
0010
0000
0001
0010
,
0001
0000
0100
0000
0010
0000
1000
0010
,
1000
0100
0010
0100
1000
0000
1001
0000
,
0001
0000
0100
0000
0010
0000
1000
0010
,
1000
0000
0100
0000
0010
0000
0001
0010
,
0001
0011
1000
1010
,
0210
0000
0000
0000
0010
0000
0000
0010
,
0000
0010
0000
0010
0310
0000
0000
0000
,
0210
0000
0000
0000
0010
0000
0000
0010
,
0000
0010
0000
0010
0310
0000
0000
0000
,
0010
1000
0000
1100
,
0100
0010
0000
0011
,
0001
1000
0000
1100
,
1000
0001
0000
1001
,
1000
0100
0010
0001
,
0100
0010
1000
0001
,
2001
0000
0010
0000
,
0001
0000
3100
0000
,
1002
0000
0010
0000
,
1000
0000
0103
0000
,
1001
0000
0000
0000
,
0100
0010
0100
0000
0110
0000
0000
0000
,
0001
0000
0100
0000
0010
1000
0010
0000
,
1000
0000
0100
0000
0010
0001
0010
0000
,
0001
0000
0100
0000
0001
1000
0001
0000
,
1000
0101
1100
0011
,
0001
0000
0010
0100
0010
0000
0001
0000
,
0010
0000
0100
1000
0001
0000
1001
0000
,
1000
0100
0010
0001
0010
0100
1000
0010
,
1000
0001
1010
0011
,
1000
0000
0100
0000
0010
0001
0010
0000
,
0100
0000
1000
0000
0010
1000
0010
0000
,
1000
0000
0100
0000
1000
0001
1000
0000
,
0001
1100
0101
1010
,
1000
0000
0100
0010
0100
0000
1000
0000
,
0010
0000
0100
0001
1000
0000
1001
0000
,
1010
0000
0011
0000
,
0101
1100
1001
0000
,
0010
0000
0000
1000
0000
0000
0100
0000
,
0000
0010
0000
0001
1000
0001
0100
0010
,
1000
0000
0000
0000
,
0000
0000
0000
0000
,
0000
0000
0000
0000
,
0000
0000
0000
0000
,
0000
0000
0000
0000
,
0010
0000
0100
0010
1000
0000
1001
0000
,
0000
0000
0000
0000
;
#NOTES:
     dance-single:
     :
     Hard:
     13:
     :
0000
0000
0000
0000
,
0000
0000
0000
0000
,
0000
0000
0000
0000
,
0000
0000
0000
0000
,
0000
0000
0000
0000
,
0001
1000
0010
0100
0001
0010
0100
1000
,
0001
1000
1001
0000
,
1000
0010
0100
0001
0010
0001
0010
0001
,
0010
0001
0100
0010
1000
0010
1000
0100
,
1000
0001
0010
0100
1000
0010
0100
0001
,
0010
0001
1001
0000
,
1001
0000
0110
0000
,
1001
0110
1001
0000
,
1000
0010
0100
0001
0010
0001
0010
0001
,
0010
0100
1000
0010
1000
0010
1000
0010
,
1000
0100
0010
0001
0100
0010
1000
0010
,
0100
0000
0000
0010
0000
0000
0001
0000
0000
0010
0000
0000
0100
0000
0000
0000
0010
0000
0000
0000
0100
0000
0000
0000
,
0001
0010
0100
1000
0010
1000
0010
1000
,
0010
0100
0001
0010
0001
0010
0001
1000
,
0010
0100
0001
0010
0001
0100
0010
1000
,
0010
0100
0010
1000
0100
0000
1001
0000
,
0001
0100
0010
1000
0100
1000
0010
1000
,
0100
0010
0001
0100
0010
0100
0001
0100
,
0001
0010
0100
1000
0010
0100
0001
0010
,
0001
1000
0010
0000
0001
0000
1000
0100
,
1000
0100
0010
0001
0100
0001
0010
0001
,
0100
0010
1000
0100
0010
0100
1000
0010
,
1000
0100
1000
0100
1000
0010
0100
0010
,
0100
0001
1000
0010
1000
0000
1001
0000
,
1000
0100
0010
0001
0010
0001
0100
0001
,
0100
0010
1000
0100
0010
0100
1000
0100
,
1000
0010
0100
0001
0010
0100
0010
0100
,
0010
0101
1100
1001
,
0001
0100
0010
1000
0100
1000
0010
1000
,
0100
0010
0001
0100
0010
0100
0001
0100
,
0010
1001
0100
1001
,
0210
0000
0000
0010
0010
0000
0000
0010
,
0000
0010
0000
0010
0310
0000
0000
0000
,
0210
0000
0000
0010
0010
0000
0000
0010
,
0000
0010
0000
0010
0310
0000
0000
0000
,
0010
1010
0000
0011
,
0100
1100
0000
0101
,
0010
0011
0000
1010
,
0100
0101
0000
1100
,
1000
0100
0010
0001
0100
0001
0010
0100
1000
0010
1000
0010
,
1000
0100
0010
0001
0100
0001
0010
0100
1000
0010
0100
0001
,
2000
0000
0010
0000
,
0001
0000
3100
0000
,
1002
0000
0010
0000
,
1000
0000
0103
0000
,
1001
0000
0000
0000
,
0010
0000
0100
0001
0100
0000
0001
0000
1000
0000
0000
0000
0000
0000
0000
0000
,
1000
0010
0100
0001
0010
0100
1000
0010
,
0100
0010
1000
0001
0100
0010
1000
0001
,
1000
0010
0100
0001
0010
0100
1000
0010
,
1000
0101
1100
0011
,
0001
0010
0100
1000
0010
1000
0100
1000
,
0010
0100
0001
0010
0100
1000
0010
1000
,
0100
0100
1000
1000
0010
0010
0100
0100
,
0001
0001
1000
0001
0010
0000
0011
0000
,
0001
0010
0100
1000
0010
0100
0001
0010
,
0100
0010
0001
1000
0100
0010
0001
1000
,
0001
0010
0100
1000
0010
0100
0001
0010
,
0001
1100
0101
1010
,
1000
0010
0100
0001
0010
0001
0100
0001
,
0010
0100
1000
0010
0100
0001
0010
0001
,
0100
0101
0100
1100
,
0011
1010
1001
0000
,
0110
0000
0000
1100
0000
0000
0101
0000
,
0000
0010
0001
0100
0010
1000
0001
0010
,
0100
0000
0000
0000
,
0000
0000
0000
0000
,
0000
0000
0000
0000
,
0000
0000
0000
0000
,
0000
0000
0000
0000
,
0001
0000
0100
0001
0010
0000
0001
0000
1000
0000
0000
0000
1001
0000
0000
0000
,
0000
0000
0000
0000
;
#NOTES:
     dance-double:
     :
     Easy:
     7:
     :
00000000
00000000
00000000
00000000
,
00000000
00000000
00000000
00000000
,
00000000
00000000
00000000
00000000
,
00000000
00000000
00000000
00000000
,
00000000
00000000
00000000
00000000
,
00100000
00000000
00010000
00000000
,
00001000
00010000
00011000
00000000
,
00001000
00000000
00000100
00000000
,
00000001
00000010
00000001
00000000
,
00000010
00000000
00001000
00000000
,
00010000
00001000
00011000
00000000
,
00011000
00000000
00011000
00000000
,
00010000
00100000
00010000
00000000
,
00001000
00000100
00000001
00000010
,
00000100
00000010
00000100
00000000
,
00010000
00100000
10000000
01000000
,
00100000
01000000
00100000
00000000
,
00001000
00000100
00000001
00000010
,
00000100
00000010
00000100
00000000
,
00010000
00000000
00001000
00000000
,
00010000
00001000
00011000
00000000
,
00001000
01000000
00100000
01000000
,
00010000
00100000
00001000
00000000
,
00010000
00000100
00000010
00000100
,
00001000
00000010
00010000
00000000
,
00001000
01000000
00100000
01000000
,
00010000
00100000
01000000
00000000
,
00010000
00000000
00001000
00000000
,
00011000
00000000
00000000
00000000
,
00001000
00000100
00000010
00000100
,
00001000
00010000
00001000
00000000
,
00010000
01000000
00100000
01000000
,
00010000
00001000
00010000
00000000
,
00001000
00000100
00000010
00000100
,
00001000
00010000
01000000
00010000
,
00001000
00000000
00010000
00000000
,
00021000
00000000
00000010
00000000
,
00001000
00000000
00030100
00000000
,
00012000
00000000
00100000
00000000
,
00010000
00000000
01003000
00000000
,
00001000
00000010
00000001
00000000
,
00000100
00001000
00010000
00000000
,
01000000
10000000
00100000
00010000
,
00001000
00000010
00001000
00000000
,
00011000
00000000
00000000
00000000
,
00000000
00000000
00000000
00000000
,
00001000
00000000
00000100
00000000
,
00001000
00000000
00010000
00000000
,
01000000
00000000
10000000
00000000
,
00100000
00000000
10000000
00000000
,
01000000
00000000
00000000
00000000
,
00010000
00001000
00011000
00000000
,
00001000
00000100
00000001
00000010
,
00000100
00000010
00001000
00000000
,
00010000
00100000
10000000
01000000
,
00100000
01000000
00010000
00000000
,
00001000
00000100
00000001
00000000
,
00000010
00001000
00010000
00000000
,
00100000
10000000
01000000
00010000
,
00001000
00000100
00001000
00000000
,
00010000
01000000
10000000
00100000
,
01000000
00010000
00100000
00000000
,
00001000
00000100
00000001
00000010
,
00000100
00000010
00000100
00000000
,
00010000
00100000
00010000
00000000
,
00001000
00000010
00001000
00000000
,
00010000
00000000
00100000
00000000
,
00010000
00001000
00011000
00000000
,
00000010
00000000
00000000
00000000
,
00000000
00000000
00000000
00000000
,
00000001
00000000
00000000
00000000
,
00000000
00000000
00000000
00000000
,
00000000
00000000
00000000
00000000
,
00000000
00000000
00000000
00000000
,
00000000
00000000
00000000
00000000
,
00000010
00001000
00010000
00011000
,
00000000
00000000
00000000
00000000
;
#NOTES:
     dance-double:
     :
     Medium:
     10:
     :
00000000
00000000
00000000
00000000
,
00000000
00000000
00000000
00000000
,
00000000
00000000
00000000
00000000
,
00000000
00000000
00000000
00000000
,
00000000
00000000
00000000
00000000
,
00001000
00000000
00000100
00000000
00000001
00000010
00000001
00000010
,
00000001
00000010
00001000
00000000
,
00010000
00000000
00100000
00000000
10000000
00100000
10000000
00100000
,
10000000
01000000
00010000
00000000
,
00001000
00000100
00000001
00000100
,
00001000
00010000
00011000
00000000
,
00001000
00000000
00010000
00000000
,
00001000
00010000
00011000
00000000
,
00010000
00000000
01000000
00000000
00100000
00010000
00100000
00000000
,
00001000
00000000
00000100
00000000
00000010
00001000
00000010
00000000
,
00010000
00001000
00100000
00010000
,
01000000
00001000
00010000
00000000
,
00001000
00000000
00000100
00000000
00000010
00001000
00000010
00000000
,
00010000
00000000
01000000
00000000
00100000
00010000
00100000
00000000
,
01000000
10000000
00100000
00010000
,
00001000
00010000
00001000
00010000
00001000
00000000
00000000
00000000
,
00010000
00000000
00000100
00000000
00000010
00000000
00000001
00000010
,
00000001
00000100
00000010
00010000
,
00001000
00000000
00100000
00000000
01000000
00000000
10000000
00100000
,
10000000
01000000
00010000
00001000
,
00010000
00000000
00000100
00000000
00000010
00000000
00000001
00000010
,
00000100
00000000
00010000
00000000
00100000
00000000
01000000
00100000
,
10000000
00000000
01000000
00000000
,
00010000
00000000
00000000
00000000
,
00001000
00000000
01000000
00000000
00100000
00000000
10000000
00100000
,
10000000
01000000
00100000
00001000
,
00010000
00000000
00000010
00000000
00000100
00000000
00000001
00000010
,
00000001
00000100
00001000
00010000
,
00001000
00000000
01000000
00000000
00100000
00000000
10000000
00100000
,
00010000
00000000
00001000
00000000
00000010
00000000
00000100
00000010
,
00001000
00000010
00001000
00010000
,
00021000
00000000
00000000
00000000
00001000
00000000
00000000
00001000
,
00000000
00001000
00000000
00001000
00031000
00000000
00000000
00000000
,
00012000
00000000
00000000
00000000
00010000
00000000
00000000
00010000
,
00000000
00010000
00000000
00010000
00013000
00000000
00000000
00000000
,
00000000
00001000
00000000
00110000
,
00000000
00001000
00000000
00011000
,
00000000
00000010
00000000
00001010
,
00000000
00010000
00000000
00011000
,
00010000
01000000
10000000
00100000
,
00010000
00001000
00000010
00000001
,
00000201
00000000
00000010
00000000
,
00000001
00000000
00000310
00000000
,
00021000
00000000
00000010
00000000
,
00000100
00000000
00030010
00000000
,
00011000
00000000
00000000
00000000
,
00011000
00000000
00001000
00000010
00001000
00000000
00000000
00000000
,
00010000
00000000
00100000
00000000
10000000
00100000
10000000
00000000
,
00100000
00000000
01000000
00000000
00010000
00100000
01000000
00000000
,
00010000
00000000
00001000
00000000
00000100
00000001
00000010
00000000
,
00000001
00000101
00001000
00011000
,
00001000
00000000
00100000
00010000
00100000
00000000
01000000
00000000
,
00010000
00000000
00001000
00010000
00001000
00000000
00000100
00000000
,
00000001
00000010
00000100
00001000
00000010
00000100
00001000
00010000
,
00001000
00010000
00011000
00000000
,
00001000
00000000
00000010
00000000
00000001
00000010
00000001
00000000
,
00000010
00000000
00000100
00000000
00001000
00000010
00000100
00000000
,
00001000
00000000
00010000
00000000
01000000
10000000
00100000
00000000
,
10000000
11000000
00010000
00011000
,
00001000
00000000
00000010
00001000
00000010
00000000
00001000
00000000
,
00010000
00000000
00100000
00010000
00100000
00000000
00010000
00000000
,
00011000
00000000
01010000
00000000
,
00011000
00001100
00011000
00000000
,
00010000
00000000
00000000
00100000
00000000
00000000
10000000
00000000
,
00000000
01000000
00100000
01000000
00100000
00000000
00001000
00000000
,
00011000
00000000
00000000
00000000
,
00000000
00000000
00000000
00000000
,
00000000
00000000
00000000
00000000
,
00000000
00000000
00000000
00000000
,
00000000
00000000
00000000
00000000
,
00001000
00000000
00000010
00001000
00010000
00000000
00011000
00000000
,
00000000
00000000
00000000
00000000
;
#NOTES:
     dance-double:
     :
     Hard:
     13:
     :
00000000
00000000
00000000
00000000
,
00000000
00000000
00000000
00000000
,
00000000
00000000
00000000
00000000
,
00000000
00000000
00000000
00000000
,
00000000
00000000
00000000
00000000
,
00000001
00000010
00000100
00010000
00001000
00000100
00001000
00010000
,
00001000
00010000
00011000
00000000
,
00001000
00000100
00000001
00000010
00000001
00000100
00000001
00000100
,
00000001
00000100
00001000
00010000
01000000
10000000
01000000
10000000
,
01000000
00100000
01000000
00000000
00010000
00001000
00010000
00000000
,
00000010
00000100
00011000
00000000
,
00001000
00000000
00010000
00000000
,
00001000
00010000
00011000
00000000
,
00010000
00100000
10000000
01000000
10000000
00100000
10000000
00100000
,
10000000
01000000
00100000
00010000
01000000
00100000
00010000
00001000
,
00000010
00000001
00000100
00000001
00000010
00000001
00000010
00000001
,
00000010
00000000
00000000
00000100
00000000
00000000
00001000
00000000
00000000
00000010
00000000
00000000
00000100
00000000
00000000
00000000
00001000
00000000
00000000
00000000
00010000
00000000
00000000
00000000
,
00001000
00000010
00000001
00000100
00000001
00000010
00000001
00000010
,
00000001
00000100
00000010
00001000
00000100
00000010
00001000
00010000
,
00100000
10000000
01000000
10000000
00100000
10000000
00100000
10000000
,
01000000
00110000
00011000
00000000
,
00010000
01000000
00100000
01000000
10000000
00100000
01000000
00100000
,
10000000
01000000
00100000
01000000
00100000
00000000
00011000
00000000
,
00001000
00000100
00000010
00000100
00000001
00000010
00000100
00000010
,
00001000
00000000
00010000
00000000
00011000
00000000
00010000
00100000
,
10000000
01000000
00100000
00010000
01000000
00100000
00010000
00001000
,
00010000
00001000
00000010
00000001
00000100
00000010
00001000
00000000
,
00000001
00000010
00000001
00000010
00000001
00001000
00000010
00000100
,
00000010
00000000
00010000
00000000
00000100
00001000
00000010
00000000
,
00001000
00000100
00000010
00000001
00000100
00000001
00000100
00000010
,
00000100
00001000
00010000
01000000
10000000
01000000
10000000
01000000
,
10000000
00100000
00010000
00001000
00000010
00000001
00000010
00000001
,
00000010
00000001
00000100
00001000
,
00011000
00000000
00010000
00100000
00010000
00100000
00010000
00000000
,
00011000
00000000
00001000
00000010
00001000
00000010
00001000
00000000
,
00010000
00011000
01000000
01100000
,
02010000
00000000
00000000
00010000
00010000
00000000
00000000
00010000
,
00000000
00010000
00000000
00010000
03010000
00000000
00001000
00000000
,
00012000
00000000
00000000
00010000
00010000
00000000
00000000
00010000
,
00000000
00010000
00000000
00010000
00013000
00000000
00000010
00000000
,
00001000
00000010
00000000
00001010
,
00000100
00000010
00000000
00000110
,
00010000
00001000
00000000
00011000
,
00100000
10000000
00000000
10100000
,
10000000
00100000
00010000
00001000
,
00000010
00000001
00000010
00000001
00000100
00000001
00000100
00001000
00000100
00001000
00010000
00001000
,
00020000
00000000
00001000
00000000
,
01000000
00000000
00031000
00000000
,
00012000
00000000
00010000
00000000
,
00000100
00000000
00013000
00000000
,
00011000
00000000
00000000
00000000
,
00100000
00000000
10000000
00100000
10000000
00000000
00100000
00000000
01000000
00000000
00000000
00000000
00000000
00000000
00000000
00000000
,
00010000
10000000
00100000
01000000
00010000
00100000
01000000
10000000
,
00010000
00100000
01000000
10000000
00100000
01000000
00100000
00010000
,
00001000
00000010
00000001
00000100
00000010
00000100
00000001
00000010
,
00001000
00010000
00001000
00011000
,
00010000
01000000
10000000
00100000
10000000
00000000
00110000
00000000
,
00001000
00000100
00000001
00000010
00000001
00000000
00001010
00000000
,
00000010
00000010
00000100
00000100
00001000
00001000
00010000
00010000
,
00001000
00001000
00000010
00000000
00000011
00000000
00000000
00000000
,
00001000
00000001
00000010
00000100
00001000
00000010
00000100
00000001
,
00001000
00000010
00000100
00000001
00000010
00000100
00000010
00001000
,
00010000
00100000
10000000
01000000
00100000
01000000
10000000
00100000
,
00010000
00001000
00010000
00011000
,
00001000
00000100
00000001
00000010
00000001
00000000
00001010
00000000
,
00010000
01000000
10000000
00100000
10000000
00000000
00110000
00000000
,
00011000
00000000
00010010
00000000
,
00011000
00101000
00011000
00000000
,
00010000
00000000
00000000
00100000
00000000
00000000
10000000
00000000
,
00000000
01000000
10000000
00100000
00010000
00001000
00000010
00000001
,
00000100
00000000
00000000
00000000
,
00000000
00000000
00000000
00000000
,
00000000
00000000
00000000
00000000
,
00000000
00000000
00000000
00000000
,
00000000
00000000
00000000
00000000
,
00000001
00000000
00000100
00000001
00000100
00000000
00001000
00000000
00010000
00000000
00000000
00000000
00011000
00000000
00000000
00000000
,
00000000
00000000
00000000
00000000
;
