#TITLE:ちゅ~いん☆バニー;
#ARTIST:阿部靖広 feat. Strawberry Wink;
#TITLETRANSLIT:Chewin' Bunny;
#ARTISTTRANSLIT:Yasuhiro Abe feat. Strawberry Wink;
#BANNER:Chewin' Bunny.png;
#BACKGROUND:Chewin' Bunny-bg.png;
#CDTITLE:./CDTitles/DDR (2014).png;
#MUSIC:Chewin' Bunny.ogg;
#SAMPLESTART:46.65;
#SAMPLELENGTH:15;
#BPMS:0=180;
#NOTES:
     dance-single:
     :
     Beginner:
     3:
     :
0000
0000
0000
0000
,
0000
0000
0000
0000
,
0000
0000
0000
0000
,
0000
0000
0000
0000
,
0000
0000
0000
0000
,
0000
0000
0000
0000
,
0000
0000
0000
0000
,
0100
0000
0100
0000
,
0100
0000
0000
0000
,
1000
0000
1000
0000
,
1000
0000
0000
0000
,
0001
0000
0001
0000
,
0001
0000
0000
0000
,
1000
0000
1000
0000
,
1000
0000
0000
0000
,
0001
0000
0001
0000
,
0000
0100
0100
0000
,
0100
0000
0000
0000
,
0000
0000
0000
0000
,
0010
0000
0000
0000
,
0000
0000
0000
0000
,
1000
0000
0000
0000
,
0000
0000
0000
0000
,
0001
0000
0000
0000
,
1001
0000
0000
0000
,
1000
0000
0000
0000
,
1000
0000
1000
0000
,
0100
0000
0000
0000
,
0100
0000
0000
0000
,
0001
0000
0001
0000
,
0001
0000
0000
0000
,
0010
0000
0010
0000
,
0010
0000
0010
0000
,
0010
0000
0000
0000
,
0000
0000
0000
0000
,
0001
0000
0001
0000
,
0100
0000
0000
0000
,
1000
0000
1000
0000
,
0100
0000
0000
0000
,
0010
0000
0010
0000
,
0010
0000
0000
0000
,
0001
0000
0001
0000
,
1000
1000
1000
0000
,
0001
0000
0001
0000
,
0010
0000
0000
0000
,
1000
0000
1000
0000
,
0010
0000
0000
0000
,
0100
0000
0100
0000
,
0100
0000
0000
0000
,
0010
0000
0000
0000
,
1001
0000
0000
0000
,
0100
0000
0100
0000
,
0100
0000
0000
0000
,
0001
0000
0001
0000
,
0001
0000
0000
0000
,
0000
0100
0000
0100
,
0000
0100
0000
0000
,
0010
0000
0000
0000
,
0000
0100
0100
0000
,
1000
0000
1000
0000
,
1000
0000
0000
0000
,
0001
0000
0001
0000
,
0001
0000
0000
0000
,
1000
0000
1000
0000
,
0001
0000
0000
0000
,
0001
0000
0001
0000
,
1000
0000
0000
0000
,
0010
0000
0000
0000
,
0100
0000
0000
0000
,
0001
0000
1000
0000
,
0100
0100
0100
0000
,
0000
0001
0001
0000
,
0000
1000
1000
0000
,
0001
0000
1001
0000
,
0000
0000
0000
0000
;
#NOTES:
     dance-single:
     :
     Easy:
     6:
     :
0000
0000
0000
0000
,
0000
0000
0000
0000
,
0000
0000
0000
0000
,
0000
0000
0000
0000
,
0000
0000
0000
0000
,
0000
0000
0000
0000
,
0000
0000
0000
0000
,
0010
0000
0010
0000
,
0001
1000
0001
0000
,
0010
0000
0001
0000
,
0100
0001
0100
0000
,
0010
0000
1000
0000
,
2000
0000
3000
0000
,
0100
0000
1000
0000
,
0010
1000
0010
0000
,
0100
0000
0001
0001
,
0000
0100
0100
0010
,
0100
0000
0000
0000
,
0000
0000
0001
1000
,
0100
0000
0000
0000
,
0000
0000
0010
1000
,
0001
0000
0000
0000
,
0100
0000
0000
0000
,
0001
0000
1000
0000
,
0110
1000
0001
0000
,
2000
0000
3000
0010
,
1000
0100
0001
0100
,
0010
0000
0001
0000
,
1000
0100
0010
0001
,
0100
0001
0000
0001
,
0000
0100
0000
0100
,
0000
1000
0000
1000
,
0000
0010
0000
0010
,
0200
0000
0000
0000
,
0300
0000
0000
0000
,
1000
1000
0001
0001
,
1000
1000
0100
0010
,
0001
0000
0001
0010
,
0100
0000
0000
0000
,
2000
0000
3100
0100
,
1000
0001
1001
0000
,
0010
0000
0010
0000
,
1000
0100
0010
0000
,
0010
0010
0100
0100
,
0010
0010
1000
0100
,
0010
0000
0001
0010
,
0100
0000
0000
0000
,
0001
0000
1000
0000
,
0001
0100
0100
0100
,
0020
0000
0000
0000
0000
0000
0000
0030
,
0000
0000
0000
0000
,
0200
0000
0000
0300
,
0002
0000
0000
0003
,
0020
0000
0000
0030
,
2000
0000
0000
3000
,
0001
1001
0000
0110
,
1001
2002
0000
3003
,
0200
0000
0000
0000
,
0300
0010
1001
0000
,
0100
0000
1000
0000
,
0010
1000
0010
0000
,
0100
0000
0001
0001
,
0000
1000
1000
0001
,
0100
0000
1000
0000
,
0001
0000
0000
0000
,
0010
0000
0001
0000
,
1000
0000
0000
0000
,
1001
0010
0000
0010
,
0100
0001
1000
0001
,
1000
0000
0100
0000
,
0110
0001
0001
0100
,
0010
1000
1000
0100
,
0010
0001
0001
1000
,
1001
0000
0100
0000
,
0000
0000
0000
0000
;
#NOTES:
     dance-single:
     :
     Medium:
     8:
     :
0000
0000
0000
0000
,
0000
0000
0000
0000
,
0000
0000
0000
0000
,
0000
0000
0000
0000
,
0000
0000
0000
0000
,
0000
0000
0000
0000
,
0000
0000
0000
0000
,
1100
0000
0101
0000
,
1000
0001
1001
0000
,
0010
0001
1000
0010
,
0100
0010
1000
0001
,
0100
0000
0010
0000
0100
0000
0100
0001
,
0000
1000
0001
1000
0001
0000
0000
0000
,
0100
0010
1000
0100
,
0001
0100
1000
0010
,
0001
0000
0010
0000
0100
0000
0010
1000
,
0000
0100
0010
0100
0010
0000
0000
0000
,
1001
0000
0010
0000
,
1000
0000
0001
0000
1000
0010
0000
0010
,
0000
0000
0100
0000
,
0001
0000
1000
0000
0001
0010
0000
0010
,
0000
0000
0000
0000
0001
0000
0000
0100
,
0000
0000
1000
0000
,
0002
0000
0023
0000
,
0130
1000
0001
1000
0001
0000
0000
0000
,
2001
0100
3100
0000
,
0010
0001
1000
0100
,
0020
0001
0031
0000
,
0010
1000
0100
0001
,
0010
0100
1000
0100
,
0020
1000
0230
1000
,
0310
1000
0001
0010
,
0002
0100
2003
0100
,
3010
0100
0010
0100
0000
0100
0000
1001
,
0000
0000
0000
0000
,
0100
1001
0010
1001
,
0100
1001
0010
0100
,
0010
0000
0010
1000
0100
0000
1000
0000
,
0100
0010
0100
1000
,
0001
0000
1000
0001
1000
0000
0001
0000
,
0100
1001
2002
3003
,
0001
0100
1000
0010
,
0100
0001
0100
0001
0020
0000
0030
0000
,
1000
0110
0001
0110
,
1000
0110
0001
1000
,
0010
0000
1000
0100
1000
0000
0001
0000
,
0100
0000
0010
0000
1000
0000
0100
0010
,
0100
1100
0001
0011
,
0100
0010
1000
0001
,
0100
0000
0010
0000
0100
0000
0001
0100
,
0000
0100
0000
0000
0010
0000
0010
0000
,
2000
0000
0001
0000
,
3020
0000
0100
0030
,
0002
0000
0010
0000
,
0023
0000
1030
0001
,
0010
1100
0000
0101
,
1100
0202
0000
0303
,
0010
0000
1000
0001
0000
1000
0000
0001
,
0000
0010
0001
0010
0001
0000
0000
0000
,
0100
0000
0010
0000
1000
0000
0100
0010
,
0100
1000
0010
0100
,
0001
0000
0010
0000
0100
0000
0010
0001
,
0000
0100
0010
0100
0010
0000
0100
0000
,
1001
0000
0000
0000
0010
0000
0000
0100
,
0000
0100
0000
0000
0000
0000
0000
0000
,
1001
0000
0000
0000
0100
0000
0000
0010
,
0000
0010
0000
0000
0000
0000
0000
0000
,
1100
0000
0000
0000
0000
0010
0000
0101
,
0000
0000
0010
0000
,
2100
0000
3200
0000
,
0310
0001
0100
0001
0100
0000
0000
0000
,
0000
1000
0100
1000
0100
0000
0000
0000
,
0000
0001
1000
0001
1000
0000
0010
0000
,
2002
3003
0100
0000
,
0000
0000
0000
0000
;
#NOTES:
     dance-single:
     :
     Hard:
     10:
     :
0000
0000
0000
0000
,
0000
0000
0000
0000
,
0000
0000
0000
0000
,
0000
0000
0000
0000
,
0000
0000
0000
0000
,
0000
0000
0000
0000
,
0000
0000
0000
0000
0000
0000
0000
0001
,
0100
0000
0000
1000
0100
0000
0000
0010
,
0100
0001
1000
0001
1000
0000
1001
0000
,
0010
0000
0001
0100
0010
0000
0010
0100
,
0000
0001
0000
1000
0100
0000
0010
0000
,
0001
0000
1000
0010
0100
0000
0100
0010
,
0000
1000
0100
1000
0100
0000
1000
0000
,
0001
0000
0010
0100
1000
0000
1000
0100
,
0000
0010
0000
0001
0100
0000
0010
0000
,
1000
0000
0001
0010
0100
0000
0100
0010
,
0000
0001
1000
0001
1000
0000
1001
0000
,
0110
0000
0100
0000
,
0010
1000
0010
1000
0000
1010
0000
0101
,
0000
0000
0010
0000
,
0001
0010
0100
1000
0000
1100
0000
0011
,
0000
0000
0010
0000
0001
0100
0010
0100
,
0000
0000
0010
0000
1000
0100
0010
0000
,
0001
0001
0010
0100
1000
1000
,
0100
0010
0001
0010
0100
0000
0000
0000
,
1001
0000
0010
1000
0000
0010
1000
0000
,
0100
0000
0010
0001
0010
0000
0001
0000
,
0100
0000
0001
1000
0000
0001
1000
0000
,
0200
0001
0010
1300
,
1001
0010
0100
0010
,
1000
0000
0001
0000
0010
0100
1000
0000
,
0100
0010
0001
0010
,
0100
0000
1000
0000
0010
0100
0001
0000
,
1000
0100
0010
0100
0000
0010
0000
1001
,
0000
0000
0000
0000
,
1010
1100
0011
0101
,
1010
1001
0100
0010
,
0110
0000
0010
0100
0000
0010
0100
0000
,
1000
0010
1000
0001
0010
0100
1000
0000
,
0010
0000
1000
0100
0000
0100
0010
0001
,
0100
1010
0202
0303
,
1000
0000
1000
0010
0000
0010
0100
0000
,
0001
0100
1000
0100
0001
0000
0100
0000
,
0110
1010
0110
0011
,
0110
1001
1000
0001
,
0100
0000
0010
1000
0000
1000
0001
0000
,
0200
1000
0001
1300
,
0010
1100
0010
0101
,
0010
1000
0100
0001
,
0010
0000
0100
0000
0010
0001
1000
0100
,
0000
0100
0000
0100
0010
0000
0010
0001
,
0200
0000
0010
0010
,
0302
0000
0010
0010
,
2003
0000
0100
0100
,
3010
0000
0010
0100
0001
0000
1000
0100
,
1000
0011
1000
0011
,
0110
2020
0030
3001
,
0100
0001
0010
1000
0000
0010
0000
0001
,
0000
1000
0100
0010
0001
0000
1001
0000
,
1000
0000
0100
0010
0001
1000
0001
0010
,
0000
0100
0000
1000
0010
0000
0100
0000
,
0001
0000
1000
0100
0010
0001
0010
0100
,
0000
1000
0001
1000
0001
0000
1001
0000
,
0110
0000
0000
0000
0010
0000
0010
0100
,
0010
0100
0000
0002
0000
1003
0000
0000
,
1001
0000
0100
0000
0100
0000
0010
1000
,
0000
0001
0000
0200
0000
0310
1000
0010
,
0100
0000
0000
0000
0000
0011
0000
1100
,
0000
0000
0010
0000
0001
0100
0010
0000
,
1000
1000
0100
0010
0001
0001
,
0010
0100
1000
0100
0010
0000
0001
0000
,
1000
0001
0010
0100
1000
0000
0010
0000
,
0100
0001
0010
1000
0010
0000
0001
0000
,
1002
0000
0103
0000
,
0000
0000
0000
0000
;
#NOTES:
     dance-single:
     :
     Challenge:
     13:
     :
0000
0000
0000
0000
,
0000
0000
0000
0000
,
0000
0000
0000
0000
,
0000
0000
0000
0000
,
0000
0000
0000
0000
,
0000
0000
0000
0000
,
0000
0000
0000
0000
,
MMMM
0110
MMMM
1001
,
MMMM
0010
0100
0010
0100
0000
MMMM
0000
,
1000
0000
0000
0000
0100
0000
0010
0001
0100
0000
0001
0000
0010
0000
0100
0000
,
0000
0000
1100
0000
0000
0000
0010
0001
0100
0000
0010
0000
1000
0000
0001
0000
,
0100
0000
0000
0000
0001
0000
1000
0010
0100
0000
0001
0000
0100
0000
0020
0000
,
0000
0130
1000
0100
0001
0100
1000
0100
,
0001
0000
MMMM
0000
0010
0100
MMMM
0000
,
1100
0000
MMMM
0000
0001
1000
MMMM
0000
,
0011
0000
MMMM
0000
0010
0100
0010
0100
,
0000
1000
1000
0001
0001
0000
MMMM
0000
,
0210
0000
0001
0000
,
1000
0000
0310
0000
0001
MMMM
1000
MMMM
,
0000
0001
0100
1000
,
0010
0000
0001
0000
0100
MMMM
0010
MMMM
,
0000
0000
0010
0000
0100
1001
0000
MMMM
,
0000
0010
1000
0001
,
1000
0010
0001
1000
0100
0010
,
0001
MMMM
0001
MMMM
1000
0000
MMMM
0000
,
1010
0000
0010
0100
0001
0000
1000
0000
,
1100
0000
0010
0001
1000
0001
0010
0000
,
0101
0000
0010
1000
0001
0000
0100
0000
,
1200
0301
0021
1030
,
MMMM
0000
0010
1000
0100
0010
0100
0010
,
MMMM
1000
0001
0100
1000
0100
0010
1000
,
MMMM
0001
0010
0100
0010
1000
0001
0100
,
MMMM
0010
0001
0100
0010
1000
0001
0100
,
MMMM
0000
1000
0000
0100
1000
0100
0000
0000
0000
0110
0000
0000
0000
1001
0000
,
0000
0010
0010
0010
,
MMMM
1000
1001
0000
MMMM
0010
0110
0000
,
MMMM
0001
1001
0000
1100
0000
0101
0000
,
MMMM
0000
0000
0000
0001
0000
0100
0000
0010
0000
1000
0000
0100
0000
0010
0001
,
0010
0000
0100
0000
1000
0000
0001
1000
0001
0000
0100
0000
0010
0000
1000
0000
,
1100
0000
1000
0100
0001
0100
1000
0001
,
0101
MMMM
2002
3003
,
1100
0000
1000
0010
0100
0001
1000
0000
,
0001
0000
1000
0100
1000
0000
0001
0010
0001
0000
0100
0000
0010
0000
0000
0000
,
MMMM
0100
1010
0000
MMMM
0100
0011
0000
,
MMMM
0100
1001
0000
1010
0000
0011
0000
,
0100
0000
0010
1000
0010
0001
0010
0100
,
MMMM
0000
MMMM
0000
MMMM
0000
MMMM
1000
,
1100
0000
MMMM
0001
0101
0000
MMMM
0010
,
2000
3200
0302
0013
,
0100
0000
0000
0000
1001
0000
0000
0010
0001
0000
0001
0000
1000
0000
0100
0000
,
0000
0100
0000
0100
1000
0001
0010
0100
,
2000
0000
0010
0001
,
3200
0000
1000
0010
,
0302
0000
0100
1000
,
0023
0000
0100
0130
MMMM
0000
1000
0100
,
1100
MMMM
0101
MMMM
,
0110
0000
2002
0000
0000
0003
3001
0000
,
0100
0000
0001
1000
0001
0000
1000
0000
0000
0000
0010
0000
0000
0000
0001
0000
,
0000
1000
0100
0010
0002
0003
MMMM
0000
,
0001
0000
0000
0000
0010
0000
0100
1000
0010
0000
1000
0000
0100
0000
0010
0000
,
0001
0000
1000
0000
0001
0000
0100
0010
1000
0000
0100
0000
0010
0000
0001
0000
,
0100
0000
0000
0000
1000
0000
0001
0100
0010
0000
1000
0000
0010
0000
0100
0000
,
0000
1001
0001
1000
1010
0000
0101
0000
,
1001
0000
0000
0000
0010
0000
0010
1000
,
0001
0100
0000
0020
0030
MMMM
0000
0000
,
1001
0010
0100
1000
0100
0000
0010
0002
,
0000
1003
0000
0200
0300
MMMM
0100
MMMM
,
1010
0000
MMMM
0000
0000
0011
MMMM
1100
,
0000
0201
0010
1300
,
1000
0010
0001
1000
0100
0001
,
MMMM
0001
0010
0100
1100
0000
MMMM
0000
,
MMMM
1000
0010
0100
0101
0000
MMMM
0000
,
MMMM
0001
1000
0010
0110
0000
MMMM
0000
,
2020
3000
0031
0000
,
0000
0000
0000
0000
;
#NOTES:
     dance-double:
     :
     Easy:
     5:
     :
00000000
00000000
00000000
00000000
,
00000000
00000000
00000000
00000000
,
00000000
00000000
00000000
00000000
,
00000000
00000000
00000000
00000000
,
00000000
00000000
00000000
00000000
,
00000000
00000000
00000000
00000000
,
00000000
00000000
00000000
00000000
,
00000010
00000000
00000100
00000000
,
00001000
00010000
00001000
00000000
,
01000000
00000000
00100000
00000000
,
10000000
00000000
01000000
00000000
,
10000000
00000000
00100000
00000000
,
00010000
00000000
00000000
00000000
,
00000100
00000000
00000010
00000000
,
00000001
00000000
00000100
00000000
,
00000001
00000000
00000010
00000000
,
00000001
00001000
00001001
00000000
,
00000200
00000000
00000000
00000300
,
00000000
00000000
00001000
00010000
,
00000000
00000000
00000000
00000000
,
00100000
00000000
10000000
00010000
,
10000000
00000000
00000000
00000000
,
01000000
00000000
00000000
00000000
,
10010000
00000000
01100000
00000000
,
00010000
00001000
00010000
00000000
,
00000020
00000000
00000030
00000000
,
00000100
00000001
00000100
00001000
,
00020000
00000000
00030000
00000000
,
01000000
10000000
01000000
10000000
,
00000000
00100000
00000000
00100000
,
00000000
00001000
00000000
00001000
,
00000000
00010000
00000000
00010000
,
00000000
00000100
00000000
00000100
,
00000020
00000000
00000000
00000000
,
00000030
00000000
00000000
00000000
,
00000001
00001001
00000000
00001001
,
00000000
00001001
00000100
00000010
,
00000100
00000000
00001000
00010000
,
00001000
00000000
00000000
00000000
,
00200000
00000000
00000000
00300000
,
00000000
01000000
01100000
00000000
,
00010000
00000000
00010000
00000000
,
01000000
00100000
10000000
00000000
,
10000000
10010000
00000000
10010000
,
00000000
10010000
00100000
01000000
,
00100000
00000000
00001000
00010000
,
00001000
00000000
00000000
00000000
,
00010000
00000000
00001000
00000000
,
00000010
00000100
00000010
00000100
,
00000002
00000000
00000000
00000000
00000000
00000000
00000000
00000003
,
00000000
00000000
00000000
00000000
,
00000100
00000000
00000100
00000000
,
00001000
00000000
00001000
00000000
,
00010000
00000000
00010000
00000000
,
01000000
00000000
01000000
00000000
,
00000000
10010000
00000000
00100000
,
01000000
00020000
00000000
00030000
,
00022000
00000000
00000000
00000000
,
00033000
00001000
00010000
00000000
,
00000100
00000000
00000010
00000000
,
00000001
00001000
00000001
00000000
,
00000100
00000000
00000010
00000100
,
00000000
00001000
00010000
00000000
,
00001000
00000000
00100000
00000000
,
00010000
00000000
00000000
00000000
,
10000000
00000000
00010000
00000000
,
01000000
00000000
00000000
00000000
,
00011000
00010000
00000000
00000000
,
00011000
00001000
00000000
00000000
,
00000100
00000000
00000010
00000000
,
00000110
00000001
00001000
00000000
,
00000110
00001000
00010000
00000000
,
00011000
00001000
01000000
00000000
,
00100000
00000000
01000000
00000000
,
00000000
00000000
00000000
00000000
;
#NOTES:
     dance-double:
     :
     Medium:
     8:
     :
00000000
00000000
00000000
00000000
,
00000000
00000000
00000000
00000000
,
00000000
00000000
00000000
00000000
,
00000000
00000000
00000000
00000000
,
00000000
00000000
00000000
00000000
,
00000000
00000000
00000000
00000000
,
00000000
00000000
00000000
00000000
,
01010000
00000000
11000000
00000000
,
01000000
00010000
00011000
00000000
,
00100000
00001000
00010000
00000100
,
00000001
00000100
00001000
00000010
,
00000100
00000000
00000001
00000000
00001000
00000000
00000100
00001000
,
00000000
00000100
00010000
00000100
00010000
00000000
00000000
00000000
,
00001000
00100000
00010000
01000000
,
10000000
01000000
00100000
10000000
,
01000000
00000000
00100000
00000000
00001000
00000000
00010000
00001000
,
00000000
00010000
00000010
00010000
00000010
00000000
00000000
00000000
,
00001001
00000000
00000100
00000000
,
00001000
00000000
00010000
00000000
00000100
00000010
00000000
00000010
,
00000000
00000000
00001000
00000000
,
00010000
00000000
01000000
00000000
00100000
00010000
00000000
00010000
,
00000000
00000000
10000000
00000000
01000000
00100000
00000000
00100000
,
00000000
10000000
01000000
00100000
,
00020000
00000000
00032000
00000000
,
00003100
00010000
00001000
00010000
00001000
00000000
00000000
00000000
,
00001200
00000000
00000301
00000000
,
00000100
00001000
00000010
00000001
,
00000020
00000000
00001030
00000000
,
00010000
01000000
00010000
00100000
,
01000000
01000000
10000000
00100000
,
00010000
00001000
00000100
00000001
,
00000010
00000010
00000001
00000100
,
00001000
00010000
00100000
01000000
,
00010000
00000000
10000000
00010000
00000000
01000000
00000000
10010000
,
00000000
00000000
00000000
00000000
,
01000000
01100000
00100000
00101000
,
00001000
00011000
00000100
00001000
,
00000010
00000000
00001000
00000001
00000000
00000100
00000000
00000010
,
00000100
00000001
00000010
00001000
,
00000100
00000000
00000010
00000100
00000000
00001000
00000000
00010000
,
00001000
00011000
00022000
00033000
,
00100000
10000000
01000000
10000000
,
00100000
01000000
00010000
00000000
00202000
00000000
00303000
00000000
,
00010000
00011000
00001000
00001010
,
00000010
00000110
00000001
00001000
,
00000010
00000000
00000100
00001000
00000000
00010000
00000000
00001000
,
00000200
00000010
00000010
00000310
,
00001001
00000100
00001001
00000100
,
00001000
00010000
00001000
00100000
,
00011000
00000000
01000000
00000000
10000000
00000000
00010000
10000000
,
00000000
10000000
00000000
00000000
01000000
00000000
01000000
00000000
,
00200000
00000000
00001000
00000000
,
00320000
00000000
00000010
00000000
,
00032000
00000000
00000100
00000000
,
00003002
00000000
00001003
00000010
,
00000100
00000110
00000000
00000110
,
00001000
00020200
00000000
00030300
,
00000010
00000000
00001000
00000100
00000000
00010000
00000000
00001000
,
00000000
00100000
00001000
00100000
00001000
00000000
00000000
00000000
,
00010000
01000000
10000000
00010000
,
01000000
00000000
00100000
00000000
10000000
01000000
00010000
00000000
,
00001000
00000000
00100000
00000000
00001000
00000000
00010000
00000100
,
00000000
00001000
00000010
00001000
00000010
00000000
00000100
00000000
,
00001001
00000000
00000000
00000000
00000100
00000000
00000100
00000010
,
00000000
00000010
00000000
00000000
00000000
00000000
00000000
00000000
,
00011000
00000000
00001000
00000000
00000100
00000000
00000100
00001000
,
00000000
00010000
00000000
00000000
00000000
00000000
00000000
00000000
,
01100000
00000000
00000000
00000000
00000000
10000000
00000000
11000000
,
00000000
00010000
10000000
00010000
,
00200000
00000000
00320000
00000000
,
01030000
00100000
10000000
00100000
10000000
00000000
00000000
00000000
,
00000000
00001000
01000000
00001000
01000000
00000000
00000000
00000000
,
00000000
00000010
00010000
00000010
00010000
00000000
00001000
00000000
,
00022000
00033000
00000100
00000000
,
00000000
00000000
00000000
00000000
;
#NOTES:
     dance-double:
     :
     Hard:
     11:
     :
00000000
00000000
00000000
00000000
,
00000000
00000000
00000000
00000000
,
00000000
00000000
00000000
00000000
,
00000000
00000000
00000000
00000000
,
00000000
00000000
00000000
00000000
,
00000000
00000000
00000000
00000000
,
00000000
00000000
00000000
00000000
00000000
00000000
00000000
00000100
,
00001000
00000000
00000000
00010000
01000000
00000000
00000000
00001000
,
00000100
00010000
00001000
01000000
00010000
00000000
10010000
00000000
,
00100000
00000000
10000000
00100000
01000000
00000000
00100000
00010000
,
00000000
00001000
00000000
00010000
00001000
00000000
00000100
00000000
,
00000001
00000000
00000010
00000100
00001000
00000000
00000001
00001000
,
00000000
00000010
00000100
00000010
00000100
00000001
00000100
00000000
,
00000010
00000000
00001001
00000000
00000001
00000100
00000101
00000000
,
00000010
00001100
00000010
00010100
,
00001000
00000000
00101000
00000000
00010000
01000000
00010000
00100000
,
00000000
01000000
00100000
01000000
00100000
00000000
01100000
00000000
,
10010000
00000000
01000000
00000000
,
00010000
00000000
00000000
00000000
00000010
00000100
00000010
00000100
,
00000000
00000000
00000001
00000000
,
00000100
00000000
00000000
00000000
00001000
00010000
00100000
01000000
,
00000000
00000000
00100000
00000000
10000000
01000000
10000000
00100000
,
00000000
00000000
01000000
00000000
00010000
00100000
00010000
00000000
,
10000000
00100000
01000000
00010000
00100000
00001000
,
00010000
00000100
00000010
00000100
00000010
00000000
00000000
00000000
,
00001001
00000000
00000001
00000100
00000000
00000010
00000000
00001000
,
00000100
00000000
00000001
00000100
00001000
00000000
00000001
00000000
,
00000110
00000000
00000100
00001000
00000000
00010000
00001000
00000000
,
00021000
00000100
00001000
00130000
,
10000000
00010000
00001000
00010000
,
01000000
00000000
00100000
00000000
00010000
00001000
00000100
00000000
,
00000001
00001000
00010000
00001000
,
00000100
00000001
00000010
00001000
,
00000100
00000010
00001000
00010000
00000000
00100000
00000000
10010000
,
00000000
00000000
00000000
00000000
,
00101000
00011000
00010010
00011000
,
01001000
00011000
00010100
00011000
,
00000110
00000000
00000010
00001000
00000000
00000001
00000100
00000000
,
00000001
00000010
00001000
00000010
00000001
00000100
00001000
00000000
,
00010000
00000000
00100000
10000000
00000000
10000000
00010000
00100000
,
01000000
00100000
00202000
00303000
,
00010000
00000000
00010000
00001000
00000000
00001000
00000100
00000000
,
00000001
00000010
00000100
00000000
00001001
00000000
00000010
00000000
,
00011000
00010100
00011000
00101000
,
00011000
00010010
00011000
00101000
,
01100000
00000000
01000000
10000000
00000000
00010000
00100000
00000000
,
00020000
00000000
01000000
00000000
10000000
00000000
00130000
00010000
,
00001000
00000000
00001000
00010000
01000000
00000000
01000000
00010000
,
00001000
00000010
00000100
00000001
,
00001001
00000000
00000100
00000000
00000010
00001000
00000100
00010000
,
00000000
00001000
00000000
00010000
00000100
00000000
00000100
00001000
,
00000020
00000000
00000100
00000100
,
00002030
00000000
00010000
00010000
,
00203000
00000000
01000000
01000000
,
10300000
00000000
10000000
00010000
00000000
00000000
00100000
01000000
,
00010000
00011000
00000100
00011000
,
00100000
00022000
00003000
00030100
,
00001000
00000100
00000010
00000001
00000000
00001000
00000000
00000010
,
00000000
00010000
00001000
00000100
00000010
00000000
00001001
00000000
,
00000010
00000000
00000001
00000010
00000100
00000000
00000010
00001000
,
00000000
00010000
00000000
00001000
00010000
00000000
01000000
00000000
,
10000000
00000000
00100000
01000000
00010000
00000000
10000000
00010000
,
00000000
00100000
01000000
00100000
01000000
00000000
10010000
00000000
,
01100000
00000000
00000000
00000000
10000000
00000000
00000000
01000000
,
00000000
01000000
00000000
00020000
00000000
00130000
00000000
00000000
,
00001000
00000000
00001000
00000000
00000100
00000000
00000010
00000100
,
00000000
00000100
00000000
00000002
00000000
00001003
00000010
00000100
,
00000001
00000000
00000000
00000000
00000000
00000110
00000000
00011000
,
00000000
00010000
00001000
00000100
,
00000001
00000100
00000010
00001000
00000100
00010000
,
00001000
00010000
00001000
00000100
00000010
00000000
00000100
00000000
,
00000000
00001000
00010000
00100000
01000000
00000000
00010000
00000000
,
00000000
10000000
00100000
00010000
00001000
00000000
00011000
00000000
,
00010020
00000000
00000130
00000000
,
00000000
00000000
00000000
00000000
;
#NOTES:
     dance-double:
     :
     Challenge:
     13:
     :
00000000
00000000
00000000
00000000
,
00000000
00000000
00000000
00000000
,
00000000
00000000
00000000
00000000
,
00000000
00000000
00000000
00000000
,
00000000
00000000
00000000
00000000
,
00000000
00000000
00000000
00000000
,
00000000
00000000
00000000
00000000
,
MMMMMMMM
00000110
MMMMMMMM
00001001
,
MMMMMMMM
00000010
00000100
00001000
00010000
00000000
MMMMMMMM
00000000
,
00100000
00000000
00000000
00000000
00010000
00000000
10000000
00100000
10000000
00000000
01000000
00000000
00100000
00000000
00010000
00000000
,
00000000
00000000
00101000
00000000
00000000
00000000
00010000
00100000
00010000
00000000
01000000
00000000
00001000
00000000
00010000
00000000
,
00001000
00000000
00000000
00000000
00010000
00000000
00000010
00001000
00000010
00000000
00000100
00000000
00000001
00000000
00000020
00000000
,
00000000
00000130
00001000
00000010
00010000
00000100
00001000
00000010
,
00000100
00000000
MMMMMMMM
00000000
00100000
01000000
MMMMMMMM
00000000
,
00011000
00000000
MMMMMMMM
00000000
00000100
00000010
MMMMMMMM
00000000
,
00000101
00000000
MMMMMMMM
00000000
00000010
00000100
00001000
00010000
,
00000000
00001000
00010000
00001000
00010000
00000000
MMMMMMMM
00000000
,
01100000
00000000
10000000
00000000
,
01000000
00000000
00000000
00000000
00010000
MMMMMMMM
00001000
MMMMMMMM
,
00000000
00000010
00000100
00001000
,
00000001
00000000
00000100
00000000
00001000
MMMMMMMM
00010000
MMMMMMMM
,
00000000
00000000
00100000
00000000
01000000
00010000
10000000
MMMMMMMM
,
00000000
00010000
00001000
00010000
,
00000010
00001000
00010000
00100000
01000000
00010000
,
00001000
MMMMMMMM
00000100
MMMMMMMM
00000001
00000000
MMMMMMMM
00000000
,
00000011
00000000
00000010
00000001
00001000
00000000
00000001
00000000
,
00001001
00000000
00001000
00000001
00000100
00000010
00001000
00000000
,
00001100
00000000
00000100
00010000
00001000
00000000
00010000
00000000
,
00102000
01003000
00020100
00030010
,
MMMMMMMM
00000000
00010000
00001000
00100000
00010000
01000000
00001000
,
MMMMMMMM
00010000
01000000
00100000
10000000
00010000
00100000
01000000
,
MMMMMMMM
01000000
10000000
00100000
01000000
00010000
00100000
00001000
,
MMMMMMMM
00000100
00001000
00000010
00000100
00000001
00000010
00000100
,
MMMMMMMM
00000000
00001000
00000000
00010000
00001000
00010000
00000000
00000000
00000000
00011000
00000000
00000000
00000000
01100000
00000000
,
00000000
00100000
00100000
00100000
,
MMMMMMMM
01000000
01100000
00000000
MMMMMMMM
00000000
00011000
00000000
,
MMMMMMMM
00000010
00000110
00000000
MMMMMMMM
00000000
00011000
00000000
,
MMMMMMMM
00000000
00000000
00000000
00010000
00000000
00100000
00000000
01000000
00000000
10000000
00000000
00100000
00000000
01000000
00010000
,
01000000
00000000
00100000
00000000
10000000
00000000
00010000
01000000
00010000
00000000
00100000
00000000
00001000
00000000
00010000
00000000
,
00011000
00000000
00010000
00001000
00000010
00000001
00000100
00000010
,
00000110
MMMMMMMM
00002002
00003003
,
00001001
00000000
00001000
00000001
00000100
00000010
00001000
00000000
,
00000100
00000000
00010000
00000100
00010000
00000000
00001000
00010000
00001000
00000000
00100000
00000000
00010000
00000000
00000000
00000000
,
MMMMMMMM
01000000
11000000
00000000
MMMMMMMM
00100000
00101000
00000000
,
MMMMMMMM
00010000
00010100
00000000
00001010
00000000
00000101
00000000
,
00000010
00000000
00000001
00000010
00001000
00000010
00000001
00000100
,
MMMMMMMM
00000000
MMMMMMMM
00000000
MMMMMMMM
00000000
MMMMMMMM
00100000
,
01100000
00000000
MMMMMMMM
00001000
00011000
00000000
MMMMMMMM
00000010
,
00000002
00000203
00002300
00013000
,
00001000
00000000
00000000
00000000
00011000
00000000
00000000
00001000
01000000
00000000
00010000
00000000
00100000
00000000
01000000
00000000
,
00000000
01000000
00000000
01000000
10000000
00000000
10100000
01000000
,
00020000
00000000
01000000
10000000
,
00230000
00000000
01000000
00010000
,
00302000
00000000
00100000
00010000
,
00003200
00000000
00000310
00000100
MMMMMMMM
00000000
00000001
00000100
,
00000101
MMMMMMMM
00001100
MMMMMMMM
,
01010000
00000000
22000000
00000000
00000000
03000000
31000000
00000000
,
00100000
00000000
01000000
00100000
01000000
00000000
00100000
00000000
00000000
00000000
00001000
00000000
00000000
00000000
00010000
00000000
,
00000000
00001000
00010000
00001000
00000100
00000000
MMMMMMMM
00000000
,
00000010
00000000
00000000
00000000
00001000
00000000
00000001
00000010
00000001
00000000
00000100
00000000
00000010
00000000
00001000
00000000
,
00000100
00000000
00010000
00000000
00000010
00000000
00001000
00000010
00001000
00000000
00000100
00000000
00010000
00000000
00001000
00000000
,
00100000
00000000
00010000
00000000
01000000
00000000
00001000
00010000
00001000
00000000
00100000
00000000
00010000
00000000
01000000
00000000
,
00000000
00010000
00010000
10000000
10000000
00000000
10010000
00000000
,
01100000
00000000
00000000
00000000
00010000
00000000
00010000
00001000
,
00000100
00000001
00000000
00000020
00000030
MMMMMMMM
00000000
00000000
,
00000001
00000010
00001000
00010000
00001000
00000000
00000100
00002000
,
00000000
00013000
00000000
00200000
00300000
MMMMMMMM
01000000
MMMMMMMM
,
10010000
00000000
MMMMMMMM
00000000
00000000
01001000
MMMMMMMM
00010010
,
00000000
00001002
00000010
00000103
,
00000010
00001000
00010000
01000000
00100000
00010000
,
00001000
00010000
00001000
00010000
00011000
00000000
MMMMMMMM
00000000
,
MMMMMMMM
00010000
00100000
01000000
11000000
00000000
MMMMMMMM
00000000
,
MMMMMMMM
00001000
00000100
00000010
00000011
00000000
MMMMMMMM
00000000
,
00000201
00000000
00010300
00000000
,
00000000
00000000
00000000
00000000
;
