
//----- song id: ccch
#TITLE:Che Che Chelip~魔法のコトバ~;
#ARTIST:Chelip 【鳥取】;
#TITLETRANSLIT:Che Che Chelip ~mahou no kotoba~;
#ARTISTTRANSLIT:Chelip [Tottori];
#BANNER:Che Che Chelip ~mahou no kotoba~.png;
#BACKGROUND:Che Che Chelip ~mahou no kotoba~-bg.png;
#CDTITLE:./CDTitles/DDR (2014).png;
#MUSIC:Che Che Chelip ~mahou no kotoba~.ogg;
#SAMPLESTART:68.418;
#SAMPLELENGTH:15;
#BPMS:0=125,32=130;
#NOTES:
     dance-single:
     :
     Beginner:
     2:
     :
0000
0000
0000
0000
,
0000
0000
0000
0000
,
0000
0000
0000
0000
,
0000
0000
0000
0000
,
0000
0000
0000
0000
,
0000
0000
0000
0000
,
0000
0000
0000
0000
,
0010
0000
0010
0000
,
0010
0000
0010
0000
,
0001
0000
1000
0000
,
0001
0000
1000
0000
,
0100
0000
0100
0000
,
0001
0001
0001
0000
,
1000
0000
0001
0000
,
1000
0000
0001
0000
,
1000
0000
0001
0000
,
1001
0000
0000
0000
,
0010
0000
0010
0000
,
0001
0001
0001
0000
,
0010
0000
0010
0000
,
1000
1000
1000
0000
,
1000
0000
1000
0000
,
0001
0000
0000
0000
,
1000
0000
1000
0000
,
0100
0000
0000
0000
,
0001
0001
0001
0000
,
1000
1000
1000
0000
,
0001
0000
0001
0000
,
0100
0000
0100
0000
,
0001
0000
0000
0000
,
0100
0000
0000
0000
,
1000
0000
0000
0000
,
0010
0000
0000
0000
,
0010
0010
0010
0000
,
0100
0100
0100
0000
,
2000
3000
0002
0003
,
0000
0000
1001
0000
,
0001
0000
1000
0000
,
0001
0000
1000
0000
,
0100
0000
0100
0000
,
0001
0001
0001
0000
,
1000
0000
0001
0000
,
1000
0000
0001
0000
,
1000
0000
0001
0000
,
1001
0000
0000
0000
,
0010
0000
0010
0000
,
0001
0001
0001
0000
,
0010
0000
0010
0000
,
1000
1000
1000
0000
,
0100
0000
0000
0000
,
0001
0001
0001
0001
,
0000
0000
0000
0000
;
#NOTES:
     dance-single:
     :
     Easy:
     4:
     :
0000
0000
0000
0000
,
0000
0000
0000
0000
,
0000
0000
0000
0000
,
0000
0000
0000
0000
,
0000
0000
0000
0000
,
0000
0000
0000
0000
,
0000
0000
0000
0000
,
0010
1000
0010
0001
,
0010
0010
0010
0000
,
0001
0100
1000
0000
,
0001
0100
1000
0000
,
0100
0001
0100
1000
,
0100
0001
0100
0000
,
1000
0100
0001
0000
,
1000
0100
0001
0000
,
0010
1000
0100
0001
,
1001
0000
0000
0000
,
0010
0000
0010
0000
,
0010
1000
0010
0001
,
0010
0000
0010
0000
,
0010
0001
0010
0000
,
1000
0100
1000
0000
,
0001
0100
0001
0000
,
1000
0100
1000
1000
,
0100
0100
0100
0000
,
0001
0100
0001
0000
,
1000
0100
1000
0000
,
0001
0100
0001
0001
,
0100
0100
0100
0000
,
0002
0000
0000
1003
,
0200
0000
0000
0310
,
2000
0000
0000
3001
,
0200
0000
0000
0310
,
1000
0100
0100
0000
,
0001
0100
0100
0000
,
2000
3000
0002
0003
,
1000
1000
1000
0000
,
0001
0100
1000
0000
,
0001
0100
1000
0000
,
0100
0001
0100
1000
,
0100
0001
0100
0000
,
1000
0100
0001
0000
,
1000
0100
0001
0000
,
0010
1000
0100
0001
,
1001
0000
0000
0000
,
0010
0000
0010
0000
,
0010
1000
0010
0001
,
0010
0000
0010
0000
,
0010
0001
0010
0000
,
0100
0100
0100
0100
,
1000
1000
1000
0100
,
0000
0000
0000
0000
;
#NOTES:
     dance-single:
     :
     Medium:
     6:
     :
0000
0000
0000
0000
,
0000
0000
0000
0000
,
0000
0000
0000
0000
,
0000
0000
0000
0000
,
0000
0000
0000
0000
,
0000
0000
0000
0000
,
0000
0000
0000
0000
,
0010
1000
0010
0001
,
0010
0001
1001
0000
,
1000
0101
0001
1000
,
1000
0100
0001
0001
,
0001
1000
0100
0001
,
0100
0000
1000
0100
1000
0100
0100
0000
,
0001
1100
1000
0001
,
0001
0100
1000
1000
,
1000
0001
0100
1000
,
0100
0000
0001
0100
0001
0100
0100
0000
,
0001
1010
0001
1010
,
0010
1000
0100
0001
,
1000
0011
1000
0011
,
0010
0001
0100
1000
,
1000
0100
0001
0100
,
1000
0000
0100
0000
0001
1000
0100
0000
,
1000
0100
0001
0100
,
1000
0000
0100
0000
0001
1000
0100
0000
,
1000
0101
0001
1100
,
1000
0000
0100
0000
0001
1000
0100
0000
,
1000
0100
0001
0100
,
1000
0000
0100
0000
0001
1000
0100
0000
,
0200
1000
1000
2300
,
3020
0001
0001
0031
,
0200
0001
0001
0302
,
0023
1000
1000
1030
,
0110
0010
0100
0010
,
0001
0100
1000
0000
0100
0000
0010
0000
,
1000
0100
0001
0100
,
1000
0000
0001
1000
0001
0000
0000
0000
,
1000
0101
0001
1000
,
1000
0100
0001
0001
,
0001
1000
0100
0001
,
0100
0000
1000
0100
0010
0100
1000
0000
,
0001
1100
1000
0001
,
0001
0100
1000
1000
,
1000
0001
0100
1000
,
0100
0000
0010
0100
0010
0100
0010
0000
,
0001
1010
0001
1010
,
0010
1000
0100
0001
,
1000
0011
1000
0011
,
0010
0001
0100
1000
,
0100
0100
0100
0100
,
1000
0001
1000
0000
0001
0000
0100
0001
,
0000
0000
0000
0000
;
#NOTES:
     dance-single:
     :
     Hard:
     10:
     :
0000
0000
0000
0000
,
0000
0000
0000
0000
,
0000
0000
0000
0000
,
0000
0000
0000
0000
,
0000
0000
0000
0000
,
0000
0000
0000
0000
,
0000
0000
0000
0000
,
0010
1000
0010
0001
,
0010
1000
0110
0000
,
0001
0000
1000
0001
1000
0100
0010
0000
,
0001
0000
1000
0001
1000
0100
0010
0100
,
1000
0001
0100
0001
1000
0010
0100
0000
,
0001
0000
1000
0010
0100
0001
0100
0000
,
0001
0000
1000
0001
1000
0100
0010
0000
,
0001
0000
1000
0001
1000
0100
0010
0100
,
1000
0001
1000
0000
0010
0000
1000
0000
,
0100
0000
1000
0100
0010
0001
0010
0000
,
2001
3010
0200
1300
,
0100
0000
0100
0000
0100
1000
0100
1000
,
0002
0013
0200
0301
,
0100
0000
0100
0000
0100
0001
0100
0001
,
1000
0000
0001
0100
0010
0000
0100
0010
,
1000
0001
1000
0001
0000
0000
1000
0100
,
1000
0010
2000
0001
0000
0010
3000
0001
,
0100
0010
1000
0001
0000
1000
0100
1000
,
0002
0103
0020
0031
,
0010
0000
0010
0000
0010
0001
0010
0001
,
2000
3100
0020
1030
,
0010
0000
0010
0000
0010
1000
0010
1000
,
0200
1000
0001
1300
,
0010
0000
0001
0000
0100
0010
0100
0010
,
0200
0001
1000
0301
,
0010
0000
1000
0000
0100
0010
0100
0000
,
1000
0100
0001
0010
,
1000
0000
0100
0010
0100
0001
0010
0001
,
0010
0100
0001
0100
1000
0100
0010
0100
,
1000
0000
0101
1100
0101
0000
0000
0000
,
1000
0000
0001
1000
0001
0100
0010
0000
,
1000
0000
0001
1000
0001
0100
0010
0100
,
0001
1000
0100
1000
0001
0010
0100
0000
,
1000
0000
0001
0010
0100
1000
0100
0000
,
1000
0000
0001
1000
0001
0100
0010
0000
,
1000
0000
0001
1000
0001
0100
0010
0100
,
0001
1000
0001
0000
0010
0000
0001
0000
,
0100
0000
0001
0100
0010
1000
0010
0000
,
2001
3010
0200
1300
,
0100
0000
0100
0000
0100
1000
0100
1000
,
0002
0013
0200
0301
,
0100
0000
0100
0000
0100
0001
0100
0001
,
2000
0100
3100
0000
,
1000
0001
0010
0000
1000
0000
0100
0001
,
0000
0000
0000
0000
;
#NOTES:
     dance-double:
     :
     Easy:
     5:
     :
00000000
00000000
00000000
00000000
,
00000000
00000000
00000000
00000000
,
00000000
00000000
00000000
00000000
,
00000000
00000000
00000000
00000000
,
00000000
00000000
00000000
00000000
,
00000000
00000000
00000000
00000000
,
00000000
00000000
00000000
00000000
,
00001000
00010000
00001000
00010000
,
00001000
00001000
00001000
00000000
,
00010000
01000000
10000000
10000000
,
10000000
01000000
00010000
00001000
,
00000100
00000001
00000100
00001000
,
00000100
00000001
00000100
00001000
,
00010000
01000000
10000000
10000000
,
10000000
01000000
00010000
00001000
,
00000010
00000001
00000100
00000001
,
00001001
00000001
00000001
00000001
,
00000100
00001000
00010000
00100000
,
00100000
10000000
00100000
00010000
,
00001000
00000010
00000001
00000010
,
00001000
00000001
00000010
00001000
,
00010000
01000000
10000000
10000000
,
10000000
01000000
00011000
00000000
,
00001000
00000100
00000001
00000001
,
00000100
00000100
00001000
00001000
,
00010000
01000000
10000000
01000000
,
10000000
01000000
00010000
00010000
,
00001000
00000100
00001000
00001000
,
00000100
00000100
00000100
00000000
,
00020000
00001000
00001000
00031000
,
02000000
00100000
00100000
03100000
,
20000000
00010000
00010000
30010000
,
02000000
00010000
00010000
03010000
,
00000100
00000000
00000001
00000000
,
00000001
00000100
00001000
00000000
,
00010000
00000000
10000000
00000000
,
10000000
10000000
10000000
00000000
,
00010000
01000000
10000000
10000000
,
10000000
01000000
00010000
00001000
,
00000100
00000001
00000100
00001000
,
00000100
00000001
00000100
00001000
,
00010000
01000000
10000000
00010000
,
10000000
01000000
00010000
00001000
,
00000010
00000001
00000100
00000001
,
00001001
00000001
00000001
00000001
,
00000100
00001000
00010000
00100000
,
00100000
10000000
00100000
00010000
,
00001000
00000010
00000001
00000010
,
00001000
00000001
00000010
00001000
,
00010000
00010000
00010000
01000000
,
10000000
00000000
10000000
00000000
10000000
00000000
01000000
00010000
,
00000000
00000000
00000000
00000000
;
#NOTES:
     dance-double:
     :
     Medium:
     6:
     :
00000000
00000000
00000000
00000000
,
00000000
00000000
00000000
00000000
,
00000000
00000000
00000000
00000000
,
00000000
00000000
00000000
00000000
,
00000000
00000000
00000000
00000000
,
00000000
00000000
00000000
00000000
,
00000000
00000000
00000000
00000000
,
00000010
00001000
00000010
00000001
,
00000010
00000001
00001100
00000000
,
00010000
00110000
00010000
10000000
,
10000000
01000000
00010000
00010000
,
00001000
00001000
00000100
00000001
,
00000100
00000000
00001000
00000000
00000001
00000100
00001000
00000000
,
00010000
00110000
00010000
10000000
,
10000000
01000000
10000000
10000000
,
01000000
00010000
00001000
00000100
,
00000001
00000000
00000001
00000100
00000001
00000100
00001000
00000000
,
00010000
00110000
00010000
10100000
,
00100000
10000000
01000000
00010000
,
00001000
00001010
00001000
00000011
,
00000010
00000001
00000100
00001000
,
00010000
00001000
00010000
01000000
,
10000000
00000000
01000000
00000000
10000000
01000000
00010000
00000000
,
00001000
00000100
00000001
00000100
,
00001000
00000000
00000100
00000000
00000001
00000100
00001000
00000000
,
00010000
01010000
00010000
11000000
,
10000000
00000000
01000000
00000000
10000000
01000000
00010000
00000000
,
00001000
00000100
00000001
00000100
,
00001000
00000000
00000100
00000000
00000001
00000010
00001000
00000000
,
00021000
01000000
00001000
01030000
,
20000000
01000000
00100000
30100000
,
00120000
00001000
00100000
00031000
,
00000020
00000001
00000100
00000130
,
00000010
00000001
00000100
00000010
,
00001000
00010000
00001000
00000000
00010000
00000000
01000000
00000000
,
00100000
10000000
01000000
00100000
,
00001000
00000000
00010000
00001000
00010000
00000000
00000000
00000000
,
00000010
00000101
00000010
00001000
,
00000001
00000010
00001000
00010000
,
01000000
10000000
00100000
01000000
,
00010000
01000000
00100000
01000000
00010000
00000000
10000000
00000000
,
00010000
11000000
00100000
00010000
,
00001000
00000100
00000010
00000010
,
00000001
00000010
00001000
00010000
,
00100000
00000000
01000000
00100000
01000000
00100000
01000000
00000000
,
00010000
00110000
00010000
10100000
,
00100000
10000000
01000000
00010000
,
00001000
00001010
00001000
00000011
,
00000010
00000001
00000100
00001000
,
00000010
00000010
00000010
00000010
,
00010000
00001000
00010000
00000000
00001000
00000000
01000000
00010000
,
00000000
00000000
00000000
00000000
;
#NOTES:
     dance-double:
     :
     Hard:
     10:
     :
00000000
00000000
00000000
00000000
,
00000000
00000000
00000000
00000000
,
00000000
00000000
00000000
00000000
,
00000000
00000000
00000000
00000000
,
00000000
00000000
00000000
00000000
,
00000000
00000000
00000000
00000000
,
00000000
00000000
00000000
00000000
,
00000010
00000001
00000100
00001000
,
00010000
00100000
01100000
00000000
,
00010000
00000000
10000000
00000000
00010000
01000000
00100000
00000000
,
10000000
00000000
00010000
00000000
00010000
10000000
01000000
00010000
,
00001000
00000100
00000001
00001000
00000001
00000010
00000100
00000000
,
00001000
00000000
00000001
00000010
00000100
00010000
00001000
00000000
,
00010000
00000000
01000000
00000000
10000000
01000000
00100000
00000000
,
00010000
00000000
00010000
10000000
00010000
10000000
01000000
00010000
,
00001000
00000100
00000001
00000000
00000010
00000000
00001000
00000000
,
00000100
00000000
00001000
00000100
00000010
00000001
00000010
00000000
,
00000010
00001000
00010000
00000000
00001000
00010000
01100000
00000000
,
10000000
00000000
01000000
00000000
10000000
01000000
10000000
00000000
,
00100000
00010000
00001000
00000000
00010000
00001000
00000110
00000000
,
00000001
00000000
00000100
00000000
00000001
00000100
00001000
00000000
,
00010000
01000000
10000000
00000000
00100000
00000000
01000000
00100000
,
10000000
00010000
10000000
00010000
00000000
00000000
10000000
01000000
,
00010000
00001000
00020000
00000010
00000000
00000100
00030000
00001000
,
00000100
00000010
00000001
00001000
00000000
00000001
00000100
00000001
,
00000010
00001000
00010000
00000000
00001000
00010000
01100000
00000000
,
10000000
00000000
01000000
00000000
10000000
01000000
10000000
00000000
,
10000000
01000000
00010000
00000000
00001000
00000100
00000001
00000000
,
00000001
00000000
00000100
00000000
00001000
00000000
00010000
00001000
,
00010000
00000000
00000010
00000000
00010000
00001000
00010000
00000000
,
01000000
00000000
00010000
00000000
00001000
00000000
00000100
00001000
,
00000100
00000000
00000001
00000000
00000010
00000000
00001000
00010000
,
01000000
10000000
01000000
10000000
,
10000000
01000000
00010000
00001000
,
00000100
00000010
00000100
00000010
00000100
00010000
00000100
00000000
,
00000001
00000100
00001000
00000000
00010000
00100000
10000000
00000000
,
10000000
01000000
01001000
00000000
,
00001000
00000000
00010000
00000000
00001000
00000100
00000010
00000000
,
00001000
00000000
00000001
00000000
00001000
00000001
00000100
00001000
,
00010000
01000000
10000000
00010000
10000000
00100000
01000000
00000000
,
00010000
00000000
10000000
00100000
01000000
00001000
00010000
00000000
,
00001000
00000000
00000100
00000000
00000001
00000100
00000010
00000000
,
00001000
00000000
00001000
00000001
00001000
00000001
00000100
00001000
,
00010000
01000000
10000000
00000000
00100000
00000000
00010000
00000000
,
01000000
00000000
00010000
01000000
00100000
10000000
00100000
00000000
,
00100000
00010000
00001000
00000000
00010000
00001000
00000110
00000000
,
00000001
00000000
00000100
00000000
00000001
00000100
00000001
00000000
,
00000010
00001000
00010000
00000000
00001000
00010000
01100000
00000000
,
10000000
00000000
01000000
00000000
10000000
01000000
10000000
00000000
,
01000000
00010000
00001000
00000000
,
00010000
00001000
00000010
00000000
00000001
00000000
00000100
00010000
,
00000000
00000000
00000000
00000000
;
