
//----- song id: cive
#TITLE:CAPTIVE;
#ARTIST:フルーティー♡ 【北海道】;
#ARTISTTRANSLIT:Fruity♡ [Hokkaido];
#BANNER:CAPTIVE.png;
#BACKGROUND:CAPTIVE-bg.png;
#CDTITLE:./CDTitles/DDR (2014).png;
#MUSIC:CAPTIVE.ogg;
#SAMPLESTART:58.5;
#SAMPLELENGTH:15;
#BPMS:0=160;
#NOTES:
     dance-single:
     :
     Beginner:
     2:
     :
0000
0000
0000
0000
,
0000
0000
0000
0000
,
0000
0000
0000
0000
,
0001
0000
0001
0000
,
1000
0000
1000
0000
,
0100
0000
0100
0000
,
0100
0000
0000
0000
,
1000
0000
1000
0000
,
1000
0000
0000
0000
,
0100
0000
0100
0000
,
0001
0000
0001
0000
,
0100
0000
0000
0000
,
0000
0000
0000
0000
,
0010
0000
0000
0000
,
0100
0000
0000
0000
,
0010
0000
0010
0000
,
0010
0010
0000
0000
,
1000
0000
1000
0000
,
1000
1000
0000
0000
,
0001
0000
0000
0000
,
1000
0000
0100
0000
,
1000
0000
0000
0000
,
0000
0000
0000
0000
,
0010
0000
0010
0000
,
0010
0010
0000
0000
,
0001
0000
0001
0000
,
0001
0001
0000
0000
,
1000
0000
0000
0000
,
0001
0000
0100
0000
,
0001
0000
0000
0000
,
0000
0000
0000
0000
,
1000
0000
1000
0000
,
0100
0000
0100
0000
,
0010
0000
0010
0000
,
0010
0000
0000
0000
,
0001
0000
0001
0000
,
0100
0000
0100
0000
,
0010
0000
0010
0000
,
0010
0010
0010
0000
,
1000
0000
1000
0000
,
0001
0000
0001
0000
,
1000
0000
0001
0000
,
1000
0000
0000
0000
,
0001
0000
0001
0000
,
0010
0000
0010
0000
,
0100
0000
0100
0000
,
0100
0100
0100
0000
,
0001
0000
0001
0000
,
1000
0000
1000
0000
,
0001
0000
1000
0000
,
0001
0000
0000
0000
,
1000
0000
1000
0000
,
0010
0000
0010
0000
,
0100
0000
0100
0000
,
0100
0000
0010
0000
,
0100
0000
0000
0000
,
0000
0000
0000
0000
,
0001
0000
0001
0000
,
1000
0000
1000
0000
,
1001
0000
0000
0000
,
0000
0000
0000
0000
;
#NOTES:
     dance-single:
     :
     Easy:
     5:
     :
0000
0000
0000
0000
,
0000
0000
0000
0000
,
0000
0000
0000
0000
,
1000
0001
1000
0000
,
0001
1000
0001
0000
,
0100
0000
0100
0000
,
0010
0010
0010
0000
,
1000
0010
1000
0000
,
0001
0010
0001
0000
,
0100
0000
0010
0000
,
1000
0001
1000
0001
,
2002
0000
0000
0000
,
3003
0000
0000
0000
,
0100
0000
0100
0000
,
0100
0000
0000
0000
,
1000
0100
1000
0000
,
1000
1000
0100
0000
,
0001
0100
0001
0000
,
0001
0001
0100
0000
,
1000
0000
0001
0000
,
0010
0010
1000
0001
,
0200
0000
0000
0300
,
0100
0000
0000
0000
,
1000
0010
1000
0000
,
0010
1000
0001
0000
,
0001
0010
0001
0000
,
0010
0001
1000
0000
,
0001
1000
0001
0000
,
0100
0010
0100
0100
,
0020
0000
0000
0030
,
0010
0000
0000
0000
,
2000
0000
3001
0000
,
0002
0000
0103
0000
,
0200
0000
0310
0000
,
0020
0000
1030
0000
,
2000
0000
3100
0000
,
0002
0000
0103
0000
,
1001
0000
0110
0000
,
1000
0001
1001
0000
,
1000
1000
0001
0001
,
1000
0100
0010
0000
,
0001
0000
0010
0010
,
0020
0000
0000
0030
,
0001
0001
1000
1000
,
0001
1000
0001
0000
,
0010
0001
1000
0010
,
0100
0100
0110
0000
,
0001
1000
0001
1000
,
0001
0100
1000
0000
,
1000
0100
0001
1000
,
0002
0000
0000
0003
,
1000
1000
0001
0001
,
0100
0010
0100
0000
,
0001
0000
1000
0000
,
0001
0010
0100
1000
,
2002
0000
0000
0000
,
0000
0000
0000
3003
,
0100
0100
0001
1000
,
0010
0010
1000
0001
,
2002
0000
0000
0000
,
0000
0000
0000
0000
,
3003
0000
0000
0000
,
0000
0000
0000
0000
;
#NOTES:
     dance-single:
     :
     Medium:
     7:
     :
0000
0000
0000
0000
,
0000
0000
0000
0000
,
0000
0000
0000
0000
,
0001
0000
0000
1000
0000
0000
0001
0000
,
0000
1000
0000
0000
0001
0000
0000
0000
,
0010
0001
0010
0100
,
2000
0001
0001
3001
,
0010
0001
0100
0001
,
0010
0010
0010
0000
,
1001
0000
0101
0000
,
1100
0010
0001
1000
,
2002
0000
0000
0000
,
0000
0000
0000
3003
,
0010
1000
0100
0010
,
0001
0000
0000
0000
,
1001
0100
0001
0010
,
0100
0010
0100
0000
1000
0000
0000
0000
,
1000
0001
0100
0010
,
1000
0000
0001
0010
0001
0000
0000
0000
,
1100
0010
1000
0001
,
0101
1000
0100
0010
,
1002
0010
0010
0013
,
0101
0000
0000
0000
0010
0000
1000
1000
,
1000
0100
0010
0001
,
1000
0000
0010
1000
0100
0000
0000
0000
,
0010
1000
0001
1000
,
0100
0000
0010
0001
0100
0000
0000
0000
,
1010
0001
0100
0010
,
0011
1000
0100
0010
,
0002
0010
0010
0013
,
1010
0101
1010
0101
,
1000
0100
0000
0100
,
1000
0010
0100
0001
,
1000
0010
0000
0010
,
2000
0100
0010
3100
,
0001
0010
0000
0010
,
0001
0100
0010
1000
,
0101
0000
1100
0000
,
1000
0001
1000
0001
1000
0000
0000
0000
,
0011
0000
1000
0001
1000
0000
1010
0000
,
0001
1000
0001
0000
0100
0000
1000
0000
,
0010
0100
0001
0010
,
0200
0010
0010
0310
,
0001
1000
0100
0001
,
1000
0000
0010
0100
0010
0000
0001
0000
,
0100
0000
1000
0000
0001
0000
1000
0001
,
0000
1000
0001
1000
0001
1000
0001
0000
,
1001
0000
0100
0010
0100
0000
0110
0000
,
0001
1000
0001
0000
1000
0000
0001
0000
,
0100
1000
0010
0001
,
0020
0100
0100
0130
,
1000
0010
1000
0100
,
0010
0000
0001
1000
0001
0000
0100
0000
,
1100
0000
0101
0000
,
0010
1000
0100
0001
,
0020
0100
0000
0100
,
0000
0100
0000
0130
,
0001
0100
0010
1000
,
1001
1100
0011
0110
,
2002
0000
0000
0000
,
0000
0000
0000
0000
,
3003
0000
0000
0000
,
0000
0000
0000
0000
;
#NOTES:
     dance-single:
     :
     Hard:
     10:
     :
0000
0000
0000
0000
,
0000
0000
0000
0000
,
0000
0000
0000
0000
,
1000
0001
0000
0001
1000
0000
1000
0001
,
0000
0001
1000
0001
1000
0000
1001
0000
,
0010
0100
0001
0000
0010
0100
1000
0000
,
0001
0010
0001
0000
1000
0010
1000
0000
,
0010
1000
0100
1000
,
0001
0000
0100
0010
0100
0000
0001
0000
,
2100
3010
0102
0013
,
1100
1001
0011
0101
,
1002
0100
0100
0103
,
0010
0010
0010
0010
,
1000
1000
0001
0001
,
0110
0000
0000
0000
,
1000
1000
0100
0000
0010
0001
0001
0000
,
0100
0001
0010
0001
1000
0000
0001
0000
,
0100
0100
0001
0000
1000
0010
0010
0000
,
0010
1000
0001
1000
0010
0000
0100
0000
,
0001
0000
1000
0000
0100
0010
0100
0000
,
0011
0100
1010
0100
,
2001
0001
0001
3001
,
0001
1000
0100
0010
0001
0100
0010
1000
,
0001
0001
0100
0000
1000
1000
0100
0000
,
0001
1000
0010
0100
0001
0000
1000
0000
,
0100
0100
0010
0000
0001
1000
1000
0000
,
0001
0100
1000
0100
0010
0000
0100
0000
,
1001
0100
0010
0001
,
0101
0000
1100
0000
0001
0010
0100
0000
,
0120
1000
0001
1030
,
0011
0101
1100
1010
,
1002
0103
1100
0011
,
0201
0310
1010
0101
,
1000
0001
0100
0010
0100
0001
1000
0100
,
0010
0000
0001
0000
0100
0010
1000
0010
,
0100
0102
1003
2010
,
3001
0011
0110
1001
,
1100
1100
1100
0000
0101
0101
0101
0000
,
1000
1000
0001
0001
1001
0000
0000
0000
,
0010
1000
0010
0100
0001
0100
0010
1000
,
0010
0100
0001
0100
0010
1000
0100
0000
,
0001
0000
0100
0000
1000
0100
0010
0000
,
0001
1000
0001
1000
0001
1000
0001
1000
,
0001
0100
0010
1001
,
1000
0001
0010
0100
1000
0000
0010
0000
,
0100
0000
0010
0000
1000
0000
0001
1001
,
0000
0001
0100
1000
0100
0001
0100
0000
,
0010
0100
0010
1000
0001
1000
0100
0010
,
0100
1000
0001
1000
0010
0100
0010
0000
,
1000
0000
0001
0000
0010
0001
0100
0000
,
0100
0010
0100
0010
0100
0010
0100
0010
,
0100
0010
1000
0001
,
1000
0100
0001
0100
1000
0000
0010
1000
,
1100
0000
0010
0001
0101
0000
0010
0000
,
1000
0000
0000
0001
0000
0000
1000
0000
0100
0000
0010
0000
0001
0000
1000
0000
,
0001
0002
1000
0000
0100
0000
1000
0000
,
0010
1000
0100
1003
,
0010
0000
1001
0000
0100
0010
0100
0000
,
0110
0000
0000
0000
0100
0010
1000
0001
,
2002
0000
0000
0000
,
0000
0000
0000
0000
,
3003
0000
0000
0000
,
0000
0000
0000
0000
;
#NOTES:
     dance-double:
     :
     Easy:
     6:
     :
00000000
00000000
00000000
00000000
,
00000000
00000000
00000000
00000000
,
00000000
00000000
00000000
00000000
,
00001000
00001000
00100000
00100000
,
00010000
00010000
00000100
00000100
,
00000010
00000010
00000001
00001000
,
00000002
00000000
00000000
00000003
,
00000100
00000100
00010000
00010000
,
00001000
00001000
00100000
00100000
,
00010000
00000000
10000000
00000000
,
01000000
00100000
01000000
00100000
,
20020000
00000000
00000000
00000000
,
30030000
00000000
00000000
00000000
,
01000000
00000000
00100000
00000000
,
00001000
00000000
00010000
00000000
,
00001000
00000000
00000100
00000100
,
00000010
00000000
00001000
00000000
,
00000001
00000000
00000010
00000010
,
00001000
00000000
00000100
00000000
,
00001000
00001000
00010000
00010000
,
00001000
00010000
00001000
00000000
,
00022000
00000000
00000000
00000000
,
00033000
00000000
00000000
00000000
,
00100000
00000000
00010000
00010000
,
10000000
00000000
01000000
00000000
,
10000000
00000000
00100000
00100000
,
00010000
00000000
01000000
00000000
,
00010000
00010000
00001000
00001000
,
00010000
00001000
00010000
00000000
,
00022000
00000000
00000000
00000000
,
00033000
00000000
00000000
00000000
,
00000100
00000100
00000010
00000010
,
00001000
00001000
00000001
00000001
,
00000100
00000100
00001000
00010000
,
00002000
00000000
00000000
00003000
,
01000000
01000000
00010000
00010000
,
00100000
00100000
01000000
01000000
,
01100000
00000000
10010000
00000000
,
01100000
01100000
01100000
00000000
,
00010000
00010000
00001000
00001000
,
00010000
00001000
00010000
00000000
,
00000100
00001000
00000100
00000010
,
00000002
00001000
00000000
00001003
,
00000010
00000010
00000100
00000100
,
00000001
00000010
00000100
00000000
,
00001000
00001000
00001000
00001000
,
00000001
00000010
00001000
00000000
,
00010000
00010000
00001000
00001000
,
00010000
00001000
00010000
00000000
,
00100000
10000000
00010000
00100000
,
02000000
00100000
00000000
03100000
,
10000000
10000000
00010000
00010000
,
10000000
00010000
01000000
00000000
,
10010000
00000000
01100000
00000000
,
10000000
10000000
01000000
00010000
,
00002000
00010000
00000000
00010000
,
00000000
00010000
00000000
00013000
,
00000100
00000100
00000010
00000010
,
00000001
00000100
00000010
00001000
,
00002002
00000000
00000000
00000000
,
00000000
00000000
00000000
00000000
,
00003003
00000000
00000000
00000000
,
00000000
00000000
00000000
00000000
;
#NOTES:
     dance-double:
     :
     Medium:
     8:
     :
00000000
00000000
00000000
00000000
,
00000000
00000000
00000000
00000000
,
00000000
00000000
00000000
00000000
,
01010000
00000000
00000000
00011000
00000000
00000000
01001000
00000000
,
00000000
00011000
00000000
00001000
00010000
00000000
00001000
00000000
,
01000000
10000000
01000000
00010000
,
10000000
00100000
00010000
00011000
,
00001000
00000100
00000001
00000100
,
00000010
00000000
00000010
00000100
00000010
00000000
00000010
00000000
,
00001000
00001010
00000001
00000011
,
00001000
00000000
00000010
00000000
00010000
00001000
00010000
00000000
,
02000000
00000000
00000000
00000000
,
00000000
00000000
00000000
03000000
,
10000000
10000000
00010000
00010000
,
10010000
00000000
00000000
00000000
,
10000000
10000000
00100000
10000000
,
00010000
00010000
00001000
00010000
,
00001000
00001000
00000100
00001000
,
00000001
00000000
00000001
00000000
00001000
00000000
00000001
00001000
,
00000001
00000100
00001000
00010000
,
01000000
00100000
01100000
01100000
,
01020000
10000000
00100000
00031000
,
00011000
00000000
00000000
00000000
,
00001001
00000010
00000001
00000001
,
00001000
00001000
00010000
00001000
,
00011000
00010000
00100000
00010000
,
10000000
00000000
01000000
00000000
10000000
00000000
10000000
00010000
,
10000000
00100000
00010000
00001000
,
00000100
00000010
00000110
00001001
,
00002100
00000001
00000010
00013000
,
00011000
00001010
00001001
00001100
,
00000110
00000002
00000100
00000010
,
00000203
00001000
00000010
00001300
,
02000000
00010000
00001000
00010000
,
03200000
10000000
00010000
10300000
,
02000000
00100000
00010000
03001000
,
00000200
00000010
00001000
00010300
,
00101000
00000000
00010010
00000000
,
00001000
00010000
00001000
00010000
00001000
00000000
00000000
00000000
,
00010000
00100000
00000000
00100000
10000000
00000000
00010000
00100000
,
00000000
00100000
10000000
00000000
00100000
00000000
00010000
00000000
,
01000000
00010000
00001000
00000100
,
00000101
00001001
00000011
00001001
,
00000100
00000100
00001000
00010000
,
00001000
00010000
00001000
00010000
00001000
00000000
00100000
00000000
,
00010000
00000000
01000000
00000000
00100000
00000000
10000000
00010000
,
00000000
11000000
00110000
11000000
,
01000000
00010000
00000000
00010000
00001000
00000000
00100000
00010000
,
00000000
00010000
00001000
00000000
00010000
00000000
00001000
00000000
,
00000010
00000100
00001000
00000001
,
00000101
00001100
00000101
00001100
,
00000010
00001000
00000001
00000100
,
00001000
00000000
00010000
00000000
00001000
00000000
00100000
00010000
,
00100000
00000000
00001000
00010000
00001000
00000000
00100000
00000000
,
00010000
01000000
10000000
00100000
,
00020000
00000000
00000000
00000000
,
00032000
00000100
00000001
00000010
,
00023000
01000000
10000000
00100000
,
00031000
00001000
00000100
00000010
,
00000220
00000000
00000000
00000000
,
00000000
00000000
00000000
00000000
,
00000330
00000000
00000000
00000000
,
00000000
00000000
00000000
00000000
;
#NOTES:
     dance-double:
     :
     Hard:
     11:
     :
00000000
00000000
00000000
00000000
,
00000000
00000000
00000000
00000000
,
00000000
00000000
00000000
00000000
,
00000010
00001000
00000000
00000100
00010000
00000000
00001000
00100000
,
00000000
00010000
01000000
00100000
10000000
00000000
01000000
00000000
,
00100000
00010000
01000000
00000000
00100000
10000000
01000000
00000000
,
00010000
00001000
00010000
00001000
00010000
00001000
00010000
00001000
,
00000100
00000001
00000010
00001000
,
00000001
00000000
00000100
00001000
00000100
00000000
00010000
00000000
,
00011000
00000010
00011000
00100000
,
00011000
00110000
10010000
01010000
,
00021000
00001000
00001000
00001000
,
01000000
01000000
01000000
01030000
,
00001000
00001000
00000100
00000100
,
00001001
00000000
00000000
00000000
,
00000100
00000000
00000001
00000000
00001000
00000100
00001000
00000000
,
00000001
00000010
00000100
00001000
00000010
00000000
00000100
00000000
,
00001000
00000000
00010000
00000000
00001000
00000010
00001000
00000000
,
00010000
01000000
00100000
01000000
00010000
00000000
01000000
00000000
,
10000000
00000000
01100000
00000000
00010000
00001000
00000100
00000000
,
00000010
00000000
00001001
00000000
00000010
00001000
00000100
00000010
,
00002000
00000010
00010000
01003000
,
00001000
00010000
00001000
00100000
00010000
01000000
00100000
10000000
,
01000000
00000000
10000000
00000000
00010000
01000000
00010000
00000000
,
10000000
00100000
01000000
00010000
00100000
00000000
01000000
00000000
,
00010000
00000000
00001000
00000000
00010000
00001000
00100000
00000000
,
00001000
00010000
00000010
00001000
00000100
00000000
00000010
00000000
,
00000001
00000000
00000101
00000000
00000010
00001000
00010000
00000000
,
00100000
00000000
10010000
00000000
00100000
00010000
01000000
00100000
,
00020000
00100000
00001000
00030100
,
00001100
00000011
00000101
00001010
,
00020100
00000000
00031000
00000000
00100000
00001000
01000000
00000000
,
10200000
00000000
01300000
00000000
00010000
10000000
00100000
00000000
,
01000000
00010000
01000000
00001000
01000000
00010000
00100000
00001000
,
00010000
00000000
00010000
00000000
00001000
00000100
00000001
00000100
,
00000010
00001000
00000010
00000100
,
00000011
00000110
00001100
00011000
,
00001000
01000000
00001000
01000000
00001000
00000000
00000000
00000000
00010000
00000100
00010000
00000100
00010000
00000000
00000000
00000000
,
00001000
01000000
00001000
00100000
10000000
00000000
00000000
00000000
,
00100000
00010000
00100000
01000000
10000000
01000000
00010000
00001000
,
00010000
01000000
00100000
01000000
00010000
00001000
00010000
00000000
,
00001000
00000000
00000010
00000000
00000001
00000100
00001000
00000000
,
00010000
00001000
00000100
00000001
00000010
00000001
00000100
00001000
,
00010000
01100000
10000000
01000000
,
00100000
00010000
10000000
00100000
01000000
00000000
00100000
00000000
,
00010000
00000000
00001000
00000000
00011000
00000000
00000100
00000001
,
00000000
00000010
00000001
00000010
00001000
00000010
00000001
00000000
,
00000010
00000001
00000010
00000100
00001000
00000100
00010000
00000010
,
00010000
00000100
00001000
00000100
00010000
00001000
00010000
00000000
,
00001000
00000000
01000000
00000000
00100000
10000000
01000000
00000000
,
01000000
10000000
00100000
00010000
00001000
00010000
01000000
10000000
,
00010000
00100000
00001000
00000100
,
00000010
00000000
00001000
00000001
00001000
00000000
00001000
00000001
,
00000011
00000000
00000001
00001000
00001010
00000000
00000100
00000000
,
00001000
00000000
00000000
00010000
00000000
00000000
00001000
00000000
00100000
00000000
00010000
00000000
01000000
00000000
00100000
00000000
,
10000000
02000000
00100000
00000000
00010000
00000000
00100000
00000000
,
03020000
00001000
01000000
00001000
,
00030020
00001000
00000100
00001030
,
00001001
00000000
00000001
00001000
00000000
00000001
00001000
00000000
00000010
00000000
00000100
00000000
00001000
00000000
00010000
00000000
,
00022000
00000000
00000000
00000000
,
00000000
00000000
00000000
00000000
,
00033000
00000000
00000000
00000000
,
00000000
00000000
00000000
00000000
;
