
//----- song id: bbme
#TITLE:Boom! Boom! Miracle Emotion;
#ARTIST:ひろしま MAPLE★S 【広島】;
#ARTISTTRANSLIT:Hiroshima MAPLE★S [Hiroshima];
#BANNER:Boom! Boom! Miracle Emotion.png;
#BACKGROUND:Boom! Boom! Miracle Emotion-bg.png;
#CDTITLE:./CDTitles/DDR (2014).png;
#MUSIC:Boom! Boom! Miracle Emotion.ogg;
#SAMPLESTART:69.995;
#SAMPLELENGTH:15;
#BPMS:0=156;
#NOTES:
     dance-single:
     :
     Beginner:
     2:
     :
0000
0000
0000
0000
,
0000
0000
0000
0000
,
0000
0000
0000
0000
,
0000
0000
0000
0000
,
0000
0000
0000
0000
,
0010
0000
0010
0000
,
0010
0000
0000
0000
,
0100
0000
0100
0000
,
0100
0000
0000
0000
,
1001
0000
0000
0000
,
0000
0000
0000
0000
,
0010
0000
0010
0000
,
0001
0000
0000
0000
,
1000
0000
0000
0000
,
1000
0000
1000
0000
,
0010
0000
0000
0000
,
0010
0000
0000
0000
,
0001
0000
0001
0000
,
0001
0000
0000
0000
,
1000
0000
1000
0000
,
1000
0000
0000
0000
,
0001
0000
0000
0000
,
0010
0000
0001
0000
,
0010
0000
0000
0000
,
0010
0000
0000
0000
,
1000
0000
0000
0000
,
1000
0000
1000
0000
,
0100
0000
0000
0000
,
0000
0000
0000
0000
,
0010
0000
0000
0000
,
0100
0000
0000
0000
,
0010
0000
0010
0000
,
0100
0000
0000
0000
,
1000
1000
0000
0000
,
1000
1000
0000
0000
,
1001
0000
0000
0000
,
0000
0000
0000
0000
,
0020
0000
0030
0000
,
0010
0000
0000
0000
,
0200
0000
0300
0000
,
0100
0000
0000
0000
,
0001
0001
0000
0000
,
0001
0001
0000
0000
,
1000
1000
0000
0000
,
1000
0000
0000
0000
,
0000
0000
0000
0000
,
1001
1001
0000
0000
,
0001
0000
0001
0000
,
0010
0000
0000
0000
,
1000
0000
1000
0000
,
1001
1001
0000
0000
,
0001
0000
0001
0000
,
1000
0000
0000
0000
,
0100
0000
0000
0000
,
0002
0000
0003
0000
,
0001
0000
0000
0000
,
0010
0000
0000
0000
,
1000
0000
1000
0000
,
2000
0000
3000
0000
,
1000
0000
0000
0000
,
0001
0000
0000
0000
,
0010
0000
0010
0010
,
0000
0000
0000
0000
;
#NOTES:
     dance-single:
     :
     Easy:
     5:
     :
0000
0000
0000
0000
,
0000
0000
0000
0000
,
0000
0000
0000
0000
,
0000
0000
0000
0000
,
0000
0000
0000
0000
,
0001
1000
0000
0001
,
0000
0010
0000
0001
,
0100
1000
0000
0100
,
0000
1000
0001
1000
,
1001
0000
0000
0010
,
0010
0000
0100
0000
,
0010
0000
0001
0000
,
0010
0001
0100
1000
,
0001
0000
0001
0001
,
1000
1000
0100
0100
,
0010
0000
0000
0000
,
0010
0100
0010
0000
,
0001
0100
0001
1000
,
0001
0100
0001
0000
,
1000
0100
1000
0001
,
0100
0000
0100
0001
,
1000
0000
0000
0010
,
0100
0000
0001
0000
,
0010
0001
0010
0001
,
0010
0000
0000
1000
,
0001
0000
0000
0010
,
0100
0000
1000
0000
,
0010
1000
0010
0000
,
0010
1000
0001
0000
,
0010
0000
0000
0100
,
0010
0000
0100
0000
,
1000
0000
0001
0000
,
0100
0010
0001
0000
,
1000
0010
0000
0000
,
0001
0010
0000
1000
,
1001
0000
0000
0000
,
0000
1000
0100
0010
,
0002
0000
0103
0000
,
2000
0000
3100
0000
,
0002
0000
0103
0000
,
2000
0000
3100
0100
,
1000
0000
0010
0010
,
0100
0000
0001
1000
,
0000
0001
1000
0100
,
0001
0001
0200
0000
,
0300
0000
0000
0000
,
0010
1001
0000
0010
,
0001
1000
0001
0001
,
0100
0000
0010
0000
,
1000
0001
1001
0000
,
0100
0001
1000
0100
,
1000
0001
1000
0000
,
1000
1000
0010
0000
,
0001
0001
0010
0100
,
2000
0000
3100
0000
,
0010
1001
0000
0000
,
0100
1001
0000
0000
,
0010
0100
0010
0100
,
0002
0000
0013
0000
,
0100
1001
0000
0000
,
0010
1001
0000
0000
,
0001
1000
0010
0100
,
0110
0000
0000
0000
,
0000
0000
0000
0000
;
#NOTES:
     dance-single:
     :
     Medium:
     9:
     :
0000
0000
0000
0000
,
0000
0000
0000
0000
,
0000
0000
0000
0000
,
0000
0000
0000
0000
,
0000
0000
0000
0000
,
1000
0000
0001
0000
1000
0010
0000
1000
,
0010
0000
1000
0000
0001
0100
0000
1000
,
0100
0000
1000
0000
0001
0010
0000
0100
,
0001
0000
1000
0100
0010
0100
1000
0000
,
1001
0000
0100
0010
0000
0010
0000
0001
,
0000
0010
0001
0100
0000
0000
0001
0000
,
0110
0000
0000
1000
0001
0000
0000
0000
,
0010
1000
0010
1000
0001
0100
0001
0000
,
0010
0000
0010
0000
0100
1000
0010
0100
,
0000
1001
0000
0010
0000
1001
0000
0100
,
0010
0000
0100
0000
0001
0100
0001
0000
,
1000
0000
0100
0000
0010
0001
0100
0000
,
0001
0000
0101
0000
1000
0001
0000
1000
,
0010
0000
0010
0000
0001
0100
0000
0001
,
1000
0000
1100
0000
0001
1000
0000
0010
,
1000
0100
0000
0010
0000
0100
0000
1000
,
0001
0000
0000
0000
0100
0100
0010
0000
,
0100
0001
0100
0001
,
0010
0001
0100
0000
0010
0000
1000
0000
,
0010
0000
0000
0000
0010
1000
0000
0100
,
0010
0000
0000
0000
0010
0010
0100
0000
,
1000
0100
1000
0100
,
0010
0100
1000
0000
0010
0000
0001
0000
,
0010
0000
1000
0000
0001
0010
0000
0001
,
0010
0100
0000
1000
,
0010
1000
0010
0000
0010
0000
0100
0000
,
0001
0100
0000
0100
,
0001
0010
0001
0000
0001
0010
0000
0100
,
1000
0100
0010
0000
0001
0000
1000
0000
,
0001
0100
0010
0000
0100
0010
1000
0010
,
0100
0001
0000
0001
,
0020
0100
0130
0010
,
0001
0000
0000
0001
0100
0000
0000
0000
,
1000
0000
0000
1000
0100
0000
0000
0000
,
0001
0000
0000
0001
0100
0000
0000
0000
,
1000
0010
0100
0001
,
1000
0100
1000
0000
0010
0000
0010
0000
,
0001
0100
0001
0000
0010
0000
0010
0100
,
0000
1000
0001
0000
1000
0100
0000
0001
,
0000
1000
0001
0100
0010
0100
0010
0100
,
0001
0000
0000
0000
,
0110
0000
1001
0000
0010
0001
1000
0000
,
0010
1000
0001
0000
0010
0000
1000
0100
,
0010
0000
0001
0000
1000
0000
0010
1000
,
0000
0001
0100
0000
0010
0000
0100
0000
,
1001
0000
0110
0000
0001
0100
0001
0000
,
0010
1000
0010
0000
0100
0000
0001
0000
,
0010
0000
0100
1000
0010
0000
0100
0001
,
0010
0000
0100
1000
0010
0000
0100
0000
,
0002
0103
2000
3100
,
0011
0000
1100
0000
0001
0010
0001
0000
,
0011
0000
1100
0000
0001
0100
0010
1000
,
0100
0000
0001
0100
1000
0000
0010
0000
,
2000
3100
0002
0103
,
1010
0000
0101
0000
1000
0010
1000
0000
,
1010
0000
0101
0000
1000
0100
0010
0001
,
1000
0000
1001
0000
0010
0100
0000
1000
,
0000
0000
0000
0000
;
#NOTES:
     dance-single:
     :
     Hard:
     12:
     :
0000
0000
0000
0000
,
0000
0000
0000
0000
,
0000
0000
0000
0000
,
0000
0000
0000
0000
,
0000
0000
0000
0000
,
1000
0000
0000
0000
0010
0000
0000
0100
0010
0000
1000
0000
0000
0000
0001
0000
,
1000
0000
0010
0000
0001
1000
0100
1000
,
0001
0000
0000
0000
0100
0000
0000
1000
0100
0000
1000
0000
0000
0000
1000
0000
,
0010
0100
0010
0000
0100
0000
0001
0000
1000
0000
0010
0000
0101
0000
0000
0000
,
0010
0000
0100
1000
0000
0001
0010
1000
,
0000
0001
0100
1000
0000
1000
0000
1000
,
0010
0000
0000
0100
0001
0000
0000
1000
,
0010
0001
0010
1000
0100
0001
0100
1000
,
0100
0000
0011
0000
0100
0010
1000
0010
,
0100
0101
0000
1100
0000
0011
0000
0100
,
0010
0001
0100
0000
1000
0010
0100
0000
,
0001
0000
1100
0000
0001
0010
0110
0000
,
0010
0000
0000
0000
0001
0000
0000
0100
0001
0000
0010
0000
0000
0000
0010
0000
,
0001
0000
1100
0000
0100
0001
0000
0001
,
1000
0000
0000
0000
0100
0000
0000
1000
0100
0000
1000
0000
0000
0000
1000
0000
,
0010
0100
0001
0010
0100
1000
0001
0100
,
0010
0000
0001
0000
0010
0001
1000
0001
,
0010
0100
1000
0001
,
0010
0001
0010
0000
0100
1000
0100
0000
,
0010
0000
0000
0000
0001
0000
0000
1000
0100
0000
1000
0000
0000
0000
0001
0000
,
0100
0000
0100
0000
0010
1000
0100
1000
,
0001
0000
0001
0000
1000
0000
1000
0001
,
0100
1000
0100
0000
0001
0010
0001
0000
,
0100
0000
0100
0000
0001
0010
0000
0100
,
0010
1001
0010
0110
,
0001
0000
0000
0000
0100
0000
0000
0001
1000
0000
0001
0000
0100
0000
0000
0000
,
0001
0110
1000
1001
,
0010
0000
0000
0000
0100
0000
0000
1000
0001
0000
0100
0000
0001
0000
0001
0000
,
1000
0000
1000
0000
0100
0001
0100
0000
,
1000
0000
0000
0000
1000
0000
0000
0001
0100
0000
0010
0000
0100
0000
0010
0000
,
1000
0101
0010
0001
,
0200
1000
0010
0301
,
0010
0000
0000
0001
0100
0000
0000
0000
,
1000
0100
0000
0001
0100
0000
0000
0010
,
0010
0000
0000
1000
0100
0000
0000
0001
,
0100
0000
0000
0001
2000
0000
0000
0000
0100
0000
0000
0000
3100
0000
0000
0000
,
0001
1000
0001
0000
0100
0000
0010
0000
,
1000
0001
1000
0000
0100
0000
0010
0110
,
0000
1001
1001
0000
0100
1000
0001
0100
,
0000
0000
0010
0000
0100
0010
0100
0000
0001
0000
0010
0000
0100
0000
1000
0000
,
0100
0000
0000
0010
0000
0000
0100
0000
0010
0000
0000
0000
0000
0000
0000
0000
,
1001
0000
1001
0000
0010
0001
0100
1000
,
0001
0010
0100
0000
1001
0000
1100
0000
,
0010
0001
0010
0000
0100
1000
0010
1000
,
0000
0100
1000
0010
1010
0000
0100
0001
,
0010
0001
1000
0000
0100
1000
0001
0000
,
1010
0000
1100
0000
0101
0000
0011
0001
,
0100
0001
0010
0100
1000
0010
0100
0001
,
0010
0100
1000
0010
0100
0001
0010
0000
,
0002
0000
0100
0000
0010
0000
0103
0010
,
0000
0100
1000
0100
0001
1000
0010
1000
,
0000
0100
1000
0100
0001
1000
0010
1000
,
0000
0100
0001
0100
1100
0000
0101
0000
,
2010
0000
0100
0000
0010
0000
3100
0010
,
0000
0100
0001
0100
1000
0001
0010
0001
,
0000
0100
0001
0100
1000
0001
0010
0100
,
0000
0000
0001
0000
1000
0100
1000
0000
0010
0000
1001
0000
0000
0000
0110
0000
,
0000
0000
0000
0000
;
#NOTES:
     dance-double:
     :
     Easy:
     5:
     :
00000000
00000000
00000000
00000000
,
00000000
00000000
00000000
00000000
,
00000000
00000000
00000000
00000000
,
00000000
00000000
00000000
00000000
,
00000000
00000000
00000000
00000000
,
00000001
00001000
00000000
00000001
,
00000000
00000010
00000000
00001000
,
00010000
00001000
00000000
01000000
,
00000000
00100000
00010000
00001000
,
00011000
00000000
00000000
00000010
,
00000100
00000000
00001000
00000000
,
00000001
00000000
00000100
00000000
,
00001000
00010000
01000000
10000000
,
00100000
00000000
00010000
00010000
,
00001000
00001000
00010000
01000000
,
00100000
00000000
00000000
00000000
,
00001000
00010000
00001000
00000000
,
00100000
00001000
00010000
00001000
,
00100000
00001000
00000000
00010000
,
00000010
00010000
00001000
00010000
,
00000010
00000000
00000100
00000001
,
00000010
00000000
00000000
00001000
,
00010000
00000000
00001000
00000000
,
00100000
00010000
00100000
00001000
,
00010000
00000000
00000000
01000000
,
10000000
00000000
00000000
00100000
,
00010000
00000000
00001000
00000000
,
00000010
00000001
00000010
00000000
,
00000100
00001000
00000100
00000000
,
00000010
00000000
00000000
00001000
,
00010000
00000000
00001000
00000000
,
01000000
00000000
00100000
00000000
,
01000000
00100000
00010000
00000000
,
00001000
00100000
00000000
00100000
,
00010000
00000010
00000000
00010000
,
00011000
00000000
00000000
00000000
,
00000000
00010000
00001000
00000100
,
00000002
00000000
00000013
00000000
,
00002000
00000000
00013000
00000000
,
00200000
00000000
10300000
00000000
,
02000000
00000000
03010000
00010000
,
00001000
00000000
00100000
00001000
,
00010000
00000000
00000100
00010000
,
00000000
00001000
00010000
00000010
,
00001000
00000001
00000000
00000000
,
00000000
00000000
00000000
00000000
,
00001000
00011000
00010000
00001000
,
00010000
01000000
10000000
00100000
,
00010000
00000000
00001000
00000000
,
00000010
00001000
00011000
00000000
,
00001000
00010000
00001000
00010000
,
00001000
00000100
00000001
00000000
,
00000010
00001000
00010000
00000000
,
00001000
00010000
00001000
01000000
,
00200000
00000000
00300000
00000000
,
00010000
00011000
00000000
00000100
,
00000010
00011000
00000000
00000000
,
00100000
01000000
10000000
01000000
,
00020000
00000000
00030000
00000000
,
00001000
00011000
00000000
01000000
,
00100000
00011000
00000000
00000000
,
00000100
00000000
00000001
00000000
00000010
00000100
00000000
00001000
,
00000000
00000000
00000000
00000000
;
#NOTES:
     dance-double:
     :
     Medium:
     10:
     :
00000000
00000000
00000000
00000000
,
00000000
00000000
00000000
00000000
,
00000000
00000000
00000000
00000000
,
00000000
00000000
00000000
00000000
,
00000000
00000000
00000000
00000000
,
00001000
00000000
00010000
00000000
01000000
00010000
00000000
00001000
,
00010000
00000000
00001000
00000000
00000100
00000001
00000000
00000010
,
00001000
00000000
00010000
00000000
00100000
00010000
00000000
00001000
,
00010000
00000000
01000000
10000000
00100000
10000000
01000000
00000000
,
10010000
00000000
00100000
00010000
00000000
00000000
00000000
00001000
,
00000000
00100000
00010000
01000000
00000000
00000000
00000000
00000000
,
00100000
00000000
00000000
00010000
00001000
00000000
00000000
00000000
,
00000010
00001000
00010000
00001000
00010000
00001000
00000010
00000000
,
00000001
00000000
00000001
00000000
00000100
00001000
00010000
00001000
,
00000000
00011000
00000000
01000000
00000000
10010000
00000000
01000000
,
00100000
00000000
00010000
00000000
00001000
00010000
00001000
00000000
,
00000010
00000000
00001000
00000000
00010000
00001000
00000100
00000000
,
00000001
00000000
00000110
00000000
00001000
00010000
00000000
00001000
,
00100000
00000000
00010000
00000000
01000000
00100000
00000000
00010000
,
10000000
00000000
01100000
00000000
00010000
00001000
00000000
00010000
,
00001000
00000100
00000000
00000001
00000000
00000100
00000000
00001000
,
00010000
00000000
00000000
00000000
01000000
10000000
01000000
00000000
,
00100000
00010000
01000000
00100000
,
00010000
00010000
00001000
00000010
,
00000001
00000000
00000001
00000000
00001000
00000100
00000000
00000010
,
00000100
00000000
00000000
00000000
00010000
00001000
00010000
00000000
,
00001000
00000100
00000001
00000010
,
00001000
00010000
00100000
00010000
,
00001000
00000000
00010000
00000000
00010000
01000000
00000000
10000000
,
01000000
00110000
00000000
10000000
,
00100000
01000000
00100000
00000000
00100000
00000000
00010000
00000000
,
00001000
00011000
00000000
01000000
,
00100000
00000000
00001000
00000000
00010000
00001000
00000000
00010000
,
00000100
00000000
00000001
00000000
00000100
00000010
00000001
00000000
,
00000010
00000000
00000100
00000000
00000010
00001000
00010000
00001000
,
00000100
00001000
00000000
00010000
,
00000000
01000000
10000000
00100000
,
00010000
00000000
00000000
00001000
00010000
00000000
00000000
00000000
,
00001000
00000000
00000000
00001000
00000100
00000000
00000000
00000000
,
00000001
00000000
00000000
00000001
00000010
00000000
00000000
00000000
,
00001000
00010000
01000000
10000000
,
00100000
01000000
00100000
00000000
01000000
00000000
00100000
00000000
,
00010000
00001000
00010000
00000000
00000100
00000000
00000010
00000100
,
00000000
00000010
00001000
00000000
00010000
00001000
00000000
00000100
,
00000000
00001000
00010000
01000000
00100000
01000000
00100000
01000000
,
00010000
00000000
00000000
00000000
,
00011000
00000000
00001100
00000000
00000010
00001000
00010000
00000000
,
00100000
00010000
00001000
00000000
00010000
00000000
01000000
10000000
,
00100000
00000000
00010000
00000000
00001000
00000000
00000010
00000001
,
00000000
00000010
00001000
00000000
00010000
00000000
00001000
00000000
,
00011000
00000000
01010000
00000000
10000000
01000000
00010000
00000000
,
00100000
00001000
00010000
00000000
01000000
00000000
00010000
00000000
,
00001000
00000000
01000000
00010000
00100000
00000000
00001000
00010000
,
00000100
00000000
00000100
00001000
00000010
00000000
00000001
00000000
,
00000010
00001000
00010000
00100000
,
10100000
00000000
01010000
00000000
00001000
00010000
00000100
00000000
,
00000011
00000000
00001100
00000000
00010000
00001000
00010000
00000000
,
01000000
10000000
01000000
00000000
10000000
00000000
00100000
00000000
,
00010000
00001000
00000100
00000001
,
00000011
00000000
00001100
00000000
00010000
00001000
01000000
00000000
,
10100000
00000000
01010000
00000000
00100000
00010000
00001000
00010000
,
00000100
00000000
00001100
00000000
00000010
00001000
00000000
00011000
,
00000000
00000000
00000000
00000000
;
#NOTES:
     dance-double:
     :
     Hard:
     13:
     :
00000000
00000000
00000000
00000000
,
00000000
00000000
00000000
00000000
,
00000000
00000000
00000000
00000000
,
00000000
00000000
00000000
00000000
,
00000000
00000000
00000000
00000000
,
00010000
00000000
00000000
00000000
00100000
00000000
00000000
00010000
00001000
00000000
00010000
00000000
00000000
00000000
00001000
00000000
,
00000100
00000000
00000001
00000000
00000010
00001000
00010000
00001000
,
00000010
00000000
00000000
00000000
00001000
00000000
00000000
00010000
00001000
00000000
01000000
00000000
00000000
00000000
10000000
00000000
,
01000000
00100000
01000000
00000000
00010000
00000000
01000000
00000000
00100000
00000000
00010000
00000000
00011000
00000000
00000000
00000000
,
00000010
00000000
00001000
00010000
00000000
00100000
00001000
00010000
,
00000000
00000010
00010000
00001000
00000000
00000100
00000000
00000001
,
00000010
00000000
00000000
00000010
00001000
00000000
00000000
00001000
,
00010000
00100000
10000000
00100000
00010000
00001000
00000100
00000001
,
00000010
00000000
00001000
00000000
01000000
00100000
00010000
00001000
,
00010000
01000000
00000000
10100000
00000000
00010000
00000000
00001000
,
00000010
00000001
00000100
00000000
00000010
00001000
00010000
00000000
,
00100000
00000000
01010000
00000000
00100000
00010000
00011000
00000000
,
00000010
00000000
00000000
00000000
00001000
00000000
00000000
00010000
00001000
00000000
00100000
00000000
00000000
00000000
00001000
00000000
,
00010000
00000000
01100000
00000000
00100000
00010000
00000000
00010000
,
00001000
00000000
00000000
00000000
00000100
00000000
00000000
00000010
00000100
00000000
00010000
00000000
00000000
00000000
00001000
00000000
,
00001000
01000000
00001000
00010000
00100000
00010000
00001000
00010000
,
00001000
00000000
00000000
00000000
00000100
00000001
00000010
00001000
,
00010000
01000000
10000000
00000000
,
00010000
00100000
00010000
00000000
00010000
00001000
00010000
00000000
,
00000010
00000000
00000000
00000000
00001000
00000000
00000000
00010000
00001000
00000000
00010000
00000000
00000000
00000000
00100000
00000000
,
01000000
00000000
00000000
00000000
00100000
00010000
00001000
00010000
,
00001000
00000000
00000010
00000000
00000001
00000000
00000100
00000100
,
00001000
00010000
00001000
00000000
00000010
00001000
00000010
00000000
,
00000100
00000000
00000100
00000000
00001000
00010000
00000000
01000000
,
00100000
10010000
00000000
01100000
,
00010000
00000000
00000000
00000000
00001000
00000000
00000000
00010000
00001000
00000000
00000000
00000000
00000100
00000000
00000001
00000000
,
00000010
00000110
00000000
00011000
,
00100000
00000000
00000000
00000000
01000000
00000000
00000000
00001000
00010000
00000000
00100000
00000000
00000000
00000000
00010000
00000000
,
00001000
00000000
00000100
00000000
00000001
00000010
00000001
00000000
,
00000010
00000000
00000000
00000000
00001000
00000000
00000000
00010000
00001000
00000000
00100000
00000000
01000000
00000000
00010000
00000000
,
00001000
00001100
00000001
00000010
,
00002000
00010000
00003100
00000001
,
00000010
00000000
00000000
00001000
00010000
00000000
00000000
00000000
,
00100000
01000000
00000000
00001000
00010000
00000000
00000010
00001000
,
00010000
00000000
00000000
00100000
00010000
00000000
00000000
00010000
,
00001000
00000000
00000000
00001000
00010000
00000000
00000000
00000000
01000000
00000000
00000000
00000000
01000000
00000000
00000000
00000000
,
10000000
00100000
00010000
00000000
00001000
00000000
00000010
00000000
,
00000001
00000010
00001000
00000000
00010000
00000000
00100000
10000000
,
00000000
00010000
01010000
00000000
00100000
00010000
00001000
00010000
,
00000000
00000000
00001000
00000000
00010000
00000000
00001000
00000000
00000010
00000000
00000001
00000000
00000100
00000010
00000100
00000000
,
00000010
00000000
00000000
00010000
00000000
00000000
00001000
00000000
00010000
00000000
00000000
00000000
00011000
00000000
00000000
00000000
,
00001010
00000000
00011000
00000000
00100000
00001000
00010000
01000000
,
10000000
00100000
00010000
00000000
00011000
00000000
00001100
00000000
,
00000001
00000100
00001000
00000000
00010000
00001000
00100000
01000000
,
00000000
00010000
01000000
00000000
10000000
00100000
00010000
00001000
,
00000010
00000000
00000011
00000000
00000010
00001000
00010000
00000000
,
01010000
00000000
00011000
00000000
00001100
00000000
00000010
00001000
,
00010000
01000000
10000000
00100000
00010000
00001000
00000010
00000001
,
00000100
00001000
00010000
01000000
10000000
00100000
00010000
00001000
,
00020000
00000000
01000000
00000000
00031000
00000000
00000010
00000001
,
00000000
00001000
00010000
00001000
01000000
00100000
00010000
00100000
,
00000000
10000000
01000000
10000000
00010000
01000000
00100000
00010000
,
00000000
00001000
00010000
00000100
00000110
00000000
00001010
00000000
,
00021000
00000000
00100000
00000000
00031000
00000000
00000100
00000001
,
00000000
00001000
00000100
00000010
00001000
00010000
00100000
00010000
,
00000000
00001000
00010000
01000000
10000000
00100000
00010000
00001000
,
00000000
00000000
00010000
00000000
00001000
00010000
00001000
00000000
00000100
00000000
00000010
00000000
00000000
00000000
00001001
00000000
,
00000000
00000000
00000000
00000000
;
