
//----- song id: boku
#TITLE:僕は君に恋をした;
#ARTIST:アイドル教室 【愛知】;
#TITLETRANSLIT:Boku wa kimi ni koi wo shita;
#ARTISTTRANSLIT:Idol Kyoshitsu [Aichi];
#BANNER:Boku wa kimi ni koi wo shita.png;
#BACKGROUND:Boku wa kimi ni koi wo shita-bg.png;
#CDTITLE:./CDTitles/DDR (2014).png;
#MUSIC:Boku wa kimi ni koi wo shita.ogg;
#SAMPLESTART:49.360;
#SAMPLELENGTH:15;
#BPMS:0=170;
#NOTES:
     dance-single:
     :
     Beginner:
     2:
     :
0000
0000
0000
0000
,
0000
0000
0000
0000
,
0000
0000
0000
0000
,
0000
0000
0000
0000
,
0000
0000
0000
0000
,
0000
0000
0000
0000
,
1000
0000
1000
0000
,
0001
0000
0001
0000
,
0001
0000
0000
0000
,
1000
0000
0000
0000
,
0100
0000
0000
0000
,
1000
0000
1000
0000
,
1000
0000
0000
0000
,
0001
0000
0001
0000
,
0001
0000
0000
0000
,
0100
0000
0000
0000
,
0100
0000
0100
0000
,
0100
0000
0000
0000
,
0010
0000
0000
0000
,
0001
0000
0001
0000
,
0001
0000
0000
0000
,
1000
0000
1000
0000
,
1000
0000
0000
0000
,
0010
0000
0000
0000
,
0010
0000
0010
0000
,
0010
0000
0000
0000
,
1000
0000
0000
0000
,
1000
0000
0000
0000
,
0001
0000
0000
0000
,
0001
0000
0000
0000
,
1000
0000
0000
0000
,
0001
0000
0000
0000
,
1000
0000
1000
0000
,
1000
0000
0000
0000
,
0000
0000
0000
0000
,
0010
0000
0010
0000
,
0010
0010
0010
0000
,
0001
0000
0001
0000
,
0001
0001
0001
0000
,
1000
0000
0000
0000
,
0001
0000
0000
0000
,
0100
0000
0100
0100
,
0100
0000
0000
0000
,
0010
0000
0010
0000
,
0010
0010
0010
0000
,
1000
0000
0000
0000
,
1001
0000
0000
0000
,
0001
0000
0001
0000
,
1000
0000
1000
0000
,
1000
0000
0000
0000
,
0001
0000
0000
0000
,
0010
0000
0010
0000
,
0010
0010
0010
0000
,
1000
0000
1000
0000
,
1000
1000
1000
0000
,
0001
0000
0000
0000
,
1000
0000
0000
0000
,
0100
0000
0100
0100
,
0100
0000
0000
0000
,
0010
0000
0010
0000
,
0010
0010
0010
0000
,
0001
0000
0000
0000
,
1001
0000
0000
0000
,
0100
0000
0100
0100
,
0100
0000
0000
0000
,
0001
0000
0001
0000
,
1000
0000
1000
0000
,
0001
0000
0001
0000
,
0001
0000
0000
0000
,
1000
0000
1000
0000
,
0001
0000
0001
0000
,
0001
0000
0000
0000
,
0100
0000
0100
0000
,
1001
0000
0000
0000
,
0000
0000
0000
0000
;
#NOTES:
     dance-single:
     :
     Easy:
     6:
     :
0000
0000
0000
0000
,
0000
0000
0000
0000
,
0000
0000
0000
0000
,
0000
0000
0000
0000
,
0000
0000
0000
0000
,
0000
0000
0000
0000
,
0010
0010
0000
0010
,
0100
0010
0000
0010
,
0010
0000
0100
0000
,
1001
0000
0000
0000
,
0010
0000
0010
0000
,
1000
1000
1000
0000
,
0100
0000
0100
0000
,
0010
0010
0010
0000
,
0001
0000
0001
0000
,
1000
0000
0001
0000
,
0100
0000
0100
0000
,
0010
0000
0000
0000
,
1000
0000
1000
0000
,
0100
0001
0100
0000
,
0010
0000
0010
0000
,
0001
1000
0001
0000
,
0100
0000
0100
0000
,
0010
0010
0010
0000
,
1000
0001
1000
0100
,
0010
0000
0000
0000
,
0002
0000
0000
0003
,
0001
0000
0100
0000
,
0020
0000
0000
0030
,
0010
0000
1000
0000
,
0001
0100
0010
0000
,
1000
0010
0100
0000
,
0001
0001
1000
1000
,
0020
0000
0000
0000
,
0030
0000
0000
0000
,
0001
0001
1000
1000
,
0010
0010
0010
0000
,
0100
0100
0001
0001
,
1000
1000
1000
0000
,
0010
0000
0010
0000
,
0001
1000
0001
0000
,
0200
0300
0020
0030
,
2002
0000
3003
0000
,
0010
0001
0100
0010
,
1000
1000
0001
0000
,
1001
0000
0110
0000
,
2002
0000
3003
0000
,
0100
0100
0001
0100
,
0010
1000
0001
1000
,
0010
0000
1000
0000
,
1001
0000
0000
0000
,
0010
0010
0001
0001
,
1000
1000
1000
0000
,
0010
0010
1000
1000
,
0001
0001
0001
0000
,
0100
0000
0100
0000
,
0010
1000
0010
0100
,
0002
0003
2000
3000
,
0220
0000
0330
0000
,
0001
1000
0001
1000
,
0010
0100
0010
0000
,
0110
0000
1001
0000
,
0220
0000
0330
0000
,
1000
1000
0100
1000
,
0001
0000
0000
0000
,
1000
0010
1000
0010
,
0100
0100
0001
0000
,
0010
0001
0010
0001
,
1000
1000
0010
0000
,
0100
0001
0100
0001
,
0010
0010
1000
0000
,
0001
0000
1000
0000
,
0010
0010
1000
0001
,
2002
0000
0000
3003
,
0000
0000
0000
0000
;
#NOTES:
     dance-single:
     :
     Medium:
     8:
     :
0000
0000
0000
0000
,
0000
0000
0000
0000
,
0000
0000
0000
0000
,
0000
0000
0000
0000
,
0000
0000
0000
0000
,
0000
0000
0000
0000
,
0001
1000
0010
0100
,
0010
1000
0001
0010
,
1000
0001
0000
0000
0001
1000
0000
0000
,
1000
0001
0000
0100
0000
0010
0000
0000
,
1000
0000
0000
1000
0000
0000
0001
0000
,
0100
0000
0000
0100
0000
0000
0010
0000
,
0001
0000
0000
0001
0000
0000
1000
0000
,
0100
0000
0000
0100
0000
0000
0010
0000
,
1000
0000
0000
1000
0000
0000
0010
0000
,
0100
0000
0000
0100
0000
0000
0001
0000
,
0010
0000
0000
0010
0000
0000
0100
0000
,
0001
0001
1000
1000
,
0010
0000
0010
1000
0000
0000
0001
0000
,
0100
0000
0100
0010
0000
0000
1000
0000
,
0001
0000
0001
0010
0000
0000
0001
0000
,
0100
0000
0100
1000
0000
0000
0010
0000
,
0100
0000
0100
0001
0000
0000
1000
0000
,
0010
0000
0010
1000
0000
0000
0010
0100
,
0000
0000
0001
1000
0000
0000
0010
0100
,
0000
0010
1000
1000
,
1200
0000
0000
0300
,
1000
0010
0001
0100
,
0021
0000
0000
0030
,
0100
0001
0010
1000
,
0001
0001
1000
1000
,
0010
0010
0100
0100
,
0001
0000
1000
0000
0010
0000
0100
0010
,
0100
0000
0100
0000
0001
1000
0001
1000
,
0000
0000
0000
0000
,
0011
0011
1000
0001
,
1000
0001
0100
0000
0010
0000
0010
0000
,
1010
1010
0100
0001
,
1000
0001
0100
0000
0010
0000
0010
0000
,
1000
0001
1000
0001
,
0100
0010
1000
0100
,
0010
0000
0100
0000
1100
0000
0010
0001
,
2000
0000
3010
0010
,
0100
0001
0100
1000
,
0100
0000
0010
0000
0100
0010
0100
0000
,
0101
0101
1100
1100
,
2002
0000
3003
0000
,
0010
0001
0100
1000
,
0100
0000
0010
0000
1000
0000
0001
1000
,
0001
0000
0100
0000
0010
0100
0010
0100
,
0010
0000
1000
0000
,
1100
1100
0010
0100
,
0001
1000
1000
0000
,
0101
0101
1000
0001
,
0100
0010
0010
0000
,
0100
1000
0010
0001
,
0100
1000
0010
0001
,
0100
0000
0100
0000
0010
0000
1000
0001
,
0020
0000
0130
0100
,
1000
1100
0001
1000
,
0010
0100
0010
0000
,
0101
1001
1100
1001
,
0200
0000
0310
0010
,
1000
0000
0100
0000
0001
0000
0010
0001
,
1000
1001
0000
0000
,
0100
0000
0010
0000
1000
0010
1000
0000
,
0001
0010
0100
0010
,
0001
0000
1000
0000
0001
0100
0001
0000
,
0010
0100
1000
0001
,
0100
0000
0010
0000
0100
0001
0100
0000
,
0010
1000
0001
0000
,
0010
0100
0000
0000
0001
1000
0000
0000
,
0010
0100
0000
0001
0000
1000
0000
0000
,
0010
0020
0000
0000
0000
0000
0000
0000
,
0000
0000
0000
0030
,
0000
0000
0000
0000
;
#NOTES:
     dance-single:
     :
     Hard:
     11:
     :
0000
0000
0000
0000
,
0000
0000
0000
0000
,
0000
0000
0000
0000
,
0000
0000
0000
0000
,
0000
0000
0000
0000
,
0000
0000
0000
0000
,
0100
0000
0001
0000
1000
0100
1000
0000
,
0010
0000
1000
0000
0001
0100
0001
0000
,
1000
1000
0000
0000
0100
0100
0000
0000
,
0010
0010
0000
0001
0000
1001
0000
0000
,
0100
0000
0010
0100
0000
0001
0010
0000
,
0100
0000
0010
0100
0000
1000
0010
0000
,
0100
0000
0001
0010
0000
0100
0010
0000
,
0100
0000
1000
0010
0000
0100
0010
0000
,
1000
0000
0001
0100
0000
0010
1000
0000
,
0001
0000
1000
0100
0000
0010
0001
0000
,
0100
0000
0010
0100
0000
0001
1000
0000
,
0100
0100
0010
0000
0011
0000
0001
0100
,
2000
0000
3100
0002
0000
0103
1000
0000
,
0200
0000
0310
2000
0000
3001
0010
0000
,
0002
0000
0013
2000
0000
3010
0001
0000
,
0200
0000
0310
2000
0000
3100
0010
0000
,
0002
0000
0103
0020
0000
1030
0001
0000
,
1000
0010
0100
0010
0000
1000
0001
0010
,
0000
0001
1000
0010
0000
0100
0010
0100
,
0000
0010
0100
0000
1010
0000
0011
0000
,
0100
0000
0000
0100
0100
0000
0100
0010
,
0000
1000
0000
0100
0100
0000
1010
0000
,
0100
0000
0000
0100
0100
0000
0100
0010
,
0000
0001
0000
0100
0100
0000
0011
0000
,
1000
0010
1000
0000
0001
0010
0001
0000
,
0001
0100
0001
0000
1000
0100
1000
0000
,
0001
1000
0001
1000
0100
0010
0001
0100
,
0000
0100
0010
0000
1000
0100
0010
0001
,
0000
0000
0000
0000
,
0001
0100
0010
0100
0001
0100
1000
0100
,
0000
1000
0100
1000
0100
0001
0010
0000
,
0001
0010
0100
0010
0001
0010
1000
0010
,
0000
0100
0010
0000
0010
0001
1000
0000
,
0001
0000
0010
0000
1000
0100
0010
0001
,
0000
1000
0000
0001
0000
0100
0010
0100
,
0010
0000
1000
0000
0100
0000
0001
1000
,
0001
0000
0010
0001
0100
0001
0010
0000
,
1100
0000
0001
0000
0100
0010
1000
0000
,
0001
0000
0110
0000
1000
0001
0100
0000
,
0010
0000
0000
0010
0000
0000
0010
0000
0100
0000
0000
0100
0000
0000
0100
0000
,
2002
3003
0100
0010
,
1000
0100
0010
0000
0001
0100
0001
0100
,
0000
0100
0010
0000
1000
0100
1000
0100
,
0000
0100
0010
0000
0001
0010
0100
1000
,
0000
0000
1000
0100
0010
0001
0000
0000
,
0010
0001
0010
0001
1000
0001
0100
0010
,
1000
1010
0100
0001
,
1000
0010
1000
0100
1000
0100
0010
0001
,
0100
0101
0010
0100
,
0001
0000
1000
0000
0001
1000
0100
0001
,
0000
0001
0100
1000
0000
1000
0001
0000
,
0102
1003
2100
3001
,
1001
0000
0100
0010
1000
0001
0000
0001
,
0010
0100
0010
0000
0100
1000
0010
0100
,
0001
1000
0001
1000
0100
0000
1000
0001
,
0100
0000
0000
0100
0000
0000
0010
0000
1000
0000
0000
1000
0000
0000
0001
0000
,
0100
0010
1000
0001
,
0100
0001
0100
0010
1000
0100
0010
0001
,
0000
1001
0000
0000
0000
0000
0000
0000
,
0101
0000
0010
0000
1000
0010
1000
0001
,
0000
1000
0100
0000
0010
1000
0001
0000
,
0010
0000
0001
0000
1000
0001
1000
0001
,
0010
0100
1000
0000
1000
0001
0100
0000
,
0010
0000
0110
0000
1000
0100
0010
0001
,
0000
1000
0100
0000
0010
0001
0100
0010
,
1000
1000
0000
0000
0100
0100
0000
0000
,
0010
0010
0000
0001
0000
1001
0000
0000
,
0010
0220
0000
0000
0000
0000
0000
0000
,
0000
0000
0000
0330
,
0000
0000
0000
0000
;
#NOTES:
     dance-double:
     :
     Easy:
     5:
     :
00000000
00000000
00000000
00000000
,
00000000
00000000
00000000
00000000
,
00000000
00000000
00000000
00000000
,
00000000
00000000
00000000
00000000
,
00000000
00000000
00000000
00000000
,
00000000
00000000
00000000
00000000
,
01000000
00100000
01000000
00000000
,
00010000
10000000
00010000
00000000
,
10010000
00000000
00000000
00000000
,
00011000
00000000
00000000
00000000
,
00000200
00000000
00000000
00000300
,
00000010
00000010
00000100
00000000
,
00000002
00000000
00000000
00000003
,
00001000
00001000
00000001
00000000
,
00000020
00000000
00000000
00000030
,
00000100
00000100
00000100
00000000
,
00001000
00000000
00010000
00000000
,
00100000
00000000
10000000
10000000
,
02000000
00000000
00000000
03000000
,
00100000
00100000
01000000
00000000
,
00020000
00000000
00000000
00030000
,
00001000
00001000
00010000
00000000
,
00002000
00000000
00000000
00003000
,
00000100
00000100
00000100
00000000
,
00000001
00000000
00001000
00000000
,
00001001
00000000
00000000
00000000
,
00000100
00000000
00010000
00000000
,
00000100
00000100
00000100
00000000
,
00001000
00000000
00100000
00000000
,
00010000
00010000
00010000
00000000
,
10000000
01000000
00100000
00000000
,
01000000
00010000
00001000
00000000
,
00010000
00000100
00001000
00000010
,
00000200
00000000
00000000
00000000
,
00000300
00000000
00000000
00000000
,
00000001
00000001
00001000
00001000
,
00000001
00000100
00000010
00000000
,
00010000
00010000
00000100
00000100
,
00010000
00001000
01000000
00000000
,
00100000
00000000
00100000
00000000
,
01000000
00100000
01000000
00000000
,
01100000
00000000
00010000
00000000
,
00022000
00000000
00033000
00000000
,
00000100
00000100
00000010
00000010
,
00001000
00000001
00000100
00000000
,
00000010
00000000
00001000
00000000
,
00100000
00000000
00000000
00000000
,
01000000
00010000
10000000
00000000
,
00010000
10000000
01000000
00000000
,
00200000
00000000
01000000
00000000
,
00310000
00000000
00000000
00000000
,
00100000
00001000
00100000
00001000
,
00010000
00000100
00001000
00000000
,
00000010
00010000
00000010
00010000
,
00000100
00001000
00000001
00000000
,
00000100
00000100
00000100
00000000
,
00000001
00001000
00000001
00000000
,
00000110
00000000
00001000
00000000
,
00022000
00000000
00033000
00000000
,
00010000
00001000
00010000
00001000
,
00100000
00100000
00100000
00000000
,
01000000
00000000
00010000
00000000
,
00000010
00000000
00000000
00000000
,
00000100
00000010
00000100
00000010
,
00001000
00000000
00000000
00000000
,
00000001
00000100
00000001
00000000
,
00000100
00001000
00010000
00000000
,
00001000
00010000
00001000
00000000
,
00001000
00010000
01000000
00000000
,
00100000
01000000
00100000
00000000
,
00010000
10000000
00010000
00000000
,
10010000
00000000
01100000
00000000
,
10000000
01000000
00010000
00000000
,
00022000
00000000
00000000
00033000
,
00000000
00000000
00000000
00000000
;
#NOTES:
     dance-double:
     :
     Medium:
     8:
     :
00000000
00000000
00000000
00000000
,
00000000
00000000
00000000
00000000
,
00000000
00000000
00000000
00000000
,
00000000
00000000
00000000
00000000
,
00000000
00000000
00000000
00000000
,
00000000
00000000
00000000
00000000
,
00001000
00000001
00001000
00000001
,
00000100
00000000
00000010
00000000
00001000
00000100
00010000
00000000
,
00001000
00010000
00000000
00000000
01000000
10000000
00000000
00000000
,
00010000
10000000
00000000
00100000
00000000
10010000
00000000
00000000
,
01000000
00000000
00000000
10000000
00000000
00000000
01000000
00000000
,
00010000
00000000
00000000
00000100
00000000
00000000
00000010
00000000
,
00000001
00000000
00000000
00000100
00000000
00000000
00000010
00000000
,
00001000
00000000
00000000
00100000
00000000
00000000
01000000
00000000
,
00010000
00000000
00000000
10000000
00000000
00000000
00010000
00000000
,
00100000
00000000
00000000
10000000
00000000
00000000
00100000
00000000
,
00001000
00000000
00000000
00010000
00000000
00000000
00000100
00000000
,
00001000
00000100
00000010
00000001
,
00001000
00000000
00000001
00001000
00000000
00000000
00000100
00000000
,
00010000
00000000
00001000
00010000
00000000
00000000
00100000
00000000
,
01000000
00000000
00010000
01000000
00000000
00000000
00100000
00000000
,
10000000
00000000
00010000
10000000
00000000
00000000
01000000
00000000
,
00010000
00000000
00001000
00010000
00000000
00000000
00000010
00000000
,
00001000
00000000
00000001
00001000
00000000
00000000
00000010
00000100
,
00000000
00000000
00001000
00010000
00000000
00000000
01000000
00100000
,
00000000
01000000
01000000
01000000
,
20000000
00000000
00010000
00000000
,
00100000
00100000
31000000
00000000
,
00020000
00000000
00001000
00000000
,
00000100
00000100
00031000
00000000
,
00000100
00000001
00000100
00001000
,
00010000
00100000
10000000
00100000
,
00010000
00000000
00001000
00000000
00000010
00000000
00000001
00001000
,
00000000
00000000
00001001
00000000
00000100
00000010
00000100
00000010
,
00000000
00000000
00000000
00000000
,
00000001
00000000
00001000
00000000
00000001
00000100
00000010
00000000
,
00010000
00001000
00100000
01000000
,
10000000
00000000
00010000
00000000
10000000
00100000
01000000
00000000
,
10100000
11000000
10100000
11000000
,
00000000
00010000
00010000
00001000
,
00000100
00000100
00000001
00000010
,
00000100
00010000
01000000
10000000
,
00200000
00000000
01000000
01300000
,
10000000
00000000
11000000
00000000
00100000
00010000
00100000
00000000
,
00001000
00000000
00000010
00000000
00000100
00001000
00000001
00000000
,
00000011
00000001
00000101
00000100
,
00002100
00000000
00013000
00010000
,
01000000
10000000
00100000
10000000
,
01000000
00100000
00010000
00000000
00001000
00000000
00010000
00000000
,
00011000
00000000
00000100
00000000
00000010
00000100
00000010
00000100
,
00000010
00001000
00001001
00000000
,
00000101
00000000
00000001
00000000
00000010
00000001
00001000
00000000
,
00000100
00000000
00010000
00000000
00001000
00010000
00001000
00000000
,
01000000
00000000
01001000
00000000
00010000
00100000
00010000
00000000
,
10000000
00000000
01000000
00000000
10000000
01000000
00010000
00000000
,
01000000
00100000
10000000
01000000
,
10000000
00000000
00010000
00000000
10000000
00100000
01000000
00000000
,
01010000
00010000
00011000
00001000
,
00001200
00000000
00000010
00000310
,
00001000
00000000
00000101
00000000
00001000
00000001
00000010
00000000
,
00000001
00000100
00001000
00010000
,
00011000
00001000
00101000
00100000
,
21000000
00000000
00100000
30100000
,
00010000
00001000
00000100
00000010
,
00000100
00001001
00000000
00000000
,
00000100
00000000
00001000
00000000
00010000
00001000
00000100
00000000
,
00001000
00000000
00010000
00000000
01000000
00010000
00001000
00000000
,
00010000
00000000
01000000
00000000
10000000
00100000
01000000
00000000
,
00100000
00000000
10000000
00000000
00100000
01000000
00010000
00000000
,
00100000
00000000
00010000
00000000
00001000
00010000
00100000
00000000
,
00010000
00000000
00001000
00000000
00000010
00001000
00010000
00000000
,
00001000
00010000
00000000
00000000
00000100
00000010
00000000
00000000
,
00000001
00001000
00000000
00000010
00000000
00000100
00000000
00000000
,
00001000
00020000
00000000
00000000
00000000
00000000
00000000
00000000
,
00000000
00000000
00000000
00030000
,
00000000
00000000
00000000
00000000
;
#NOTES:
     dance-double:
     :
     Hard:
     12:
     :
00000000
00000000
00000000
00000000
,
00000000
00000000
00000000
00000000
,
00000000
00000000
00000000
00000000
,
00000000
00000000
00000000
00000000
,
00000000
00000000
00000000
00000000
,
00000000
00000000
00000000
00000000
,
00010000
00000000
00001100
00000000
00010000
00001000
01000000
00000000
,
00001000
00000000
00110000
00000000
00001000
00010000
00000100
00000000
,
00000010
00000001
00000000
00000000
00001000
00000010
00000000
00000000
,
00010000
00001000
00000000
01000000
00000000
10010000
00000000
00000000
,
00100000
00000000
10000000
01000000
00000000
00100000
01000000
00000000
,
00010000
00000000
00001000
00100000
00000000
00010000
01000000
00000000
,
00001000
00000000
00010000
00000100
00000000
00001000
00000010
00000000
,
00000100
00000000
00000001
00000010
00000000
00000100
00000010
00000000
,
00000001
00000000
00000100
00000010
00000000
00001000
00000100
00000000
,
00010000
00000000
00001000
00000100
00000000
00001000
00100000
00000000
,
00010000
00000000
10000000
00100000
00000000
01000000
00010000
00000000
,
10000000
01000000
00100000
00000000
00010000
00000000
00101000
00000000
,
00011000
00000000
00001000
00000020
00000000
00000031
00000010
00000100
,
00001000
00000000
00000001
00002000
00000000
00013000
00001000
00000100
,
00000010
00000000
00001000
00020000
00000000
01030000
00100000
00010000
,
00001000
00000000
00010000
20000000
00000000
30010000
00100000
01000000
,
10000000
00000000
00100000
02000000
00000000
03001000
00010000
00000100
,
00001000
00000010
00000100
00000001
00000000
00000001
00000100
00001000
,
00000000
00010000
01000000
10000000
00000000
01000000
00010000
00001000
,
00000000
00010000
00001000
00000000
00010100
00000000
00011000
00000000
,
00010010
00000000
00000000
00000100
00000100
00000000
00000010
00000100
,
00000000
00001000
00000000
00100000
01000000
00000000
10010000
00000000
,
10100000
00000000
00000000
01000000
01000000
00000000
00100000
01000000
,
00000000
00010000
00000000
00000010
00000100
00000000
00001001
00000000
,
00000001
00001000
00000010
00000000
00010000
00001000
01000000
00000000
,
00100000
10000000
00010000
00000000
01000000
00001000
00010000
00000000
,
00000100
00001000
00000001
00000010
00000001
00000100
00001000
00010000
,
00000000
00100000
01000000
00000000
10000000
01000000
00100000
00020000
,
00000000
00001000
00031000
00000000
,
00000100
00001000
00000100
00001000
00000001
00000100
00001000
00000100
,
00000010
00000100
00000010
00001000
00000100
00000010
00000001
00000000
,
00001000
00000010
00001000
00000010
00000100
00000001
00001000
00000100
,
00010000
00000100
00010000
00001000
00100000
00010000
01000000
00000000
,
00100000
00000000
10000000
00000000
10000000
01000000
00010000
00001000
,
00000000
00010100
00000000
00001010
00000000
00000100
00000010
00000000
,
00000110
00000000
00000001
00000010
00001000
00010000
01000000
10000000
,
00100000
00000000
01000000
00100000
01000000
00100000
01000000
00000000
,
10010000
01000000
00101000
00010000
,
00001010
00000000
00000100
00000001
00001000
00000010
00000100
00000000
,
00000001
00000000
00000000
00000100
00000000
00000000
00000010
00000000
00001000
00000000
00000000
00000100
00000000
00000000
00010000
00000000
,
00002000
00000000
00010000
00013000
,
00101000
00010000
00100000
00000000
00010000
01000000
00100000
00000000
,
10000000
01000000
00100000
00000000
00010000
10000000
00010000
00000000
,
01000000
00000000
00010000
00000000
00001000
00000100
00000010
00000001
,
00000000
00000000
00000100
00001000
00010000
00100000
00000000
00000000
,
10000000
00100000
10000000
00100000
10000000
01000000
00010000
00001000
,
00100000
00001000
00100000
00010000
01000000
00001000
00010000
00000000
,
00000100
00001000
00000100
00001000
00000010
00010000
00001000
00000100
,
00000010
00000100
00000010
00001000
00000100
00000001
00000100
00000000
,
00001000
00000000
00000001
00000000
00001000
00000100
00001000
00000000
,
00010000
00001000
00000100
00001000
00010000
00000000
01000000
00000000
,
10000000
00100000
01000000
00010000
00100000
00001000
00010000
00000010
,
00000100
00000000
00000001
00001000
00000001
00001000
00000001
00000000
,
00000010
00001100
00010000
00001010
,
00000100
00010000
00001000
00100000
00010000
00000000
01000000
00100000
,
10000000
00000000
00000000
00100000
00000000
00000000
00100000
00000000
00010000
00000000
00000000
00001000
00000000
00000000
00001000
00000000
,
00000200
00000000
00000010
00000310
,
00001000
00000100
00000010
00000100
00001000
00000001
00001000
00000010
,
00000100
00001000
00010000
00000000
00000000
00000000
00000000
00000000
,
00001000
00000000
00110000
00000000
00001000
00010000
00000100
00000000
,
00010000
00000000
00001010
00000000
00000100
00010000
00001000
00000000
,
00100000
00000000
00011000
00000000
01000000
00010000
01000000
00000000
,
00100000
00000000
00011000
00000000
00000100
00001000
00000010
00000000
,
00000100
00000000
00001001
00000000
00000010
00000100
00001000
00000000
,
00010000
00000000
00011000
00000000
00010000
01000000
10000000
00000000
,
10000000
11000000
00000000
00000000
10000000
10100000
00000000
00000000
,
00100000
00110000
00000000
00011000
00000000
00001100
00000000
00000000
,
00000110
00000220
00000000
00000000
00000000
00000000
00000000
00000000
,
00000000
00000000
00000000
00000330
,
00000000
00000000
00000000
00000000
;
