
//----- song id: bibi
#TITLE:ビビットストリーム;
#ARTIST:DJ TOTTO;
#TITLETRANSLIT:BeBeatStream;
#BANNER:BeBeatStream.png;
#BACKGROUND:BeBeatStream-bg.png;
#CDTITLE:./CDTitles/BeatStream.png;
#MUSIC:BeBeatStream.ogg;
#SAMPLESTART:23.478;
#SAMPLELENGTH:15;
#BPMS:0=184;
#NOTES:
     dance-single:
     :
     Beginner:
     4:
     :
0000
0000
0000
0000
,
0000
0000
0000
0000
,
0000
0000
0000
0000
,
0000
0000
0000
0000
,
0000
0000
0000
0000
,
0000
0000
0000
0000
,
0000
0000
0000
0000
,
0000
0000
0000
0000
,
0000
0000
0000
0000
,
0000
0000
0000
0000
,
1000
0000
1000
0000
,
0010
0000
0010
0000
,
0100
0000
0100
0000
,
0001
0000
0001
0000
,
1000
0000
0010
0000
,
0100
0000
0001
0000
,
0010
0000
0100
0000
,
0110
0000
0000
0000
,
1000
0000
0001
0000
,
1000
1000
1000
0000
,
0001
0000
0010
0000
,
0001
0001
0001
0000
,
0010
0000
0010
0000
,
0100
0000
0100
0000
,
1000
0001
1000
0001
,
1000
0000
0000
0000
,
0001
0000
0001
0000
,
0010
0010
0010
0000
,
1000
0000
1000
0000
,
0010
0010
0010
0000
,
0001
0000
1000
0000
,
0001
0000
1000
0000
,
0010
0000
0010
0000
,
0100
0000
0100
0000
,
0002
0000
0000
0000
,
0000
0000
1003
0000
,
2000
0000
0000
0000
,
0000
0000
3001
0000
,
0020
0000
0000
0000
,
0000
0000
0130
0000
,
0200
0000
0000
0000
,
0000
0000
0310
0000
,
0002
0000
0000
0000
,
0000
0000
1003
0000
,
2000
0000
0000
0000
,
0000
0000
3001
0000
,
0010
0000
0010
0000
,
0100
0000
0100
0000
,
1000
0000
0001
0000
,
1001
0000
0000
0000
,
1000
0000
0001
0000
,
1000
0100
0001
0000
,
0001
0000
1000
0000
,
0010
0100
0010
0000
,
1000
0000
0001
0000
,
0010
0010
0010
0000
,
0001
0000
1000
0000
,
0100
0100
0100
0000
,
0001
0000
1000
0000
,
0001
0100
1000
0000
,
1000
0000
0001
0000
,
0010
0100
0010
0000
,
0001
0000
1000
0000
,
0010
0010
0010
0000
,
1000
0000
0001
0000
,
1001
0000
0000
0000
,
1000
0000
1000
0000
,
0010
0000
0010
0000
,
0001
0000
0001
0000
,
0010
0000
0010
0000
,
1000
0000
0010
0000
,
0001
0000
0010
0000
,
1000
0000
0001
0000
,
1001
0000
0000
0000
,
1000
0001
0001
0000
,
0001
1000
1000
0000
,
0010
0001
0001
0000
,
0010
1000
1000
0000
,
0010
0100
0100
0000
,
0100
0010
0010
0000
,
1000
0000
0001
0000
,
0100
0000
0010
0000
,
2002
0000
0000
3003
,
0000
0000
0000
0000
,
1000
0001
1000
0000
,
0010
0100
0010
0000
,
0000
0000
0000
0000
;
#NOTES:
     dance-single:
     :
     Easy:
     6:
     :
0000
0000
0000
0000
,
0000
0000
0000
0000
,
0000
0000
0000
0000
,
0000
0000
0000
0000
,
0000
0000
0000
0000
,
0000
0000
0000
0000
,
2000
0000
3000
0000
,
0200
0000
0300
0000
,
0002
0000
0003
0000
,
0020
0000
0030
0000
,
1000
0000
1000
0000
,
0100
0000
0100
0000
,
0010
0000
0010
0000
,
0001
0000
0001
0000
,
1000
1000
1000
1000
,
0001
0001
0001
0001
,
0010
0010
0100
0100
,
1001
0000
0000
0000
,
1000
0001
0010
0100
,
1000
0010
1010
0000
,
1000
0100
0010
0001
,
0100
0001
0101
0000
,
0001
1000
0100
0010
,
0001
0100
0010
1000
,
0001
0010
0100
1000
,
1002
0000
0103
0000
,
0000
0010
1000
0001
,
0010
0100
1000
0001
,
0000
1000
0100
0010
,
0001
0100
0010
1000
,
0000
0001
0010
0100
,
1000
0010
0100
0001
,
0020
0030
0200
0300
,
2000
3000
0002
0003
,
2000
0000
3100
0002
,
0000
0103
1000
0000
,
0002
0000
0013
2000
,
0000
3010
1001
0000
,
0002
0000
0103
2000
,
0000
3100
0001
0000
,
2000
0000
3100
0002
,
0000
0103
1001
0000
,
0010
0000
1000
0100
,
0000
0010
0001
1000
,
0010
0000
0100
0001
,
0000
0010
0100
1000
,
0010
0100
0010
0100
,
0001
1000
0001
1000
,
0100
0010
0001
1000
,
1001
0000
0000
0000
,
0010
0001
0010
0100
,
1000
0000
1010
0000
,
0001
0100
0010
1000
,
0001
0000
1001
0000
,
0010
0001
1000
0100
,
0010
0000
0011
0000
,
1000
0010
0100
0001
,
1000
0000
1001
0000
,
0001
0010
0100
1000
,
1010
0000
1001
0000
,
0001
1000
0100
0010
,
0011
0000
1001
0000
,
0001
1000
0010
0100
,
0110
0000
1001
0000
,
0100
0010
1000
0001
,
1001
0000
0000
0000
,
0010
0000
0100
0000
,
1000
0100
0010
0000
,
0001
0000
0010
0000
,
0100
1000
0010
0000
,
0001
0000
0010
0000
,
0100
0000
1000
0000
,
0200
0310
0002
1003
,
1001
0000
0000
0000
,
1000
0100
0010
0001
,
0100
0010
1000
0001
,
0100
0010
1000
0001
,
0010
0100
1000
0100
,
0010
0001
0100
0010
,
1000
0100
0010
0001
,
1000
1000
0100
0100
,
0010
0010
0001
0001
,
2002
0000
0000
0000
,
0000
0000
3003
0000
,
1000
0100
0001
0010
,
0100
0000
0000
1001
0000
0000
0000
0000
,
0000
0000
0000
0000
;
#NOTES:
     dance-single:
     :
     Medium:
     10:
     :
0000
0000
0000
0000
,
0000
0000
0000
0000
,
0000
0000
0000
0000
,
0000
0000
0000
0000
,
0000
0000
0000
0000
,
0000
0000
0000
0000
,
0002
0100
1000
0103
,
0000
0001
0010
1100
,
2000
0100
0001
3100
,
0000
0010
0100
1001
,
1000
0100
1000
0100
,
0010
0001
0010
0001
,
0100
0010
0100
0010
,
1000
0001
1000
0001
,
0010
0100
0010
0000
0001
1000
0001
0000
,
0100
0010
1000
0000
0001
0010
0100
0000
,
1000
0010
1000
0010
0100
0001
0100
0000
,
0020
0000
0030
0110
,
2000
0000
3100
0000
0010
0001
0010
0000
,
0001
1000
0100
0000
0010
0000
0010
0000
,
0002
0000
1003
0000
0100
0010
0001
0000
,
0100
0010
0100
0000
0001
0000
1000
0000
,
0002
0000
0103
0000
0010
1000
0010
0000
,
1000
0001
0100
0000
0010
0000
0010
0000
,
2000
0000
3200
0000
0310
0001
0010
0000
,
0200
0000
0000
1300
0001
0000
1001
0000
,
0020
0000
0031
0000
1000
0100
0010
0000
,
0001
0100
0010
1000
0000
1000
0100
0000
,
0020
0000
0031
0000
0100
0010
1000
0000
,
0100
1000
0100
0010
0000
0010
0001
0000
,
0002
0000
1003
0000
0010
0100
0001
0000
,
1000
0100
0010
0001
0000
0001
1000
0000
,
0010
0000
0100
0000
0001
0000
1000
0001
,
1000
0001
0010
0100
,
2000
0000
0000
3200
0000
0000
0320
0000
,
0000
0032
0000
0000
0013
0000
0100
0000
,
0020
0000
0000
0032
0000
0000
2003
0000
,
0000
3002
0000
0000
1003
0000
1001
0000
,
2000
0000
0000
3020
0000
0000
0230
0000
,
0000
0302
0000
0000
0013
0000
0100
0000
,
0020
0000
0000
0032
0000
0000
2003
0000
,
3001
1000
0001
0000
1000
0001
1000
0000
,
0001
0000
0001
0010
0000
0010
0100
0000
,
0100
1000
0000
1000
0100
0000
1000
0000
,
0100
0000
0100
0010
0000
0010
0001
0000
,
0001
0010
0000
0010
0100
0000
1000
0000
,
0001
0100
0001
0100
,
0010
1000
0010
1000
,
0010
0100
0010
1000
0001
1000
0001
0000
,
0020
0000
0030
0110
,
1000
0000
0001
1000
,
0100
0010
0002
0000
0013
0100
1000
0000
,
0001
0000
0100
0001
,
0020
0230
2300
3001
,
1000
0000
0010
1000
,
0010
0100
0002
0000
0013
0100
1000
0000
,
0100
0000
1000
0100
,
0010
0001
0010
0000
0100
1000
0100
0000
,
0010
0000
0001
0010
,
0100
1000
0002
0000
0103
0010
1000
0000
,
0010
0000
0100
0010
,
2000
3002
0203
0310
,
1000
0000
0001
1000
,
0002
0000
0013
0100
0020
0000
0130
0000
,
1000
0000
0001
0000
1000
0001
0000
1001
,
0000
0000
0000
0000
,
0000
0000
1001
0000
0001
0100
0010
1000
,
0000
0100
0000
0010
0000
0001
0100
0000
,
0000
0000
1001
0000
1000
0100
0010
0001
,
0000
1000
0000
0010
0000
0100
0001
0000
,
0000
0000
0011
0000
0001
0010
0100
1000
,
0000
0100
0000
0010
0000
0001
0100
0000
,
0002
0013
0200
1300
,
0110
0000
0000
0001
1000
0100
0010
0000
,
0011
0000
0110
0000
1000
0100
1000
0000
,
0100
0010
0001
0000
1000
0001
0100
0000
,
0101
0000
0110
0000
1000
0001
1000
0000
,
0001
0100
0010
1000
0100
0010
0001
0000
,
1001
0000
1100
0000
0010
0001
0010
0100
,
0000
1000
0000
0100
0000
0010
0000
0001
,
1000
0000
0100
0000
0001
0000
0100
0010
,
0001
0000
1000
0000
0001
0100
0010
1000
,
0200
0000
0000
0000
,
0000
0000
0000
0000
,
0310
0000
0001
0000
0010
0100
0000
1000
,
0000
0001
0100
0020
0000
0000
0000
0000
,
0000
0030
0000
0000
0000
0000
0000
0000
,
0000
0000
0000
0000
;
#NOTES:
     dance-single:
     :
     Hard:
     13:
     :
0000
0000
0000
0000
,
0000
0000
0000
0000
,
0000
0000
0000
0000
,
0000
0000
0000
0000
,
0000
0000
0000
0000
,
0000
0000
0000
0000
,
0000
0000
1001
0000
0001
0100
0010
1000
,
0000
0100
0000
0010
0000
0001
1000
0100
,
0000
0000
0110
0000
0001
1000
0010
0100
,
0000
0001
0000
1000
0000
0100
0000
0010
,
0001
0001
1000
1000
,
0100
0100
0010
0010
,
0001
0001
0100
0100
,
0010
0010
1000
1000
,
0010
0100
0010
0100
0001
1000
0001
1000
,
0100
0010
0100
0010
0001
1000
0001
1000
,
0010
0100
0001
1000
0100
0010
0001
1000
,
0002
0000
0000
0000
0000
0003
0011
0000
,
0001
1000
0100
0000
0010
0001
0100
0000
,
0001
1000
0001
1000
0000
0010
0100
0000
,
0001
0010
0100
0000
1000
0100
0010
0000
,
0001
0100
0010
1000
0000
1000
0100
0000
,
0010
0001
0010
0000
0100
1000
0100
0000
,
1000
0001
0100
0010
0000
0001
0010
0100
,
0002
2003
3200
0320
,
0031
0010
0100
0001
0100
1000
0100
0000
,
0010
0001
0100
0000
0001
1000
0010
0100
,
0001
0010
1000
0010
0001
0100
0010
0000
,
1000
0010
0100
0000
0001
1000
0100
0010
,
0001
0100
0010
1000
0100
0010
0001
0000
,
0010
0100
1000
0000
0001
0100
1000
0100
,
0001
1000
0010
0001
0010
0100
1000
0000
,
1100
0000
0110
0000
0101
0000
0011
0100
,
1000
0000
0000
0000
1001
0000
0000
0100
0001
0000
0010
0000
0100
0000
1000
0000
,
0020
0000
0001
0001
0000
1000
1000
0000
,
0031
0000
0000
0001
0010
0000
0000
0010
0100
0000
0000
0100
1000
0000
0000
0000
,
0200
0000
0001
0001
0000
1000
1000
0000
,
0301
0000
0000
0001
1000
0000
0000
1000
0100
0000
0000
0100
0010
0000
0000
0000
,
0002
0000
1000
1000
0000
0100
0100
0000
,
1003
0000
0000
1000
0100
0000
0000
0100
0010
0000
0000
0010
0001
0000
0000
0000
,
2000
0000
0001
0001
0000
0010
0010
0000
,
3001
0000
0000
0001
0100
0000
0000
0100
0010
0000
0000
0010
0100
0000
0000
0000
,
0010
1000
0001
0100
0000
0010
0100
0010
,
0000
1000
0001
1000
0100
0010
0001
0000
,
0010
0001
0010
0100
0000
1000
0001
0100
,
0010
0000
0000
0010
1000
0000
0000
1000
0100
0000
0000
0100
0010
0000
0000
0000
,
0001
0100
1000
0010
,
0001
0000
0000
0000
0100
0000
0000
0000
1000
0000
0000
0010
0001
0000
0100
0000
,
0001
0010
0100
1000
0001
0100
0010
1000
,
0002
0000
0000
0000
0000
0003
0101
0000
,
1010
0000
0110
0000
0001
0010
0100
0000
,
1000
0100
0010
0001
0020
0000
0130
0000
,
0110
0000
0011
0000
1000
0001
1000
0000
,
0010
0000
0000
0010
1000
0000
0000
1000
0001
0000
0000
0001
0100
0000
0000
0000
,
0110
0000
0101
0000
1000
0001
0010
0000
,
0200
0000
1300
0001
0200
0000
0310
0000
,
0110
0000
0011
0000
0010
1000
0100
0000
,
0010
0001
0010
0100
1000
0100
0010
0000
,
0110
0000
0011
0000
0100
0001
1000
0000
,
0001
0010
0100
1000
0200
0000
0310
0000
,
0011
0000
0110
0000
1000
0010
0100
0000
,
1000
0000
0000
1000
0100
0000
0000
0100
0001
0000
0000
0001
0100
0000
0000
0000
,
0110
0000
1010
0000
0001
0010
0100
0000
,
0002
0000
0103
1000
0002
0000
0103
0000
,
0110
0000
1001
0000
1000
0100
0010
0001
,
0000
0100
0010
0000
1000
0001
0100
0000
,
0000
0000
0001
0000
0001
0100
0010
1000
,
0000
0100
0000
0010
0000
0001
1000
0001
,
0000
0000
0010
0000
0010
0100
1000
0100
,
0000
0010
0000
0001
0000
0010
0000
0100
,
0000
0000
1000
0000
1000
0010
0100
0010
,
0000
1000
0000
0001
0000
0010
0100
1000
,
0001
0100
0010
1000
0100
0010
0001
1000
,
0000
0000
0000
1000
0001
0010
0100
1000
,
0001
0100
0010
1000
0001
0010
0100
0010
,
0001
1000
0010
0100
0001
0010
0100
1000
,
0010
0100
0001
0010
0001
0100
0010
1000
,
0001
0010
1000
0010
0001
0100
1000
0100
,
0001
0010
0100
1000
0001
0100
0010
1000
,
0001
0010
1000
0001
0100
1000
0010
0100
,
0001
0010
0100
0010
1000
0010
0100
0010
,
0001
0100
0010
0100
1000
0100
0010
0100
,
0002
0000
0000
0000
,
0000
0000
0000
0000
,
1003
0100
0010
0001
0100
0010
0000
1001
,
0000
0010
1000
0200
0000
0000
0000
0000
,
0000
0300
0000
0000
0000
0000
0000
0000
,
0000
0000
0000
0000
;
#NOTES:
     dance-double:
     :
     Easy:
     6:
     :
00000000
00000000
00000000
00000000
,
00000000
00000000
00000000
00000000
,
00000000
00000000
00000000
00000000
,
00000000
00000000
00000000
00000000
,
00000000
00000000
00000000
00000000
,
00000000
00000000
00000000
00000000
,
00000001
00000000
00000001
00000000
,
00000100
00000000
00000100
00000000
,
00001000
00000000
00001000
00000000
,
00010000
00000000
00100000
00000000
,
10000000
10000000
10000000
10000000
,
01000000
01000000
01000000
01000000
,
00010000
00010000
00010000
00010000
,
00001000
00001000
00001000
00001000
,
00000010
00000010
00000100
00000100
,
00001000
00001000
00000001
00000001
,
00000100
00001000
00010000
00001000
,
00011000
00000000
00000000
00000000
,
00001000
00010000
00100000
10000000
,
01000000
00100000
10010000
00000000
,
10000000
01000000
00010000
00001000
,
00000010
00001000
00011000
00000000
,
00000100
00000001
00000010
00000100
,
00001000
00000001
00000100
00001000
,
00010000
00001000
00010000
00001000
,
00021000
00000000
00130000
00000000
,
00000000
00100000
10000000
00010000
,
00100000
01000000
10000000
00010000
,
00000000
10000000
01000000
00010000
,
01000000
00010000
00001000
00000010
,
00000000
00000001
00000100
00000010
,
00001000
00000100
00000010
00000001
,
00000200
00000300
00002000
00003000
,
00020000
00030000
00200000
00300000
,
20000000
00000000
00000000
31000000
00000000
00000000
00020000
00000000
,
00000000
01030000
00000000
00000000
10000000
00000000
01000000
00000000
,
00020000
00000000
00000000
00031000
00000000
00000000
00000020
00000000
,
00000000
00001030
00000000
00000000
00011000
00000000
00000000
00000000
,
00000200
00000000
00000000
00000310
00000000
00000000
00000002
00000000
,
00000000
00000013
00000000
00000000
00001000
00000000
00000100
00000000
,
00020000
00000000
00000000
00031000
00000000
00000000
00000020
00000000
,
00000000
00001030
00000000
00000000
00011000
00000000
00000000
00000000
,
00100000
00000000
00000000
10000000
00000000
00000000
01000000
00000000
,
00000000
00010000
00000000
00000000
00001000
00000000
00010000
00000000
,
00001000
00000000
00000000
00000010
00000000
00000000
00000001
00000000
,
00000000
00000100
00000000
00000000
00001000
00000000
00010000
00000000
,
00100000
01000000
00100000
01000000
,
00010000
10000000
00010000
10000000
,
01000000
00010000
00001000
00010000
,
00011000
00000000
00000000
00000000
,
00000010
00000001
00000010
00000100
,
00001000
00000000
00000011
00000000
,
00000001
00000100
00001000
00010000
,
00001000
00000000
00011000
00000000
,
00100000
10000000
00010000
01000000
,
00100000
00000000
01010000
00000000
,
10000000
01000000
00010000
00001000
,
00010000
00000000
00011000
00000000
,
00000010
00000100
00001000
00000001
,
00000101
00000000
00001010
00000000
,
00001000
00000100
00010000
00001000
,
00011000
00000000
00011000
00000000
,
00100000
01000000
10000000
00010000
,
01010000
00000000
10100000
00000000
,
00100000
01000000
00001000
00010000
,
00011000
00000000
00000000
00000000
,
00000000
00000010
00000001
00000100
,
00000010
00001000
00000100
00000000
,
00000000
00000010
00000001
00000100
,
00001000
00010000
00001000
00000000
,
00000000
00010000
00100000
10000000
,
01000000
00100000
00010000
01000000
,
00200000
01300000
20000000
30010000
,
10010000
00000000
00000000
00000000
,
10000000
01000000
00010000
00001000
,
00010000
00001000
00000010
00000001
,
00000100
00000010
00001000
00000001
,
00000010
00001000
00010000
00001000
,
00010000
00100000
01000000
10000000
,
01000000
00010000
00100000
01000000
,
10000000
10000000
01000000
01000000
,
00010000
00010000
00001000
00001000
,
00022000
00000000
00000000
00000000
,
00000000
00000000
00033000
00000000
,
00001000
00000010
00000001
00000100
,
00000010
00000000
00000000
00001001
00000000
00000000
00000000
00000000
,
00000000
00000000
00000000
00000000
;
#NOTES:
     dance-double:
     :
     Medium:
     10:
     :
00000000
00000000
00000000
00000000
,
00000000
00000000
00000000
00000000
,
00000000
00000000
00000000
00000000
,
00000000
00000000
00000000
00000000
,
00000000
00000000
00000000
00000000
,
00000000
00000000
00000000
00000000
,
00000002
00000100
00000100
00001003
,
00000000
00000001
00000010
00001100
,
00020000
00000100
00000100
00031000
,
00000000
00100000
01000000
10010000
,
10000000
01000000
10000000
01000000
,
00010000
00001000
00010000
00001000
,
00000010
00000001
00000010
00000001
,
00001000
00000010
00001000
00000010
,
00010000
00001000
00010000
00000000
00001000
00010000
00001000
00000000
,
00100000
01000000
10000000
00000000
00010000
01000000
00100000
00000000
,
10000000
00100000
10000000
00100000
01000000
00010000
01000000
00000000
,
00200000
00000000
00300000
01100000
,
20000000
00000000
31000000
00000000
00100000
00010000
00100000
00000000
,
00010000
10000000
01000000
00000000
00010000
00000000
00010000
00000000
,
00002000
00000000
00013000
00000000
00001000
00000010
00000001
00000000
,
00000100
00000010
00000100
00000000
00000001
00000000
00001000
00000000
,
00000002
00000000
00000103
00000000
00000010
00001000
00000010
00000000
,
00001000
00000001
00000100
00000000
00001000
00000000
00001000
00000000
,
00020000
00000000
00230000
00000000
10300000
00010000
10000000
00000000
,
02000000
00000000
00000000
03100000
00010000
00000000
10010000
00000000
,
02000000
00000000
03010000
00000000
10000000
01000000
00100000
00000000
,
01000000
00010000
00001000
00000000
00001010
00000000
00000011
00000000
,
00000002
00000000
00001003
00000000
00000010
00000100
00001000
00000000
,
00000100
00001000
00010000
00000000
00110000
00000000
01100000
00000000
,
00020000
00000000
10030000
00000000
01000000
00100000
00010000
00000000
,
10000000
01000000
00010000
00000000
00001000
00010000
00001000
00000000
,
00000010
00000000
00000001
00000000
00000100
00000000
00001000
00010000
,
00001000
00010000
00100000
10000000
,
00020000
00000000
00000000
00230000
00000000
00000000
02300000
00000000
,
00000000
23000000
00000000
00000000
30100000
00000000
01000000
00000000
,
00020000
00000000
00000000
20030000
00000000
00000000
32000000
00000000
,
00000000
03020000
00000000
00000000
00031000
00000000
00011000
00000000
,
00002000
00000000
00000000
00003020
00000000
00000000
00000032
00000000
,
00000000
00000203
00000000
00000000
00000310
00000000
00001000
00000000
,
00000002
00000000
00000000
00000023
00000000
00000000
00002030
00000000
,
00013000
00001000
00010000
00000000
00001000
00010000
00001000
00000000
,
00010000
00000000
00010000
00100000
00000000
00100000
10000000
00000000
,
10000000
01000000
00000000
01000000
00100000
00000000
01000000
00000000
,
00010000
00000000
00010000
00001000
00000000
00001000
00000010
00000000
,
00000010
00000001
00000000
00000001
00001000
00000000
00000001
00000000
,
00000100
00001000
00000100
00001000
,
00010000
00001000
00010000
00001000
,
00100000
01000000
00100000
00010000
10000000
00010000
10000000
00000000
,
00200000
00000000
00300000
01100000
,
01000000
00000000
00000000
01000000
00010000
00000000
10000000
00000000
,
01000000
00010000
00002000
00000000
00013000
01000000
10000000
00000000
,
01000000
00000000
00000000
01000000
00010000
00000000
00001000
00000000
,
00000020
00000032
00002003
00003010
,
00000100
00000000
00000000
00000100
00000001
00000000
00001000
00000000
,
00000100
00000010
00000002
00000000
00000013
00000100
00001000
00000000
,
00000001
00000000
00000000
00000001
00000100
00000000
00001000
00000000
,
00010000
00001000
00010000
00000000
00001000
00010000
00001000
00000000
,
00010000
00000000
00000000
00010000
00100000
00000000
10000000
00000000
,
01000000
00100000
00020000
00000000
00130000
01000000
10000000
00000000
,
01000000
00000000
00000000
01000000
00010000
00000000
00001000
00000000
,
00020000
00032000
00003020
00000031
,
00000100
00000000
00000000
00000100
00000010
00000000
00001000
00000000
,
00000002
00000000
00000013
00000100
00000020
00000000
00001030
00000000
,
00010000
00000000
00001000
00000000
00010000
00001000
00000000
00011000
,
00000000
00010000
01000000
10000000
,
00000000
10010000
11000000
01100000
,
00110000
01010000
01100000
10100000
,
00000000
11000000
01010000
00011000
,
00011000
00001010
00000011
00000101
,
00000000
00000110
00001100
00011000
,
00011000
00110000
10100000
11000000
,
00200000
00310000
20000000
31000000
,
01100000
00000000
00000000
00010000
10000000
01000000
00100000
00000000
,
00110000
00000000
01100000
00000000
10000000
01000000
10000000
00000000
,
01000000
00010000
00001000
00000000
00010000
00001000
00000010
00000000
,
00000011
00000000
00000110
00000000
00001000
00000001
00001000
00000000
,
00000001
00000100
00000010
00001000
00000100
00010000
00001000
00000000
,
00011000
00000000
00110000
00000000
01000000
00100000
01000000
00010000
,
00000000
10000000
00000000
01000000
00000000
00100000
00000000
00010000
,
10000000
00000000
01000000
00000000
00010000
00000000
00001000
00010000
,
00001000
00000000
00000010
00000000
00000001
00000010
00000100
00001000
,
00000200
00000000
00000000
00000000
,
00000000
00000000
00000000
00000000
,
00000310
00000000
00000001
00000000
00000010
00001000
00000000
00010000
,
00000000
00001000
00010000
00002000
00000000
00000000
00000000
00000000
,
00000000
00003000
00000000
00000000
00000000
00000000
00000000
00000000
,
00000000
00000000
00000000
00000000
;
#NOTES:
     dance-double:
     :
     Hard:
     13:
     :
00000000
00000000
00000000
00000000
,
00000000
00000000
00000000
00000000
,
00000000
00000000
00000000
00000000
,
00000000
00000000
00000000
00000000
,
00000000
00000000
00000000
00000000
,
00000000
00000000
00000000
00000000
,
00000000
00000000
00001001
00000000
00000001
00000100
00000010
00001000
,
00000000
00000100
00000000
00000010
00000000
00000001
00001000
00000100
,
00000000
00000000
00010100
00000000
00010000
00001000
00010000
00100000
,
00000000
10000000
00000000
00010000
00000000
00100000
00000000
01000000
,
10000000
10000000
00010000
00010000
,
01000000
01000000
00001000
00001000
,
00010000
00010000
00000010
00000010
,
00000100
00000100
00000001
00000001
,
00000010
00000100
00000010
00000100
00010000
00001000
00010000
00001000
,
01000000
00100000
01000000
00100000
10000000
00010000
10000000
00010000
,
00100000
01000000
10000000
00010000
01000000
00100000
10000000
01000000
,
00020000
00000000
00000000
00031000
,
00000010
00000001
00000100
00000000
00000001
00001000
00000100
00000010
,
00001000
00010000
00001000
00010000
00000000
00100000
01000000
00000000
,
00010000
10000000
01000000
00000000
00010000
00001000
00010000
01000000
,
10000000
00010000
01000000
00100000
00000000
10000000
01000000
00000000
,
00010000
00001000
00010000
00000000
00001000
00000010
00000001
00000100
,
00001000
00010000
00001000
00000100
00000000
00000001
00000010
00000100
,
00020000
00032000
00203000
00320000
,
10030000
00100000
01000000
00010000
10000000
01000000
00100000
00000000
,
00010000
10000000
01000000
00000000
00010000
00001000
00000010
00000001
,
00001000
00000010
00000001
00000010
00001000
00000100
00000010
00000000
,
00000001
00000010
00001000
00000000
00010000
00001000
00000100
00000001
,
00000010
00000100
00010000
00001000
00100000
00010000
01000000
00000000
,
00100000
10000000
01000000
00000000
00010000
01000000
10000000
01000000
,
00010000
00001000
00000010
00000001
00000100
00000010
00001000
00000000
,
00001001
00000000
00000011
00000000
00000110
00000000
00001000
00000010
,
00000100
00000000
00000000
00000000
00001100
00000000
00000000
00010000
00001000
00000000
00010000
00000000
00100000
00000000
01000000
00000000
,
00200000
00000000
00010000
00010000
00000000
10000000
10000000
00000000
,
00010000
00010000
00000000
10300000
01000000
00000000
00010000
00000000
,
00002000
00000000
00000010
00000010
00000000
00010000
00010000
00000000
,
00000010
00000010
00000000
00010000
00013000
00000000
00000100
00000000
,
00000020
00000000
00000001
00000001
00000000
00001000
00001000
00000000
,
00000001
00000001
00000000
00001030
00010000
00000000
00100000
00000000
,
02000000
00000000
10000000
10000000
00000000
00100000
00100000
00000000
,
10000000
10000000
00000000
00100000
03100000
00000000
00010000
00000000
,
00001000
00010000
01000000
10000000
00000000
01000000
00100000
01000000
,
00000000
10000000
00010000
10000000
01000000
00010000
00001000
00000000
,
00000010
00000001
00000010
00000100
00000000
00001000
00000001
00000100
,
00000000
00001000
00010000
00001000
00000100
00000001
00000010
00000000
,
00001000
00010000
00100000
10000000
,
01000000
00000000
00000000
00000000
00010000
00000000
00000000
00000000
00001000
00000000
00000000
00000010
00000001
00000000
00000100
00000000
,
00001000
00010000
00100000
01000000
00010000
00100000
01000000
10000000
,
00020000
00000000
00000000
10030000
,
10000000
01000000
00100000
01000000
,
10000000
01000000
00010000
00001000
00020000
00000000
01030000
00000000
,
00100000
00000000
00001000
00000000
00010000
00001000
00010000
00000000
,
00000200
00000320
00000032
00000013
,
00000100
00001000
00000001
00000010
,
00000200
00000000
00010300
00001000
00020000
00000000
01030000
00000000
,
00100000
00010000
10000000
00100000
,
01000000
10000000
01000000
00100000
00010000
00100000
01000000
00000000
,
00100000
10000000
01000000
00010000
,
00001000
00000010
00000001
00000010
00000200
00000000
00000310
00000000
,
00000001
00000000
00000010
00000000
00000100
00001000
00000100
00000000
,
00002000
00003200
00000302
00000103
,
00001000
00000010
00000100
00001000
,
00020000
00000000
00130000
01000000
00020000
00000000
00130000
00000000
,
01000000
00000000
10000000
00000000
01000000
10000000
01000000
00010000
,
00000000
00001000
00000010
00000000
00000001
00000100
00000010
00000000
,
00000000
00000000
00001001
00000000
00000001
00000100
00000010
00001000
,
00000000
00001100
00000000
00000110
00000000
00001000
00010000
00001000
,
00000000
00000000
00101000
00000000
00100000
01000000
10000000
01000000
,
00000000
01010000
00000000
00011000
00000000
00110000
00000000
01100000
,
00000000
00000000
10010000
00000000
00010000
10000000
01000000
00010000
,
00000000
00011000
00000000
00001010
00000000
00000001
00000010
00001000
,
00010000
00001000
00000100
00000001
00000010
00000100
00001000
00000001
,
00000000
00000000
00000000
00000001
00000100
00001000
00010000
00100000
,
10000000
00010000
01000000
00100000
10000000
01000000
00010000
01000000
,
00100000
00001000
00010000
01000000
10000000
00100000
00010000
00001000
,
00000100
00000001
00000010
00000100
00010000
00001000
00000100
00000001
,
00000010
00000100
00001000
00000001
00000100
00001000
00010000
00100000
,
10000000
00010000
01000000
00100000
10000000
01000000
00010000
00001000
,
00100000
00010000
10000000
00100000
01000000
00001000
00010000
00000100
,
00000010
00000001
00000100
00000010
00010000
00001000
00000100
00000001
,
00000010
00000100
00001000
00000001
00000100
00001000
00010000
00100000
,
20000000
00000000
00000000
00000000
,
00000000
00000000
00000000
00000000
,
30010000
01000000
00100000
10000000
01000000
00100000
00000000
00011000
,
00000000
00000100
00000001
00000020
00000000
00000000
00000000
00000000
,
00000000
00000030
00000000
00000000
00000000
00000000
00000000
00000000
,
00000000
00000000
00000000
00000000
;
