
//----- song ID: bamb -----//
#TITLE:バンブーソード・ガール;
#ARTIST:cosMo@暴走P;
#TITLETRANSLIT:BambooSword Girl;
#ARTISTTRANSLIT:cosMo@BousouP;
#BANNER:BambooSword Girl.png;
#BACKGROUND:BambooSword Girl-bg.png;
#CDTITLE:./CDTitles/DDR (2014).png;
#MUSIC:BambooSword Girl.ogg;
#SAMPLESTART:55.385;
#SAMPLELENGTH:15;
#BPMS:0=208;
#NOTES:
     dance-single:
     :
     Beginner:
     2:
     :
0000
0000
0000
0000
,
0000
0000
0000
0000
,
0000
0000
0000
0000
,
0000
0000
0000
0000
,
0000
0000
0000
0000
,
0000
0000
0000
0000
,
1000
0000
0000
0000
,
1000
0000
0000
0000
,
1000
0000
0000
0000
,
0000
0000
0000
0000
,
0001
0000
0000
0000
,
0001
0000
0000
0000
,
1000
0000
0000
0000
,
1000
0000
0000
0000
,
0000
0000
0000
0000
,
0000
0000
0000
0000
,
0100
0000
0000
0000
,
0100
0000
0000
0000
,
0100
0000
0000
0000
,
0000
0000
0000
0000
,
0001
0000
0000
0000
,
0001
0000
0000
0000
,
0001
0000
0000
0000
,
0000
0000
0000
0000
,
1000
0000
0000
0000
,
1000
0000
0000
0000
,
0001
0000
0000
0000
,
0001
0000
0000
0000
,
0100
0000
0000
0000
,
0100
0000
0000
0000
,
0100
0000
0000
0000
,
0100
0000
0000
0000
,
0001
0000
0000
0000
,
0001
0000
0000
0000
,
0001
0000
0000
0000
,
0000
0000
0000
0000
,
1000
0000
0000
0000
,
1000
0000
0000
0000
,
1000
0000
0000
0000
,
0000
0000
0000
0000
,
0001
0000
0001
0000
,
0001
0000
0000
0000
,
1000
0000
1000
0000
,
1000
0000
0000
0000
,
0001
0000
0000
0000
,
1000
0000
0000
0000
,
0001
0000
0000
0000
,
1000
0000
0000
0000
,
0001
0000
0001
0000
,
0001
0000
0000
0000
,
0001
0000
0001
0000
,
0001
0000
0000
0000
,
1000
0000
1000
0000
,
1000
0000
0000
0000
,
1000
0000
1000
0000
,
1000
0000
0000
0000
,
0100
0000
0000
0000
,
0001
0000
0001
0000
,
0001
0000
0000
0000
,
1000
0000
1000
0000
,
1000
0000
0000
0000
,
0001
0000
0001
0000
,
0001
0000
0000
0000
,
1000
0000
1000
0000
,
1000
0000
0000
0000
,
0000
0000
0000
0000
,
0000
0000
0000
0000
,
0000
0000
0000
0000
,
0000
0000
0000
0000
,
0001
0000
0000
0000
,
1000
0000
0000
0000
,
0100
0000
0000
0000
,
0100
0000
0000
0000
,
0001
0000
0001
0000
,
0001
0000
0000
0000
,
0001
0000
0000
0000
,
1000
0000
0000
0000
,
1001
0000
0000
0000
,
0000
0000
0000
0000
,
0000
0000
0000
0000
,
0000
0000
0000
0000
,
1000
0000
1000
0000
,
1000
0000
0000
0000
,
0100
0000
0000
0000
,
0100
0000
0000
0000
,
0001
0000
0001
0000
,
0001
0000
0000
0000
,
0100
0000
0000
0000
,
0100
0000
0000
0000
,
0010
0000
0010
0000
,
0010
0000
0000
0000
,
0010
0000
0000
0000
,
0100
0000
0000
0000
,
1000
0000
0000
0000
,
0001
0000
0000
0000
,
1000
0000
0000
0000
,
0100
0000
0100
0000
,
0000
0000
0000
0000
;
#NOTES:
     dance-single:
     :
     Easy:
     7:
     :
0000
0000
0000
0000
,
0000
0000
0000
0000
,
0000
0000
0000
0000
,
0000
0000
0000
0000
,
0000
0000
0000
0000
,
0000
0000
0000
0000
,
0100
0000
1000
0000
,
0100
0100
0010
0000
,
0001
0000
0100
0000
,
0010
0010
0001
0000
,
1000
0000
0001
0000
,
0010
0010
1000
0000
,
0001
0000
1000
0000
,
0100
0100
0001
0000
,
0000
0000
0000
0000
,
0000
0000
0000
0000
,
0020
0000
0000
0000
,
0030
0000
0000
0000
,
2000
0000
0000
0000
,
3000
0000
0000
0000
,
0002
0000
0000
0000
,
0003
0000
0000
0000
,
0020
0000
0000
0000
,
0130
0000
0000
0000
,
0001
0000
0001
0000
,
0001
0100
0010
0000
,
1000
1000
1000
0000
,
0100
0010
0100
0000
,
1000
0000
1000
0000
,
1000
0010
0100
0000
,
0001
0010
0100
0000
,
1000
0001
1001
0000
,
0100
0010
0000
1000
,
0100
0010
0100
0000
,
0010
0100
0001
1000
,
0010
0000
0100
0000
,
0001
0010
0100
0010
,
0001
0000
0001
0000
,
1000
0010
0100
0010
,
1000
1000
1000
0000
,
0001
0100
0001
0100
,
0100
0100
0001
0000
,
1000
0100
0010
0100
,
1000
0000
0001
1000
,
0010
0000
0001
0000
,
0100
0000
1000
0000
,
0010
0100
0010
0100
,
0010
0000
1000
0001
,
1000
1000
0001
0001
,
1000
0100
0001
0100
,
1000
1000
0001
0001
,
0100
0100
0100
0000
,
0001
0001
1000
1000
,
0001
0100
1000
0100
,
0001
1000
0010
0100
,
0110
0110
0110
0000
,
1001
1001
1001
0000
,
1000
1000
0001
0001
,
0010
0001
0100
0010
,
1000
0100
0010
0100
,
1000
1000
1000
0000
,
0001
0001
1000
1000
,
0010
1000
0100
0010
,
0001
0100
0010
0100
,
0110
0110
1001
0000
,
0000
0000
0000
0000
,
0000
0000
0000
0000
,
0000
0000
0000
0000
,
0000
0000
0000
0000
,
0001
1000
0001
1000
,
0010
0100
0010
0000
,
1000
0001
1000
0100
,
1000
0001
0010
0000
,
0001
0000
0100
0000
,
1000
0000
0010
0000
,
0100
0100
0100
0100
,
0001
0001
0001
0001
,
1000
1000
0010
0010
,
1000
0010
0100
0001
,
0010
0010
0001
0001
,
1000
0010
0100
0000
,
1000
1000
0100
0100
,
1000
0010
0100
0001
,
0100
0100
0001
0001
,
1000
0100
0010
0000
,
0100
0010
0100
0010
,
0001
0100
0010
1000
,
0001
1001
1000
1001
,
0001
1000
0010
0100
,
0001
1000
0001
1000
,
0001
0010
0100
1000
,
0010
0110
0010
0100
,
0110
0110
0110
0000
,
0001
0001
1000
1000
,
0001
0100
1000
0100
,
0001
0001
1000
1000
,
0010
0100
1001
0110
,
0000
0000
0000
0000
;
#NOTES:
     dance-single:
     :
     Medium:
     11:
     :
0000
0000
0000
0000
,
0000
0000
0000
0000
,
0000
0000
0000
0000
,
0000
0000
0000
0000
,
0000
0000
0000
0000
,
0000
0000
0000
0000
,
1001
0100
0001
0100
,
0010
1000
0001
0100
0001
0000
1000
0000
,
0100
0010
0001
0100
,
0001
0000
0000
0001
0000
0000
0001
0000
1000
0000
0001
0000
0010
0000
0000
0000
,
0010
0001
1000
0001
,
0010
0100
1000
0001
1000
0000
0010
0000
,
0100
0001
0010
0001
,
1000
0000
0000
1000
0000
0000
1000
0000
0001
0000
1000
0000
0010
0000
0000
0000
,
0100
0000
0000
0000
,
0000
0000
0000
0000
,
0201
0000
1300
0100
,
0001
0000
0000
0000
1000
0001
1000
0000
,
1200
0000
0000
0310
0001
0000
0100
0000
,
0010
0000
0000
1000
0010
0000
0000
0000
,
1100
0000
0000
0001
0100
0000
0000
0100
,
0001
0000
0000
1000
0010
0000
0100
0000
,
0001
0001
1000
1000
,
0001
0000
0000
1000
0000
0000
0001
0000
1000
0000
0000
0000
0000
0000
0000
0000
,
0020
0000
0000
1030
0001
0000
0100
0000
,
0001
1000
0100
0000
0100
0000
0010
0000
,
0002
0000
0000
0103
0010
0000
1000
0000
,
0001
0100
0010
0000
1000
0000
0000
0000
,
0200
0000
0000
0310
0001
0010
0100
0000
,
1100
0011
0101
0010
,
0200
0000
0000
0301
0000
0000
1000
0000
,
0010
0000
0000
0010
0000
0000
1000
0000
0001
0000
0000
0000
0000
0000
0000
0000
,
0010
0100
0000
1000
0000
0010
0100
0000
,
0020
0000
2030
0000
3100
0000
0100
1000
,
0001
0000
0000
0001
1000
0000
0010
1000
,
0100
0000
0000
0000
0010
0001
1000
0000
,
1001
0000
0100
1000
0010
0000
0100
0000
,
1001
0000
0100
0001
0010
0000
0100
0010
,
0100
1000
0000
1000
0001
1000
0001
0000
,
0010
0010
0100
0000
,
1000
0001
0000
1000
0000
1000
0000
0001
,
0100
1000
0000
0100
0000
0001
0000
1000
,
0100
0001
0000
0100
0000
1000
0000
0001
,
0100
1000
0000
1000
0100
0010
0100
0000
,
0001
0000
0101
0000
,
1000
0000
1100
0000
,
0010
0001
0100
1000
,
0010
0000
0000
0000
0001
0010
0100
0000
,
1100
0000
0101
0000
1100
0000
1000
0001
,
0000
0001
0010
0100
1000
0010
0100
0000
,
0001
0101
0010
1010
,
0001
0010
0100
1000
0001
0000
0000
0000
,
0101
0000
1100
0000
0101
0000
0001
1000
,
0000
1000
0010
0100
0001
0010
0100
0000
,
1000
1100
0010
0011
,
0101
1010
0101
0000
,
1000
0000
0000
0001
0000
0000
0100
0000
0010
0000
0000
0000
0000
0000
0000
0000
,
0100
0001
0100
0000
0010
1000
0010
0000
,
0100
0001
1000
0001
1000
0000
0100
0000
,
0010
0110
0001
1001
,
0010
0001
1000
0010
0100
0000
0001
0000
,
1000
0100
1000
0000
0001
0010
0001
0000
,
1000
0100
0010
0100
0010
0000
0001
0000
,
1000
0101
0010
1100
,
0010
0000
0000
0010
0000
0000
0010
0000
0100
0000
0000
0000
0000
0000
0000
0000
,
0002
0000
0000
0000
,
0000
0000
0000
0003
,
2000
0000
0000
0000
,
0000
0000
0000
3000
,
0001
0010
1100
1001
,
0100
0000
0010
0100
0010
0000
1000
0000
,
0010
0100
0110
0101
,
0001
0000
1000
0001
1000
0000
0000
0000
,
0100
0000
0001
0000
0010
0100
1000
0000
,
0010
0100
0010
1000
,
0001
0010
0001
0010
0001
0010
0001
0000
,
1000
0010
1000
0010
1000
0010
1000
0000
,
1010
0100
1010
0100
,
0011
0000
0100
0000
0010
0001
1000
0000
,
0020
0000
0032
0000
0203
0000
0301
0010
,
0001
1000
0001
0100
0001
0000
0000
0000
,
1100
0010
1100
0010
,
0101
0000
0010
0000
0100
0001
0010
0000
,
0020
0230
2300
3010
,
0010
1000
0100
0010
0001
0000
0000
0000
,
1000
0100
1000
0000
0001
0100
0001
0000
,
1000
0100
1000
0001
0100
0001
1000
0000
,
0001
0110
1000
0110
,
0001
0010
0100
1000
0010
0000
0000
0000
,
1000
0001
0100
0001
1000
0001
0100
0000
,
0010
1000
0100
1000
0010
1000
0100
0000
,
1000
1000
0100
0000
0001
0001
0100
0000
,
1001
1001
1001
0000
,
0010
0000
1000
0000
0001
0000
0010
0100
,
0000
1000
0001
0100
0010
1000
0010
0100
,
0001
0000
1000
0000
0100
0010
0000
0001
,
0000
0001
0010
0100
1000
0000
1001
0000
,
0000
0000
0000
0000
;
#NOTES:
     dance-single:
     :
     Hard:
     15:
     :
0000
0000
0000
0000
,
0000
0000
0000
0000
,
0000
0000
0000
0000
,
0000
0000
0000
0000
,
0000
0000
0000
0000
,
0000
0000
0000
0000
,
0010
0000
0001
0000
1000
0000
0001
0000
1000
0100
1000
0100
1000
0000
0100
0000
,
0010
0000
0001
1000
0001
0000
0010
0000
0100
0000
1000
0000
0010
0000
0000
0000
,
0010
0000
1000
0000
0001
0000
1000
0000
0010
0000
0100
0001
0100
0000
0010
0000
,
1000
0000
0000
0001
0000
0000
0010
0000
0100
0000
0010
0000
0100
0000
0000
0000
,
0100
0000
1000
0000
0001
0000
1000
0000
0100
1000
0100
1000
0100
0000
1000
0000
,
0001
0000
0010
0100
0010
0000
0001
0000
1000
0000
0100
0000
0010
0000
0000
0000
,
0010
0000
0001
0000
1000
0000
0001
0000
0100
0000
0001
1000
0001
0000
0100
0000
,
0010
0000
0000
1000
0000
0000
0001
0000
0010
0000
0100
0000
0100
0000
0000
0000
,
2000
3020
0230
0302
,
0013
0000
0010
0100
0000
0100
1000
0001
1000
0100
0000
0000
,
1001
0000
0100
1000
,
0011
0000
0000
0001
0100
0001
1000
0000
,
1010
0000
0000
1000
0010
0000
1000
0000
,
1001
0000
0000
0100
0010
0000
0001
0000
,
0101
0000
0000
1000
0001
0000
1000
0000
,
1100
0000
0000
0001
0100
0000
0010
1000
,
0100
0010
0100
0010
0100
0010
0100
0010
,
0001
0000
0000
1000
0000
0000
0010
0000
0100
0000
0000
0000
0000
0000
0000
0000
,
0100
0000
1001
0000
0100
0010
0001
0000
,
1000
0000
0100
1000
0100
0000
1000
0000
0010
0000
0100
0000
0001
0000
0000
0000
,
1000
0000
0000
0000
0100
0000
1000
0001
1000
0000
0001
0000
0100
0000
0000
0000
,
0001
0010
0100
1000
0001
0000
0100
0000
,
0010
0000
0000
0000
1000
0000
1000
0010
1000
0000
0000
0000
0001
0000
0001
0010
,
0001
0000
0000
0000
1000
0000
1000
0001
1000
0000
0000
0000
1000
0000
0001
0000
,
0010
1000
0100
0001
,
0010
0000
0000
1000
0000
0000
0001
0000
1000
0000
0000
0000
0100
0000
0000
0000
,
0010
0001
0020
0100
0000
0031
1000
0010
,
1000
0100
0010
0001
1000
0000
0100
0010
,
0002
0000
1003
0010
0100
0001
1000
0001
,
0100
0000
0010
0000
1000
0100
0010
0001
,
0200
0000
1300
1000
0200
0000
0301
0001
,
0200
0000
1300
1000
0100
0000
1001
0000
,
0001
0100
0010
1000
0001
0000
1000
0001
,
0010
0000
0100
0010
0100
0000
0010
0000
0100
0000
0000
0000
0000
0000
0000
0000
,
0002
0100
0000
1003
0002
0010
0000
1003
,
0020
0100
0000
0031
0020
0100
0000
1030
,
0200
0010
0000
0301
0200
1000
0000
0310
,
2000
0010
0000
3010
0001
1000
0001
0010
,
0022
0000
0000
0033
0202
0000
0000
0303
,
2200
0000
0000
3300
2020
0000
0000
3030
,
0001
0000
1000
0001
1000
0000
0001
1000
0001
0000
0100
0010
0100
0000
0010
0100
,
0010
0000
0000
0000
0000
0000
0000
0000
0100
0000
0000
0100
0000
0000
0100
0000
,
0001
0100
0000
0000
1000
0100
0000
0000
0001
0100
0000
0000
0010
0000
0100
0000
,
0010
0000
1000
0001
1000
0000
0100
0000
0010
0000
0001
0000
0100
0000
0000
0000
,
0001
0000
0000
0001
0100
0000
0010
0000
1000
0000
0100
0000
0001
0000
0100
0000
,
1000
0001
1000
0001
0010
0000
0100
0000
,
0010
1000
0000
0000
0010
0001
0000
0000
0010
1000
0000
0000
0010
0000
0100
0000
,
0010
0000
0001
1000
0001
0000
0010
0000
0100
0000
1000
0000
0001
0000
0000
0000
,
1000
0000
0000
1000
0001
0000
0100
0000
1000
0000
1000
0000
0100
0000
0001
0000
,
0102
0000
0010
0000
0103
0010
1000
0100
,
1100
0000
0000
1100
0000
0000
0010
0000
0100
0000
1000
0000
0001
0000
1000
0000
,
0001
1000
0000
0000
0100
0010
0000
0000
0001
1000
0000
0000
0100
0010
0100
0000
,
0010
0000
0001
0000
0100
0000
0010
0000
1000
0100
1000
0000
0001
0000
1000
0000
,
0001
0000
0000
0001
1000
0000
0100
0000
0010
0000
0001
0000
0100
0000
1000
0000
,
0100
0001
0010
0100
1000
0000
0001
0000
,
1000
0010
0000
0000
0100
0001
0000
0000
1000
0100
0000
0000
0010
0001
0010
0000
,
0001
0000
1000
0000
0100
0000
0010
0000
0001
1000
0001
0000
0100
0000
0010
0000
,
1000
0000
0000
1000
0100
0000
0001
0000
0100
0000
0010
0000
0100
0000
1000
0000
,
0001
0000
0000
0100
0000
0000
0010
0000
1001
0000
0000
0000
0000
0000
0000
0000
,
0200
0000
1000
0310
,
0002
0000
2003
0000
,
3200
0000
0001
0310
,
2000
0000
3001
0001
,
1000
0000
0000
1000
0000
0000
1000
0000
0010
0000
0000
0010
0000
0000
0010
0000
,
0100
0000
0000
0100
0000
0000
0100
0001
0100
0000
0000
0000
0010
0000
1000
0000
,
0001
0000
0000
0001
0000
0000
0001
0000
0010
0000
0000
0010
0000
0000
0010
0000
,
0100
0000
0000
0100
0000
0000
0100
1000
0100
0000
0000
0000
1000
0000
0001
0000
,
0100
0000
0010
0000
1000
0000
0100
1000
,
0001
0000
0100
0000
0010
0000
0100
0010
,
1000
0000
0001
0000
1000
0000
0001
0000
1000
0000
0001
0000
1000
0000
0001
1000
,
0100
0000
0010
0000
0100
0000
0010
0000
0001
0000
0000
0100
0000
0000
0010
0000
,
1000
0100
0000
0000
0010
0001
0000
0000
1000
0010
0000
0000
0100
0001
0100
0000
,
0010
0000
1000
0010
1000
0000
0100
0000
0010
0000
0001
0000
1000
0000
0010
0000
,
0100
0001
0000
0000
1000
0100
0000
0000
0010
0001
0000
0000
0100
0001
0100
0000
,
0010
0000
1000
0010
1000
0000
0001
0000
1000
0000
0010
0000
0110
0000
0000
0000
,
0001
0010
0000
0000
0100
1000
0000
0000
0010
0100
0000
0000
0001
1000
0001
0000
,
1000
0000
0010
0100
0010
0000
1000
0000
0001
0000
0100
0000
0010
0000
0100
0000
,
0120
0000
1030
0100
0010
0001
0100
0010
,
1010
0000
0000
1010
0000
0000
1010
0000
0100
0000
0010
0000
0001
0000
0100
0000
,
0010
0100
0000
0000
0001
1000
0000
0000
0100
0010
0000
0000
0001
1000
0001
0000
,
0010
0000
0001
1000
0001
0000
0100
0000
0010
0000
1000
0000
0100
0000
0010
0000
,
0001
0010
0001
0000
1000
0000
0001
0000
0010
0100
0010
0000
0001
0000
1000
0000
,
0100
1000
0100
0000
1000
0000
0001
0000
0020
0000
0000
0000
0031
0000
0000
0000
,
1000
1000
0100
0100
0001
0001
0100
0100
,
1000
0100
0001
0100
1000
0100
0001
0100
,
1000
0100
0010
0100
0001
0000
0000
0000
1000
0010
0100
0010
0001
0000
0000
0000
,
1001
1001
1001
0000
,
1010
0000
0101
0000
1010
0000
0001
0010
,
0000
0010
0001
0100
0010
1000
0100
0010
,
0011
0000
1100
0000
0010
0001
0000
0110
,
0000
0010
0001
0100
1000
0000
1001
0000
,
0000
0000
0000
0000
;
#NOTES:
     dance-single:
     :
     Challenge:
     18:
     :
0000
0000
0000
0000
,
0000
0000
0000
0000
,
0000
0000
0000
0000
,
0000
0000
0000
0000
,
0000
0000
0000
0000
,
0000
0000
0000
0000
,
0001
0000
1000
0000
0001
0000
0100
0000
0001
0010
0001
0010
0100
1000
0100
0000
,
0010
0000
0001
1000
0001
0100
0001
0100
0010
0000
1000
0000
1001
0000
0000
0000
,
1000
0000
0001
0000
1000
0000
0100
0000
1000
0000
0100
0010
0001
0000
1000
0000
,
0100
0000
0000
1000
0000
0000
0010
0000
0100
0000
0010
0000
0110
0000
0000
0000
,
1000
0000
0001
0000
1000
0000
0010
0000
1000
0100
1000
0100
0010
0001
0010
0000
,
0100
0000
1000
0001
1000
0010
1000
0010
0100
0000
0001
0000
1001
0000
0000
0000
,
0001
0000
1000
0000
0001
0000
0010
0000
0001
0000
0010
0100
1000
0000
0001
0000
,
0010
0000
0000
0001
0000
0000
0100
0000
0010
0000
0100
0000
0110
0000
0000
0000
,
0000
0001
0010
0020
0100
0230
1000
1300
,
0010
0100
0010
1000
0001
1000
1001
1001
1001
1001
0000
0000
,
2000
0000
3100
0010
,
0001
0000
1000
0001
1000
0000
0010
0000
0001
0000
0010
0000
1000
0000
0100
0000
,
0020
0000
0000
0001
0031
0000
1001
0000
,
0200
0000
0000
0000
0000
0000
0310
1000
0200
0000
0000
0000
0300
0000
0000
0000
,
0020
0000
0000
0001
0031
0000
1000
0100
,
2000
0000
0000
0010
3010
0000
0100
0001
,
2000
0000
0000
3002
0000
0000
0103
0100
,
0010
0000
0000
0100
0000
0000
0010
0000
0110
0000
0000
0000
0000
0000
0000
0000
,
1000
0010
0100
0001
0100
0010
1000
0100
,
0010
0000
0001
0010
0001
0000
1000
0010
1000
0000
0100
0000
1000
0000
1000
0000
,
0001
0000
0010
0100
1000
0000
0100
0010
0001
0000
0100
0010
1000
0000
0001
0000
,
1000
0000
0100
0010
0100
0000
0010
0000
0001
0000
0100
0010
0100
0010
0100
0000
,
1001
0000
0000
0000
0001
0010
0100
1000
0001
0000
0000
0000
0001
0100
0010
1000
,
0001
0100
0010
0100
0010
0000
0010
1000
,
0200
0000
0000
0320
0000
0000
0031
0000
,
1000
0000
0000
0001
0000
0000
1000
0000
1001
0000
0000
0000
0100
0000
0000
0000
,
1000
0010
0000
0011
0000
0001
0100
1000
,
1001
0001
1001
1000
1001
0000
1000
0100
,
0001
0100
0000
1000
0010
0001
0010
1000
,
2002
0000
0000
3003
1000
0100
0010
0001
,
0200
0000
0000
0000
1300
0100
0001
0000
0200
0000
0000
0000
0301
0100
1000
0000
,
0200
0000
0000
0000
1300
0100
0001
0000
0100
0000
0000
0000
0110
0000
0000
0000
,
1000
0000
0000
0100
0000
0000
0010
0000
0100
0000
0000
0000
0001
0000
0100
0000
,
0020
0000
0000
0000
0030
0000
0100
0010
0100
0000
0000
0000
0000
0000
1000
0000
,
0020
0100
0031
0000
0020
0000
0031
0000
0020
0100
1030
0000
0020
0000
1030
0000
,
0020
0100
0031
0000
0020
0000
0031
0000
0020
0100
1030
0000
0020
0000
1030
0000
,
0200
1000
0310
0000
0200
0000
0310
0000
0200
0001
0310
0000
0200
0000
0310
0000
,
0200
1000
0310
0000
0200
0000
0310
0000
1000
0000
0001
0000
0010
0000
0100
0000
,
0110
0000
0000
0001
0000
0000
1000
0000
1001
0000
0100
0000
0010
0000
0001
0000
,
0101
0000
0000
0100
0000
0000
0010
0000
2002
0000
0000
0000
3003
0000
0000
0000
,
0001
0000
0000
1000
0000
0000
0110
0000
0000
0000
0010
0000
1000
0000
0100
0000
,
0120
0000
0000
0000
0000
0000
0000
0000
0100
0000
0000
0100
0000
0000
0130
0000
,
1000
0000
0001
0010
0001
0000
1000
0100
0010
0000
0001
0100
0010
0000
0110
0000
,
0000
0000
0010
1000
0100
0000
0010
0001
0010
0000
0110
0000
1100
0000
0000
0000
,
0001
0000
0000
0001
0100
0000
0010
0000
1000
0000
0100
0000
0001
0000
0100
0000
,
1000
0010
0100
0010
1000
0001
0010
0001
1000
0100
0010
0001
1000
0000
0000
0000
,
0001
0000
1000
0010
1000
0000
0001
0100
0010
0000
1000
0100
0010
0000
0110
0000
,
0000
0000
0010
0001
0100
0000
0010
1000
0010
0000
0110
0000
0101
0000
0000
0000
,
1000
0000
0000
1000
0100
0000
0010
0000
0001
0000
0100
0000
1000
0000
0100
0000
,
1001
0000
0110
0000
1001
0010
0100
0010
,
1001
0000
0000
1001
0000
0000
1001
0000
1001
0000
0010
0000
0100
0000
0010
0000
,
1000
0000
0100
0010
0001
0000
0100
0010
1000
0000
0001
0010
0100
0000
1000
0100
,
0010
0000
0001
0100
0001
1000
0001
0000
1001
0000
1000
0000
1100
0000
0000
0000
,
0010
0000
0000
0010
1000
0000
0100
0000
0001
0000
0100
0000
1000
0000
0010
0000
,
1000
0010
0100
0001
0100
0010
1000
0100
0010
0001
0010
0100
1000
0000
0000
0000
,
0001
0000
0100
0010
1000
0000
0100
0010
0001
0000
1000
0100
0010
0000
0001
1000
,
0100
0000
1000
0010
1000
0001
1000
0000
1001
0000
1000
0000
1100
0000
0000
0000
,
0010
0000
0000
0010
0001
0000
0100
0000
1000
0000
0100
0000
0001
0000
0010
0000
,
0001
0000
0000
1000
0000
0000
0001
0000
1001
0000
0000
0000
0000
0000
0000
0000
,
0010
0000
1000
0001
,
0100
0000
1001
0000
,
0010
0000
0001
1000
,
0100
0000
1001
1000
,
0001
0000
0100
0001
0000
0100
0001
0000
1000
0000
0100
1000
0000
0100
1000
0000
,
0001
0000
1000
0001
0000
1000
0001
0000
1001
0000
0000
0000
0010
0000
1000
0000
,
0001
0000
0010
0001
0000
0010
0001
0000
1000
0000
0010
1000
0000
0010
1000
0000
,
0001
0000
1000
0001
0000
1000
0001
0000
1001
0000
0000
0000
0010
0000
0100
0000
,
0010
0000
0000
1000
0000
0000
1100
0000
0001
0000
0000
0100
0000
0000
0101
0000
,
0010
0000
0000
0001
0000
0000
0011
0000
1001
0000
0000
0000
0010
0000
0100
0000
,
0020
0000
0000
0000
,
0200
0000
0000
0330
,
2002
0000
0000
0000
,
0000
0000
0000
3003
,
0010
0000
0100
0000
0010
0000
1000
0001
,
0000
0001
0010
0100
1000
0001
1000
0000
,
0020
0000
0230
0000
0320
0000
2030
3002
,
0003
0002
0023
0230
2300
3002
2003
3000
,
0002
0000
0103
0100
0010
1000
0100
0100
,
0110
0000
0000
0110
0000
0000
0110
0000
1000
0000
0001
1000
0001
0000
0000
0000
,
0001
0010
0001
0000
1000
0010
0100
0000
0010
1000
0100
0000
0010
0001
1000
0001
,
0100
0010
1000
0000
0001
0100
0010
0000
0100
0001
0010
0000
0100
1000
0001
0000
,
1000
0100
1000
0100
0010
0100
0010
0000
0001
0100
0001
0100
0010
0100
0010
0000
,
1000
0100
0010
0001
1000
0000
0001
0000
2002
0000
0000
0000
3003
0000
0000
0000
,
0010
1000
0010
1000
0010
1000
0010
1000
0010
1000
0010
1000
0010
1000
0010
1000
,
0010
1000
0010
1000
0010
1000
0010
1000
0010
1000
0010
1000
0010
1000
0010
1000
,
0001
0010
0100
1000
0010
1000
0001
0100
0001
0010
0100
1000
0010
1000
0001
0100
,
0001
0000
0000
0000
1000
0000
0000
0000
1001
0000
1000
0001
1000
0001
1000
0000
,
1010
0000
0011
0000
0101
0000
0100
1000
,
0000
0000
1000
0000
0010
0000
0001
0000
0100
0010
0100
0010
0100
0000
0010
0000
,
0110
0000
1001
0000
0011
1100
0000
1010
,
0000
0000
0001
0100
1000
0000
0000
0000
0001
0000
0000
0000
1001
0000
0000
0000
,
0000
0000
0000
0000
;
#NOTES:
     dance-double:
     :
     Easy:
     7:
     :
00000000
00000000
00000000
00000000
,
00000000
00000000
00000000
00000000
,
00000000
00000000
00000000
00000000
,
00000000
00000000
00000000
00000000
,
00000000
00000000
00000000
00000000
,
00000000
00000000
00000000
00000000
,
00010000
00001000
00000010
00000000
,
00000001
00001000
00000001
00000000
,
00000100
00001000
00010000
00000000
,
01000000
01000000
01000000
00000000
,
10000000
00100000
01000000
00000000
,
00100000
00010000
00001000
00000000
,
00000010
00000100
00000010
00000000
,
00000001
00000001
00001001
00000000
,
00000000
00000000
00000000
00000000
,
00000000
00000000
00000000
00000000
,
00000020
00000000
00000100
00000000
,
00000130
00000000
00000000
00000000
,
00002000
00000000
00010000
00000000
,
00013000
00000000
00000000
00000000
,
00200000
00000000
01000000
00000000
,
01300000
00000000
00000000
00000000
,
20000000
00000000
00010000
00000000
,
30010000
00000000
00000000
00000000
,
10000000
00000000
10000000
00000000
,
00100000
00001000
00010000
00000100
,
00001000
00000000
00001000
00000000
,
00000001
00000010
00001000
00000000
,
00000001
00000000
00000001
00000000
,
00000010
00001000
00010000
00000000
,
00001000
00000000
00010000
00000000
,
00100000
01000000
01100000
00000000
,
10000000
00000000
00010000
00000000
,
00100000
00001000
01000000
00000000
,
00001000
00000000
00010000
00000010
,
00001000
00000000
00000001
00000000
,
00000010
00001000
00000010
00000001
,
00000100
00000100
00000100
00000000
,
00001000
00010000
00100000
01000000
,
10000000
10000000
10000000
00000000
,
01000000
01000000
00100000
00100000
,
10000000
01000000
00010000
00000000
,
00001000
00010000
01000000
00010000
,
00001000
00000000
00010000
00001000
,
00000200
00000000
00000301
00000000
,
00000020
00000000
00001030
00000000
,
00010000
00001000
00010000
00001000
,
00100000
00000000
01000000
00000000
,
10000000
10000000
00010000
00010000
,
10000000
01000000
00010000
00001000
,
00010000
00010000
00001000
00001000
,
00010000
00001000
00000100
00000000
,
00000001
00000001
00001000
00001000
,
00000001
00000100
00001000
00010000
,
00001000
00001000
00010000
00010000
,
00011000
00011000
00011000
00000000
,
00100000
00100000
01100000
00000000
,
10000000
10000000
00010000
00010000
,
10000000
00100000
00010000
00001000
,
00010000
00010000
00001000
00001000
,
00010000
00001000
00000010
00000000
,
00000001
00000001
00001000
00001000
,
00000001
00000010
00001000
00010000
,
00001000
00001000
00010000
00010000
,
00011000
00011000
00011000
00000000
,
00000000
00000000
00000000
00000000
,
00000000
00000000
00000000
00000000
,
00000000
00000000
00000000
00000000
,
00000000
00000000
00000000
00000000
,
00010000
01000000
10000000
01000000
,
00010000
00100000
10000000
00000000
,
00100000
01000000
00010000
00001000
,
00000100
00000010
00000100
00000000
,
00000001
00000000
00000100
00000000
,
00001000
00000000
00000010
00000000
,
00000001
00000001
00000001
00000001
,
00001000
00001000
00001000
00001000
,
00000010
00000010
00000100
00000100
,
00000010
00000100
00001000
00010000
,
00001000
00001000
00010000
00010000
,
00001000
00010000
00100000
00000000
,
01000000
01000000
00100000
00100000
,
01000000
00100000
00010000
00001000
,
00010000
00010000
00001000
00001000
,
00000100
00000001
00001000
00000000
,
00000010
00000010
00000100
00000100
,
00000001
00000010
00001000
00010000
,
00001000
00000100
00001000
00010000
,
01000000
00010000
00001000
00000000
,
00010000
00010000
00001000
00001000
,
00010000
01000000
10000000
00100000
,
00010000
00010000
00001000
00001000
,
00011000
00011000
00011000
00000000
,
00000100
00000100
00000010
00000010
,
00000001
00000100
00001000
00010000
,
00001000
00001000
00010000
00010000
,
01000000
10000000
00010000
10010000
,
00000000
00000000
00000000
00000000
;
#NOTES:
     dance-double:
     :
     Medium:
     12:
     :
00000000
00000000
00000000
00000000
,
00000000
00000000
00000000
00000000
,
00000000
00000000
00000000
00000000
,
00000000
00000000
00000000
00000000
,
00000000
00000000
00000000
00000000
,
00000000
00000000
00000000
00000000
,
00001000
00100000
01000000
00000000
10000000
00000000
10000000
00000000
,
00100000
01000000
00001000
00010000
00000100
00000000
00000100
00000000
,
00010000
00000010
00000100
00000000
00000001
00000000
00000001
00000000
,
00000010
00000000
00000000
00001000
00000000
00000000
00010000
00000000
00001000
00000000
00100000
00000000
00010000
00000000
00000000
00000000
,
01000000
00001000
00010000
00000000
00100000
00000000
10000000
00000000
,
01000000
00100000
00001000
00010000
00000010
00000000
00000010
00000000
,
00010000
00000100
00000010
00000000
00000001
00000000
00000001
00000000
,
00000100
00000000
00000000
00001000
00000000
00000000
00010000
00000000
00001000
00000000
00100000
00000000
00010000
00000000
00000000
00000000
,
20000000
00000000
00000000
00000000
,
00000000
00000000
30010000
10010000
,
02000000
00000000
03100000
00000000
,
00001000
00000000
00000000
00000000
00000010
00000100
00000010
00000000
,
00000002
00000000
00000103
00000000
,
00010000
00000000
00000000
01000000
00100000
00000000
00000000
00000000
,
20000000
00000000
00000000
00000000
31000000
00000000
00000000
00010000
,
00002000
00000000
00003100
00000000
,
00000010
00000010
00000100
00001000
,
00000100
00000000
00000000
00000001
00000000
00000000
00000010
00000000
00001000
00000000
00000000
00000000
00000000
00000000
00000000
00000000
,
00020000
00001000
01030000
10000000
,
00010000
10000000
01000000
00000000
00100000
00000000
00010000
00000000
,
20000000
01000000
30100000
00010000
,
00001000
00000000
00000010
00000001
00000010
00000000
00000000
00000000
,
00000200
00000000
00001000
00000000
00000310
00000000
00000001
00000100
,
00001000
00010000
00011000
00100000
,
02000000
00001000
03100000
10000000
,
01000000
00000000
00000000
00100000
00000000
00000000
00001000
00000000
00010000
00000000
00000000
00000000
00000000
00000000
00000000
00000000
,
00002000
00000100
00023000
00000100
,
00030020
00000000
00000100
00000000
00000031
00000000
00000100
00000010
,
00020000
00001000
00230000
00001000
,
02300000
00000000
00001000
00000000
03010000
00100000
01000000
10000000
,
00200000
00010000
20300000
00010000
,
32000000
00010000
03002000
00010000
,
00003200
00010000
00000320
00010000
,
00000031
00001000
00001001
00000000
,
00002000
00000100
00000000
00000001
00000000
00000010
00000000
00013000
,
01000000
00020000
00000000
10000000
00000000
00100000
00000000
00031000
,
00000100
00002000
00000000
00000001
00000000
00000010
00000000
00013000
,
01000000
00010000
00000000
10000000
01000000
00100000
00010000
00000000
,
00001000
00000000
00000110
00000000
,
00000001
00000000
00001001
00000000
,
00010000
00100000
10000000
01000000
,
00010000
00000000
00000000
00000000
00000000
00000000
00000000
00000000
00001000
00000000
00000000
00010000
00000000
00000000
02000000
00000000
,
10000000
00000000
00010000
00000000
13000000
00000000
00010000
00001000
,
00000000
00000100
00000010
00000000
00000100
00001000
00010000
00000000
,
01000000
10000000
00100000
00010000
,
00000100
00001000
00000010
00000100
00000001
00000000
00001000
00000000
,
00000201
00000000
00001000
00000000
00000301
00000000
00001000
00010000
,
00000000
01000000
00100000
00000000
00010000
01000000
10000000
00000000
,
00010000
00100000
00010000
00001000
,
00011000
00011000
00011000
00000100
,
00000001
00000000
00000000
00000010
00000000
00000000
00000100
00000000
00001000
00000000
00000000
00000000
00000000
00000000
00000000
00000000
,
00001001
00000000
00010000
00000000
00001001
00000000
00010000
00001000
,
00000000
00000100
00000001
00000100
00001000
00010000
00001000
00000000
,
00010000
00101000
00010000
11000000
,
00100000
00010000
10000000
00100000
01000000
00000000
00010000
00000000
,
10010000
00000000
00001000
00000000
10010000
00000000
00001000
00010000
,
00000000
01000000
10000000
01000000
00010000
00001000
00010000
00000000
,
00001000
00010100
00001000
00000101
,
00000010
00000000
00000000
00000010
00000000
00000000
00000010
00000000
00000100
00000000
00000000
00000000
00000000
00000000
00000000
00000000
,
00000020
00000000
00000000
00000000
,
00000030
00000000
00000000
00000000
,
02000000
00000000
00000000
00000000
,
03000000
00000000
00000000
00000000
,
00001000
00000000
00000000
00001000
00010000
00000000
00000000
00000000
00010000
00000000
00000000
00010000
01000000
00000000
00000000
00000000
,
01000000
00000000
00000000
01000000
10000000
00000000
00010000
00000000
10000000
00000000
00000000
00000000
00100000
00000000
00000000
00000000
,
00010000
00000000
00000000
00010000
00001000
00000000
00000000
00000000
00001000
00000000
00000000
00001000
00000010
00000000
00000000
00000000
,
00000010
00000000
00000000
00000010
00000001
00000000
00001000
00000000
00000001
00000000
00000000
00000000
00000000
00000000
00000000
00000000
,
00000200
00000001
00002300
00010000
,
00003020
00000001
00001030
00010000
,
00001000
00100000
00001000
00100000
00001000
00100000
00001000
00000000
,
01000000
00010000
01000000
00010000
01000000
00010000
01000000
00000000
,
10010000
00000000
00001000
00000000
10010000
00000000
00001000
00010000
,
00000000
00100000
10000000
00100000
00010000
00001000
00010000
00000000
,
00000020
00001000
00000230
00001000
,
00000310
00001000
00000100
00001000
00000010
00000000
00000000
00000000
,
00001001
00000000
00010000
00000000
00001001
00000000
00010000
00001000
,
00000000
00000010
00000001
00000010
00001000
00010000
00001000
00000000
,
00200000
02300000
23000000
30200000
,
00320000
00032000
00013000
00000000
,
00002100
00010000
00000100
00013000
,
00000100
00000010
00000001
00001000
00000010
00000100
00000001
00000000
,
00002001
00000010
00010000
00000010
,
00003001
00000000
00000100
00001000
00010000
00000000
00000000
00000000
,
00120000
00001000
00100000
00031000
,
00100000
01000000
00010000
01000000
00100000
10000000
01000000
00000000
,
00100000
00001000
00010000
00000100
00001000
00000010
00000100
00000000
,
00000110
00000110
00001001
00000000
,
00000010
00000000
00000001
00000000
00000100
00000000
00001000
00010000
,
00000000
01000000
10000000
00000000
00100000
01000000
00100000
00000000
,
00010000
00000000
00001000
00000000
00000010
00000100
00000000
00000010
,
00000000
00000001
00000100
00001000
00010000
00000000
00011000
00000000
,
00000000
00000000
00000000
00000000
;
#NOTES:
     dance-double:
     :
     Hard:
     15:
     :
00000000
00000000
00000000
00000000
,
00000000
00000000
00000000
00000000
,
00000000
00000000
00000000
00000000
,
00000000
00000000
00000000
00000000
,
00000000
00000000
00000000
00000000
,
00000000
00000000
00000000
00000000
,
00000001
00000010
00001000
00010000
01000000
00100000
01100000
00000000
,
00100000
00000000
00010000
00100000
00010000
00000000
10000000
00000000
00100000
00000000
01000000
00000000
00010000
00000000
00000000
00000000
,
10000000
00100000
00010000
00001000
00000100
00000010
00000110
00000000
,
00000100
00000000
00000000
00000001
00000000
00000000
00000010
00000000
00000100
00000000
00000010
00000000
00000001
00000000
00000000
00000000
,
00000001
00000100
00001000
00010000
00100000
01000000
01100000
00000000
,
01000000
00000000
00010000
01000000
00010000
00000000
10000000
00000000
01000000
00000000
00100000
00000000
00010000
00000000
00000000
00000000
,
10000000
01000000
00010000
00001000
00000010
00000100
00000110
00000000
,
00000010
00000000
00000000
00000001
00000000
00000000
00000100
00000000
00000001
00000000
00001000
00000000
00001001
00000000
00000000
00000000
,
00000010
00000001
00000100
00000010
00001000
00000100
00010000
00001000
,
00100000
00000000
00000000
00010000
00000000
00000000
01000000
00000000
00000000
00100000
00000000
00000000
10000000
00000000
01000000
00000000
00100000
00000000
00010000
00000000
00000000
00000000
00000000
00000000
,
00100000
00010000
00000000
00000000
01000000
00001000
00000000
00000000
,
00010000
00000010
00000000
00000000
00001000
00000100
00000000
00000000
,
00000010
00000001
00000000
00000000
00000100
00001000
00000000
00000000
,
00010000
00100000
00000000
00000000
10000000
01000000
00100000
00001000
,
00010000
00000100
00000000
00000000
00000010
00001000
00000000
00000000
,
00000001
00000100
00000000
00000000
00001000
00000100
00000000
00000000
,
00000100
00010000
00000100
00010000
00001000
00100000
00001000
00100000
,
01000000
00000000
00000000
01100000
00000000
00000000
01100000
00000000
10000000
00000000
01000000
00000000
00100000
00000000
00010000
00000000
,
01000000
00001000
00010000
00000000
00000010
00010000
00001000
00000000
,
01000000
00001000
00100000
00001000
01000000
00001000
00100000
00001000
,
01000000
00001000
00010000
00000000
00001000
00010000
00000010
00000000
,
00000010
00010000
00000100
00010000
00000010
00000000
00001000
00000000
,
00000001
00000000
00000000
00000000
00000100
00000001
00000100
00000000
00000010
00000000
00000000
00000000
00010000
00000100
00010000
00000000
,
00001000
00000000
00000000
00000000
00100000
00010000
00100000
00000000
01000000
00000000
00000000
00000000
10000000
00000000
01000000
00000000
,
00100000
00000000
00010000
01000000
00100000
00000000
00010000
00000000
,
00001000
00000000
00000000
00000100
00000000
00000000
00000001
00000000
00001000
00000000
00000000
00000000
00000000
00000000
00000000
00000000
,
00000001
00000010
00000001
00000010
00001000
00000010
00001000
00001000
,
00010000
00001000
00010000
00100000
10000000
00000000
10000000
00010000
,
10000000
01000000
10000000
01000000
00010000
01000000
00010000
00010000
,
00001000
00000000
00010000
00000000
00001000
00000100
00000001
00000010
,
00001000
00000000
00001000
00000010
00000001
00000000
00000001
00000100
,
00001000
00000000
00000000
00000000
00010000
00000000
01000000
00000000
10000000
00000000
00000000
00000000
00010000
10000000
00010000
00000000
,
00100000
10000000
00010000
01000000
00010000
00001000
00000100
00000001
,
00001000
00000010
00000001
00000010
00002000
00000000
00003000
00000001
,
00000100
00000001
00001000
00000100
00000010
00010000
00100000
00001000
,
00010000
01000000
10000000
00010000
01000000
00100000
00010000
00001000
,
00000010
00000100
00010000
00000010
00001000
00000001
00000010
00000100
,
00000001
00001000
00000010
00000100
00010000
00000010
00000100
00001000
,
00020000
00000000
10000000
00000000
,
00001000
00000000
10000000
00000000
,
00031000
00000000
00000000
00001000
00010000
00000000
00000000
00010000
01000000
00000000
00000000
01000000
10000000
00000000
00000000
10000000
,
00010000
00000000
00000000
00000000
00000000
00000000
00000000
00000000
00100000
00000000
00000000
00100000
00000000
00000000
00100000
00000000
,
01000000
10000000
00000000
00000000
00010000
01000000
00000000
00000000
00001000
00010000
00000000
00000000
00010000
00000000
00000100
00000000
,
00010000
00000000
01000000
00000000
10000000
00000000
01000000
00000000
00010000
00001000
00010000
00000000
00001000
00000000
00000000
00000000
,
00010000
00000000
00000000
00000100
00000010
00000000
00000001
00000000
00000100
00000000
00000010
00000000
00001000
00000000
00000100
00000000
,
00010000
00001000
00000100
00000001
00000010
00000000
00001001
00000000
,
00000100
00000001
00000000
00000000
00001000
00000100
00000000
00000000
00010000
00001000
00000000
00000000
00001000
00000000
01000000
00000000
,
00001000
00000000
00000100
00000000
00000001
00000000
00000100
00000000
00001000
00010000
00001000
00000000
00010000
00000000
00000000
00000000
,
00001000
00000000
00000000
01000000
00010000
00000000
10000000
00000000
01000000
00000000
00000000
00000000
00100000
00000000
00000000
00000000
,
11000000
00000000
00110000
00000000
01001000
00010000
00001000
00000100
,
00000001
00000000
00000000
00001000
00000000
00000000
00010000
00000000
01000000
00000000
00000000
00000000
00000000
00000000
00000000
00000000
,
00100000
10000000
00000000
00000000
00010000
00100000
00000000
00000000
00001000
00010000
00000000
00000000
00000100
00000000
00010000
00000000
,
00000100
00000000
00000010
00000000
00001000
00000000
00010000
00000000
01000000
00100000
01000000
00000000
10000000
00000000
00010000
00000000
,
01000000
00100000
00010000
00001000
00000100
00000010
00001000
00010000
,
01000000
00100000
00010000
00001000
00000100
00000000
00000001
00000000
,
00000010
00000001
00000000
00000000
00001000
00000010
00000000
00000000
00010000
00001000
00000000
00000000
01000000
00000000
00001000
00000000
,
01000000
00000000
00100000
00000000
00010000
00000000
00001000
00000000
00000100
00000010
00000100
00000000
00000001
00000000
00001000
00000000
,
00000100
00000010
00001000
00010000
01000000
00100000
00010000
00001000
,
00000100
00000000
00000000
00000010
00000000
00000000
00000100
00000000
00001001
00000000
00000000
00000000
00000000
00000000
00000000
00000000
,
00000020
00000000
00000000
00000000
,
00000030
00000000
00000000
00000000
,
00200000
00000000
00000000
00000000
,
00300000
00000000
00000000
00000000
,
00000001
00000000
00000000
00000100
00000000
00000000
00001000
00000000
00010000
00000000
00000000
00100000
00000000
00000000
10000000
00000000
,
00100000
00000000
00000000
00010000
00000000
00000000
00001000
00000000
00000100
00000000
00000000
00000000
00000001
00000000
00001000
00000000
,
00000001
00000000
00000000
00000010
00000000
00000000
00001000
00000000
00010000
00000000
00000000
01000000
00000000
00000000
10000000
00000000
,
01000000
00000000
00000000
00010000
00000000
00000000
00001000
00000000
00010000
00000000
00000000
00000000
00011000
00000000
00000000
00000000
,
00000100
00000010
00000100
00001000
,
00010000
01000000
00100000
01000000
,
10000000
00100000
10000000
00100000
00010000
00100000
00010000
00100000
,
00010000
00000000
00001000
00000000
00010000
00000000
00001000
00000000
00000100
00000000
00000000
00000001
00000000
00000000
00000010
00000000
,
00000001
00000100
00000000
00000000
00000010
00001000
00000000
00000000
00000100
00010000
00000000
00000000
00001000
00000000
00100000
00000000
,
10000000
00100000
00001000
00010000
00100000
10000000
00100000
00000000
,
10000000
00100000
00000000
00000000
01000000
00010000
00000000
00000000
00100000
00001000
00000000
00000000
00010000
00000000
00000100
00000000
,
00000001
00000100
00010000
00001000
00000100
00000001
00000100
00000000
,
00000010
00001000
00000000
00000000
00000100
00010000
00000000
00000000
00001000
00100000
00000000
00000000
00100000
00000000
00010000
00000000
,
00001000
00010000
00100000
00001000
00010000
00100000
00010000
00001000
,
00000200
00000000
00001300
00010000
02000000
00000000
03010000
00001000
,
00000020
00000000
00001030
00010000
00200000
00000000
00300000
00000000
,
10000000
00010000
00000000
00000000
01000000
00001000
00000000
00000000
00010000
00000010
00000000
00000000
00000010
00000000
00010000
00000000
,
00001000
01000000
00010000
10000000
00100000
01000000
00001000
00010000
,
00001000
00000100
00000001
00000100
00001000
00010000
01000000
10000000
,
01000000
00010000
00001000
00000100
00000020
00000000
00000030
00000000
,
00000001
00000001
00000010
00000010
00000100
00000100
00001000
00001000
,
00010000
00010000
00100000
00100000
01000000
01000000
10000000
10000000
,
01000000
00100000
01000000
00100000
01000000
00000000
00000000
00000000
00010000
10000000
00010000
10000000
00010000
00000000
00000000
00000000
,
10010000
01100000
00011000
00000000
,
00000100
00000000
00000001
00000000
00000010
00000000
00001000
00010000
,
00000000
00001000
00000010
00000001
00000100
00001000
00010000
01000000
,
10000000
00000000
00100000
00000000
00010000
00001000
00000000
00010000
,
00000000
00100000
10000000
01000000
00010000
00000000
00011000
00000000
,
00000000
00000000
00000000
00000000
;
#NOTES:
     dance-double:
     :
     Challenge:
     17:
     :
00000000
00000000
00000000
00000000
,
00000000
00000000
00000000
00000000
,
00000000
00000000
00000000
00000000
,
00000000
00000000
00000000
00000000
,
00000000
00000000
00000000
00000000
,
00000000
00000000
00000000
00000000
,
10000000
00000000
01000000
00000000
00010000
00000000
00001000
00000000
00000010
00000100
00000010
00000000
00000100
00000000
00000010
00000000
,
00000001
00000000
00000100
00001000
00000100
00000000
00001000
00000000
00010000
00000000
01000000
00000000
01000000
00000000
00000000
00000000
,
10000000
00000000
00100000
00000000
00010000
00000000
00001000
00000000
00000100
00000000
00000010
00000100
00000010
00000100
00000010
00000000
,
00000100
00000000
00000000
00001000
00000000
00000000
00010000
00000000
00001000
00000000
00000010
00000000
00000001
00000000
00000000
00000000
,
00000001
00000000
00000010
00000000
00001000
00000000
00010000
00000000
01000000
00100000
01000000
00000000
00100000
00000000
01000000
00000000
,
10000000
00000000
00100000
00010000
00100000
00000000
00010000
00000000
00001000
00000000
00000010
00000000
00000010
00000000
00000000
00000000
,
00000001
00000000
00000100
00000000
00001000
00000000
00010000
00000000
00100000
00000000
01000000
00100000
01000000
00100000
01000000
00000000
,
00100000
00000000
00000000
00010000
00000000
00000000
00001000
00000000
00010000
00000000
01000000
00000000
10000000
00000000
00000000
00000000
,
00000000
00100000
01000000
02000000
00001000
03002000
00010000
00013000
,
00000010
00000100
00000010
00001000
00000001
00001000
00000001
00000001
00000001
00000001
00000000
00000000
,
00002000
00000000
00003001
00000010
,
00000100
00000000
00000010
00000100
00010000
00001000
00010000
00001000
,
02000000
00000000
00000000
00100000
03100000
00000000
10010000
00000000
,
02000000
00000000
00000000
00000000
00000000
00000000
03100000
10000000
02000000
00000000
00000000
00000000
03000000
00000000
00000000
00000000
,
00200000
00000000
00000000
00001000
00301000
00000000
00011000
00000000
,
00000200
00000000
00000000
00001000
00001300
00000000
00000110
00000000
,
00000002
00000000
00000000
00002003
00000000
00000000
00013000
00000000
,
00001000
00000000
00000000
00010000
00000000
00000000
00001000
00000000
00011000
00000000
00000000
00000000
00000000
00000000
00000000
00000000
,
00100000
10000000
00100000
00000000
01000000
00010000
01000000
00000000
,
00100000
00000000
00010000
00001000
00010000
00000000
00001000
00000000
00000010
00000000
00000001
00000000
00001000
00000000
00000000
00000000
,
00000001
00000010
00000001
00000000
00001000
00000100
00001000
00000000
,
00000100
00000000
00010000
00001000
00010000
00000000
00001000
00100000
00001000
00000000
00100000
00000000
01100000
00000000
00000000
00000000
,
10010000
00000000
00000000
00000000
10000000
01000000
10000000
01000000
00100000
00000000
00000000
00000000
00001000
00010000
00001000
00010000
,
00000100
00001000
00000100
00000010
00000001
00000000
00000001
00000100
,
00000002
00000000
00000000
00000023
00000000
00000000
00001030
00000000
,
00010000
00000000
00000000
00001000
00000000
00000000
00010000
00000000
00011000
00000000
00000000
00000000
01000000
00000000
00000000
00000000
,
00100000
10000000
00000000
11000000
00000000
01000000
00010000
00001000
,
00010000
00100000
00010000
00001000
00001010
00000000
00000001
00000100
,
00000010
00000100
00000000
00000100
00001000
00010000
01000000
10000000
,
20020000
00000000
00000000
30030000
10000000
01000000
00100000
00010000
,
02010000
00000000
03001000
00010000
00021000
00000000
00030100
00001000
,
00001200
00000000
00000310
00000001
00001001
00000000
00000001
00001000
,
00000010
00000000
00000000
00000100
00000000
00000000
00000010
00000000
00000100
00000000
00000000
00000000
00001000
00000000
00010000
00000000
,
00022000
00000000
00000000
00000000
00033000
00000000
00001000
00010000
00001000
00000000
00000000
00000000
00000000
00000000
00010000
00000000
,
02000000
13000000
02000000
03100000
00002000
00103000
00002000
00013000
,
00000200
00001300
00000200
00000310
00000002
00000103
00000001
00000000
,
00000020
00000031
00000020
00000130
00020000
00030010
00020000
00031000
,
00200000
00310000
00200000
01300000
20000000
30100000
20000000
31000000
,
01100000
00000000
00000000
10000000
00000000
00000000
00100000
00000000
00110000
00000000
00010000
00000000
00001000
00000000
00000100
00000000
,
00000101
00000000
00000000
00000010
00000000
00000000
00000100
00000000
00002002
00000000
00000000
00000000
00003003
00000000
00000000
00000000
,
00000001
00000000
00000000
00000100
00000000
00000000
00001000
00000000
00000000
00000000
00010000
00000000
00100000
00000000
10000000
00000000
,
20010000
00000000
00000000
00000000
00000000
00000000
00000000
00000000
01000000
00000000
00000000
01000000
00000000
00000000
31000000
00000000
,
10000000
00000000
00100000
10000000
00100000
00000000
10000000
01000000
00100000
00000000
00010000
01000000
00100000
00000000
00010000
00000000
,
00001000
00000000
00000100
00000010
00001000
00000000
00000100
00000000
00000010
00000000
00000001
00000000
00001001
00000000
00000000
00000000
,
00000001
00000000
00000000
00000001
00000100
00000000
00001000
00000000
00010000
00000000
00100000
00000000
00010000
00000000
00001000
00000000
,
00010000
00000000
01000000
00000000
00010000
00000000
00001000
00000000
00000010
00000001
00001000
00000100
00000010
00000000
00000000
00000000
,
00000001
00000000
00000100
00000001
00000100
00000000
00000001
00000010
00000100
00000000
00001000
00000010
00000100
00000000
00001000
00000000
,
00010000
00000000
00100000
01000000
00010000
00000000
00100000
00000000
01000000
00000000
10000000
00000000
10010000
00000000
00000000
00000000
,
10000000
00000000
00000000
10000000
00100000
00000000
00010000
00000000
00001000
00000000
00000100
00000000
00001000
00000000
00010000
00000000
,
00011000
00000000
00011000
00000000
00011000
00000100
00000010
00000100
,
00011000
00000000
00000000
00011000
00000000
00000000
00011000
00000000
00011000
00000000
00000000
00000000
00000000
00000000
00000000
00000000
,
00100000
00000000
01000000
10000000
00010000
00000000
01000000
00100000
10000000
00000000
01000000
00100000
00001000
00000000
00010000
00001000
,
00010000
00000000
00000100
00001000
00000001
00000000
00000100
00000000
00000001
00001000
00000001
00001000
00000001
00000000
00000000
00000000
,
00000001
00000000
00000000
00000001
00000100
00000000
00001000
00000000
00010000
00000000
00100000
00000000
00010000
00000000
00001000
00000000
,
00010000
00000000
01000000
00000000
00010000
00000000
00001000
00000000
00000010
00000100
00000010
00000100
00000010
00000000
00000000
00000000
,
00000001
00000000
00001000
00000100
00000010
00000000
00000001
00000100
00000010
00000000
00010000
00000100
00001000
00000000
00000100
00010000
,
00001000
00000000
00100000
00010000
10000000
00000000
00100000
00000000
10000000
00010000
10000000
00010000
10000000
00000000
00000000
00000000
,
10000000
00000000
00000000
10000000
01000000
00000000
00010000
00000000
00001000
00000000
00000010
00000000
00001000
00000000
00010000
00000000
,
00001000
00000000
00000000
00010000
00000000
00000000
00001000
00000000
00011000
00000000
00000000
00000000
00000000
00000000
00000000
00000000
,
00200000
00000000
00310000
00001000
,
00020000
00000000
00031000
00000000
,
00002000
00000000
00003100
00000010
,
00000200
00000000
00000301
00001000
,
00000001
00000000
00000010
00000001
00000000
00000010
00000001
00000000
00001000
00000000
00000100
00010000
00000000
00000100
00010000
00000000
,
00001000
00000000
00100000
00010000
00000000
00100000
00010000
00000000
10010000
00000000
00000000
00000000
10000000
00000000
00010000
00000000
,
10000000
00000000
00100000
10000000
00000000
00100000
10000000
00000000
00010000
00000000
01000000
00001000
00000000
01000000
00001000
00000000
,
00010000
00000000
00000010
00001000
00000000
00000010
00001000
00000000
00001001
00000000
00000000
00000000
00000001
00000000
00000100
00000000
,
00001000
00000000
00000000
00010000
00000000
00000000
00100000
00000000
00010000
00000000
00000000
00001000
00000000
00000000
00000010
00000000
,
00001000
00000000
00000000
00010000
00000000
00000000
01000000
00000000
00010000
00000000
00000000
00000000
00001000
00000000
00010000
00000000
,
00002000
00000000
00000000
00000000
,
00020000
00000000
00000000
00033000
,
00022000
00000000
00000000
00000000
,
00000000
00000000
00000000
00033000
,
00010000
00000000
01000000
00000000
00100000
00000000
10000000
01000000
,
00000000
01000000
00100000
01000000
10000000
00010000
00100000
00000000
,
00002000
00000000
00003020
00000000
00000230
00000000
00002300
00003020
,
00000000
00002030
00003200
00000320
00000032
00002003
00003002
00000003
,
00000020
00000000
00000031
00000100
00000010
00010000
00001000
00000000
,
00011000
00000000
00000000
00011000
00000000
00000000
00011000
00000000
00022000
00000000
00000000
00000000
00033000
00000000
00000000
00000000
,
00100000
00001000
00100000
00000000
00010000
10000000
01000000
00000000
00100000
00010000
10000000
00000000
00010000
10000000
00100000
00000000
,
01000000
00010000
01000000
00000000
00001000
00100000
00001000
00000000
00010000
00000100
00010000
00000000
00000100
00001000
00000100
00000000
,
00000010
00000001
00000010
00000001
00000010
00000100
00000010
00000000
00000100
00001000
00000100
00001000
00000001
00001000
00000001
00000000
,
00000010
00000100
00001000
00000100
00010000
00000000
00001000
00000000
00022000
00000000
00000000
00000000
00033000
00000000
00000000
00000000
,
00001000
00100000
01000000
00000000
10000000
00100000
01000000
00000000
10000000
01000000
00010000
00000000
00100000
01000000
00010000
00000000
,
00001000
00000010
00000100
00000000
00001000
00000010
00000100
00000000
00001000
00000100
00000001
00000000
00001000
00000100
00000010
00000000
,
00000001
00000010
00000100
00010000
00001000
00100000
01000000
00000000
10000000
00100000
01000000
00001000
00010000
00000010
00000100
00000000
,
00001001
00000000
00000000
00000000
00001001
00000000
00000000
00000000
00001001
00000000
00000010
00000100
00000010
00000000
00000000
00000000
,
00000101
00000000
00001100
00000000
00011000
00000000
00010000
00100000
,
00000000
00000000
00100000
00000000
10000000
00000000
01000000
00000000
00100000
00010000
00100000
00010000
00100000
00000000
00001000
00000000
,
00011000
00000000
00000110
00000000
00001000
00010000
00000000
01100000
,
00000000
10000000
00010000
00001000
00000001
00000000
00001001
00000000
,
00000000
00000000
00000000
00000000
;
