
//----- song id: baku
#TITLE:爆なな☆てすとロイヤー;
#ARTIST:ARM feat.ななひら;
#TITLETRANSLIT:Bakunana Testroyer;
#ARTISTTRANSLIT:ARM feat. Nanahira;
#BANNER:Bakunana Testroyer.png;
#BACKGROUND:Bakunana Testroyer-bg.png;
#CDTITLE:./CDTitles/BeatStream.png;
#MUSIC:Bakunana Testroyer.ogg;
#SAMPLESTART:79.95;
#SAMPLELENGTH:15;
#BPMS:0=200;
#NOTES:
     dance-single:
     :
     Beginner:
     4:
     :
0000
0000
0000
0000
,
0000
0000
0000
0000
,
0000
0000
0000
0000
,
0000
0000
0000
0000
,
0000
0000
0000
0000
,
1000
0000
1000
0000
,
0001
0000
0001
0000
,
0010
0000
0010
0000
,
0100
0000
0100
0000
,
0020
0000
0000
0030
,
0000
0000
0000
0000
,
0001
0000
1000
0000
,
0001
0000
1000
1000
,
1000
0000
0001
0000
,
1000
0000
0001
0001
,
0001
0000
1000
0000
,
0001
0001
0001
0000
,
0010
0000
0010
0000
,
0010
0000
0010
0000
,
1000
0000
0100
0000
,
1000
0000
0100
0000
,
0001
0000
0100
0000
,
0001
0000
0100
0000
,
0010
0000
1000
0000
,
0010
0000
1000
0000
,
0002
0000
0000
0003
,
0000
0000
0000
0000
,
1000
0000
0100
0000
,
0001
0000
0100
0000
,
0001
0000
0100
0000
,
1000
1000
1000
0000
,
0000
0001
0000
1000
,
0000
0001
0000
1000
,
0000
0010
0000
0100
,
0000
0000
0000
0000
,
0000
0000
0000
0000
,
0000
0000
0000
0000
,
0000
0000
0000
0000
,
0001
0000
0000
0000
,
1000
0000
0000
0000
,
0100
0000
0000
0000
,
0010
0000
0000
0000
,
0001
0000
0001
0000
,
0010
0000
0000
0000
,
1000
0000
1000
0000
,
1000
0000
0000
0000
,
1000
0000
0001
0000
,
1000
0000
1000
0000
,
0001
0000
1000
0000
,
0001
0000
0001
0000
,
0010
0000
0000
0000
,
0100
0000
0000
0000
,
0010
0000
0010
0000
,
0010
0010
0010
0000
,
1000
0000
0001
0000
,
1000
0000
1000
0000
,
0001
0000
1000
0000
,
0001
0000
0001
0000
,
0010
0000
0000
0000
,
0000
0000
0000
0000
,
0010
0000
0000
0000
,
0001
0000
0000
0000
,
0100
0000
0000
0000
,
1000
0000
0000
0000
,
0001
0000
0000
0000
,
1000
0000
0001
0000
,
1000
0000
0000
0000
,
1000
1000
1000
0000
,
0001
0000
0001
0000
,
1000
0000
0001
0000
,
1000
0000
0100
0000
,
0001
0001
0001
0000
,
1000
0000
1000
0000
,
0001
0000
1000
0000
,
0001
0000
0100
0000
,
0010
0000
0000
0000
,
0001
0000
0000
0000
,
0100
0000
0000
0000
,
1000
0000
0000
0000
,
1000
0000
1000
0000
,
0010
0000
0010
0000
,
0100
0000
0100
0000
,
0001
0000
0000
0000
,
1000
0000
0000
0000
,
0001
0000
0000
0000
,
1000
0000
0000
0000
,
0001
0000
0000
0000
,
0001
0000
1000
0000
,
0001
0000
1000
1000
,
1000
0000
0001
0000
,
1000
0000
0001
0001
,
0001
0000
1000
0000
,
0100
0000
0100
0000
,
0010
0000
0010
0000
,
0010
0000
0010
0000
,
0000
0000
0000
0000
,
0100
0000
0100
0000
,
0000
0000
0000
0000
;
#NOTES:
     dance-single:
     :
     Easy:
     7:
     :
0000
0000
0000
0000
,
0000
0000
0000
0000
,
0000
0000
0000
0000
,
0000
0000
0000
0000
,
0000
0000
0000
0000
,
1000
0001
0000
0100
,
0001
1000
0000
0100
,
1000
0001
0000
0100
,
0001
1000
0000
0100
,
0020
0000
0000
0030
,
0000
0000
0000
0000
,
0001
0100
1000
0100
,
0001
0100
1000
1000
,
1000
0100
0001
0100
,
1000
0100
0001
0001
,
1000
1000
0001
0001
,
0100
0100
0100
0000
,
1000
0000
0010
0000
,
0100
0100
1001
0000
,
1000
0100
0000
1000
,
0001
0010
0000
0001
,
1000
0001
0000
1000
,
0100
0100
0100
0100
,
1000
0001
0000
1000
,
1000
0001
0000
0100
,
1001
0000
0110
0000
,
1000
0001
1000
0000
,
1000
0001
0000
1000
,
1000
0002
0103
0000
,
1000
0001
1000
0001
,
0100
0010
0100
0000
,
1000
0001
0100
0000
,
0001
1000
0100
0000
,
0010
0001
0100
1000
,
0010
0001
0200
0000
,
0000
0000
0000
0300
,
0000
0000
0000
0000
,
0000
0000
0000
0000
,
1000
0000
0010
0000
,
0001
0000
0010
0000
,
1000
0010
0100
0001
,
0001
0001
0001
0100
,
1000
0000
0001
0000
,
0001
0100
2000
3100
,
1000
0001
1000
0001
,
1000
1000
1000
0000
,
0010
0001
0100
0001
,
1000
0100
1000
0000
,
1000
0001
1000
0001
,
1000
0100
0010
0001
,
1000
0000
0010
0000
,
0002
0000
0200
0303
,
0000
1000
0000
0001
,
1000
1000
1000
0000
,
0010
1000
0100
1000
,
0001
0100
0001
0000
,
0001
1000
0001
1000
,
0001
0100
0010
1000
,
0001
0000
0010
0000
,
2000
0000
0200
3300
,
0010
0001
0100
1000
,
0010
0001
0100
1000
,
0010
0001
0100
1000
,
1001
0000
0000
0000
,
0110
0000
0000
0000
,
1001
0000
0110
0000
,
2002
0000
0000
3003
0000
0000
0000
0000
,
1000
1000
0001
0001
,
1000
0100
0001
0100
,
0010
1000
0010
0001
,
1000
0001
1000
0001
,
0001
0001
1000
1000
,
0001
0100
1000
0100
,
0010
0001
0010
1000
,
0001
1000
0001
1000
,
0010
0000
0001
0000
,
0100
0000
1000
0000
,
0001
0100
0001
0100
,
0001
0010
0100
1000
,
0001
0100
0100
0000
,
1000
0100
0100
0000
,
0010
0001
0010
1000
,
0010
0001
0100
0000
,
0100
0100
0100
0000
,
0001
0001
0001
0000
,
1000
1000
1000
0000
,
2002
0000
0000
3003
,
0001
0100
1000
0100
,
0001
0100
1000
1000
,
1000
0100
0001
0100
,
1000
0100
0001
0001
,
1000
1000
0001
0001
,
0100
0100
0100
0000
,
1000
0000
0010
0000
,
1000
0001
1000
0001
,
2002
0000
0000
3003
,
1000
0100
0220
0000
,
0330
0000
0000
0000
,
0000
0000
0000
0000
;
#NOTES:
     dance-single:
     :
     Medium:
     11:
     :
0000
0000
0000
0000
,
0000
0000
0000
0000
,
0000
0000
0000
0000
,
0000
0000
0000
0000
,
0000
0000
0000
0000
,
1000
0000
0001
1000
0000
0001
0100
0000
,
0001
0000
1000
0001
0000
1000
0100
0000
,
1000
0000
0001
1000
0000
0001
0100
0000
,
0001
0000
1000
0001
0000
1000
0100
1000
,
0020
0000
0000
0030
,
1000
0001
1000
0001
1000
0000
0001
0000
,
0001
0000
1000
0000
1000
0001
0010
0000
,
0010
0100
1100
0101
,
0100
0000
0001
0000
0100
0001
0100
0000
,
0001
0000
0100
0000
0001
1000
0100
0000
,
0100
0010
0001
0000
0100
0010
0100
0000
,
1000
0000
0100
0000
1000
0010
0100
0001
,
1000
0000
0010
0000
,
0100
0100
0100
0001
,
1000
0000
0001
0100
0000
0010
1000
0001
,
1000
0000
0001
0100
0000
0010
0100
0010
,
1000
0000
0001
0100
0000
0010
1000
0000
,
0100
0100
0100
0100
,
1000
0000
0001
0100
0000
0010
1000
0001
,
1000
0000
0001
0100
0000
0010
0100
0010
,
1000
0000
0011
0000
,
1000
0001
1000
0001
1000
0010
0100
0001
,
1000
0000
0001
0100
0000
0010
1000
0001
,
1000
0000
0001
0010
0100
0000
0000
0000
,
1000
0000
0001
0100
0000
0010
1000
0010
,
0100
0010
0100
0010
,
1000
0000
0001
1000
0100
0000
0000
0000
,
1000
0000
0100
1000
0100
0000
0000
0000
,
0100
0001
0100
1000
,
0001
1000
0002
0000
,
0000
0000
0000
0003
,
0000
0000
0000
0000
,
0000
0000
0000
0000
,
1000
0000
0010
0000
,
0001
0100
0000
0000
0001
0000
0000
0000
,
1000
0010
0100
0001
,
1000
0001
1000
0001
,
1000
0000
0010
0100
0001
0000
0010
0000
,
0001
0100
2000
3100
,
1000
0001
1000
0001
,
1000
0001
0000
1000
0100
0000
0000
0000
,
0001
0000
1000
0000
0010
0100
0010
0000
,
0010
0000
1000
0000
0100
1000
0100
0000
,
1000
0000
0001
0000
1000
0010
1000
0000
,
1000
0100
0010
0001
,
1000
0010
0100
0001
0010
0000
0100
0000
,
2000
0000
0200
3300
,
0000
1100
0000
0101
,
1000
0010
0000
0100
0000
0000
0000
0000
,
0001
1000
0010
0100
,
0010
0000
0000
1000
0000
0000
0001
0000
1000
0000
0100
0000
,
1000
0000
0001
0000
1000
0010
1000
0010
,
1000
0100
0010
0001
,
1000
0020
0000
0000
0000
0000
0030
0000
,
1000
0100
0010
0001
0200
0000
0300
0000
,
0010
0001
0100
1000
,
0010
0001
0100
1000
,
0010
0010
0001
1000
,
0001
0000
0100
0000
1000
0001
0100
0000
,
1000
0000
0100
0000
0001
1000
0100
0000
,
1000
0000
0001
0010
0001
0000
0010
0000
,
2002
0000
0000
3003
0000
0000
0000
0000
,
0010
0000
1000
0000
1000
0001
0010
0000
,
0001
0000
1000
0000
0001
1000
0010
0100
,
0010
0000
1000
0000
0001
0000
0010
0100
,
1000
0001
1000
0001
,
0010
0000
1000
0000
1000
0001
0010
0000
,
0001
0000
1000
0000
0001
1000
0010
0000
,
0010
0000
1000
0000
0001
0000
0010
0100
,
1000
0001
1000
0001
,
1000
0000
0001
0000
0010
0001
0000
0100
,
0000
0010
1000
0010
0000
1000
0010
0100
,
0001
0001
0001
0001
,
0001
0010
0100
1000
,
0001
0000
0000
1000
0100
0000
0000
0000
,
1000
0000
0000
0001
0100
0000
0000
0000
,
0001
0000
0000
0100
0000
0001
0010
0001
,
1000
0100
0000
0020
0000
0000
0030
0000
,
0100
0010
0100
0010
0100
0000
0000
0000
,
0001
0010
0001
0010
0001
0000
0000
0000
,
1000
0100
1000
0100
1000
0000
0000
0000
,
2002
0000
0000
3003
,
1000
0000
0001
0000
0001
1000
0010
0000
,
0010
0100
0101
1100
,
0100
0000
1000
0000
0100
1000
0100
0000
,
1000
0000
0100
0000
1000
0001
0100
0000
,
0100
0010
1000
0000
0100
0010
0100
0000
,
0001
0000
0100
0000
0001
0010
0100
1000
,
0001
0000
0010
0000
,
0100
0010
0100
0010
0100
0000
0001
0000
,
1001
0000
0000
0000
,
1000
0001
0100
0002
0000
0000
0000
0000
,
0000
0000
0000
0003
,
0000
0000
0000
0000
;
#NOTES:
     dance-single:
     :
     Hard:
     13:
     :
0000
0000
0000
0000
,
0000
0000
0000
0000
,
0000
0000
0000
0000
,
0000
0000
0000
0000
,
0000
0000
0000
0000
,
0001
0000
1000
0001
0000
1000
0010
1000
,
0001
0000
1000
0001
0000
1000
0010
1000
,
0001
0000
1000
0001
0000
1000
0010
1000
,
0001
0000
1000
0001
0000
1000
0010
1000
,
0200
0000
0000
0300
,
0001
1000
0100
1000
0001
1000
0100
0000
,
1000
0010
0001
0100
0001
1000
0100
1000
,
0100
1000
0010
1000
0001
0100
0010
1000
,
1010
0000
1001
0000
0010
1000
0100
0010
,
0001
0100
0010
0100
0010
1000
0010
1000
,
0010
0100
0001
1000
0010
0100
0010
1000
,
0001
0100
0001
0100
0001
0100
0010
1000
,
1010
0000
0110
0000
,
0010
0100
0010
0100
1000
0000
1001
0000
,
0001
0000
1000
0010
0000
0100
0001
1000
,
0001
0000
1000
0010
0000
0100
0010
0100
,
0001
0000
1000
0010
0000
0100
0001
1000
,
0001
1000
0000
0000
0001
0000
1000
0000
0001
0000
0000
0000
0110
0000
0000
0000
,
0001
0000
1000
0010
0000
0100
0001
1000
,
0001
0000
1000
0010
0000
0100
0010
0100
,
0001
0000
1100
0000
,
0001
0100
0010
1000
0001
0100
0010
1000
,
0001
0000
1000
0010
0000
0100
0001
1000
,
0001
0000
1000
0100
0110
0000
0100
0000
,
0001
0000
1000
0010
0000
0100
0001
0100
,
0010
1000
0100
0010
0100
0010
0110
0000
,
1000
0100
1000
0001
0010
0000
0001
0000
,
1000
0100
0010
0001
0010
0000
0001
0000
,
0011
1100
0110
0011
,
0010
0001
0010
0100
2000
0000
0000
0000
,
0000
0000
0000
3000
,
0000
0000
0000
0000
,
0000
0000
0000
0000
,
0002
0000
0103
0000
,
1000
0010
0000
0000
1000
0000
0000
0000
,
0001
0000
0100
0010
0100
0010
1000
0100
,
0001
0010
0000
0000
1000
0100
0000
0000
0001
0010
0000
0000
1000
0100
0000
0000
,
0001
0000
0100
0010
1000
0000
0100
0010
,
0001
0100
0010
1000
0002
0000
0013
0000
,
0011
1100
0011
1100
,
0001
1000
0000
0001
0010
0001
0010
0100
,
1000
0010
0100
0001
0100
0010
1000
0010
,
0100
0001
0010
0001
0100
0001
0010
0000
,
0001
1000
0001
1000
0001
0100
0001
0100
,
0001
0110
1100
1010
,
0001
0100
0010
1000
0100
1000
0010
0100
,
0002
0000
0020
0033
,
0000
0011
0000
1010
,
0001
0100
0000
0010
0100
0010
1000
0100
,
1000
0010
0100
0001
0100
0001
0100
0010
,
0100
0000
0000
0010
0000
0000
1000
0000
0000
0100
0000
0000
1000
0000
0000
0000
0001
0000
0000
0000
0010
0000
0000
0000
,
0001
1000
0001
1000
0001
0100
0001
0100
,
0001
0110
1100
1010
,
0001
0200
0000
0000
0000
0000
0310
0000
,
0001
0010
0100
1000
0020
0000
0130
0000
,
0010
0100
0001
0000
0010
0100
0001
0000
,
0100
0010
0100
0000
0010
1000
0001
0000
,
0100
0010
0100
0000
1000
0100
1000
0000
,
0001
0100
0010
1000
0001
1000
0010
0000
,
1000
0100
0010
0001
1000
0001
0010
0000
,
1001
0000
1000
0100
1000
0000
0110
0000
,
2002
0000
3003
0000
0000
0001
1000
0001
,
0100
0010
1000
0010
1000
0001
0100
0010
,
1000
0010
0100
0010
1000
0001
0100
0010
,
0100
0000
0001
0000
1000
0000
0100
0010
,
0001
0011
1010
0011
,
0100
0010
0001
0010
0001
1000
0100
0010
,
0001
0010
0100
0010
0001
1000
0100
0010
,
0100
0000
1000
0000
0001
0000
0100
0010
,
1000
1010
0011
1010
,
0001
0000
1000
0000
0100
1000
0000
0010
,
0000
0100
0001
0100
0000
0001
0100
0010
,
1000
0100
1000
0010
0100
0001
1000
0100
,
1000
1100
0110
0011
,
1000
0000
0000
0001
0010
0000
0100
0000
,
1000
0000
0000
0000
0000
0000
0001
0100
0010
0000
0000
0000
0000
0000
0000
0000
,
1000
0000
0000
0010
0000
1000
0100
1000
,
0001
0010
0000
0200
0000
0000
0310
0000
,
0010
0100
0001
0100
0010
0000
0110
0000
,
1000
0100
0001
0100
1000
0000
1010
0000
,
0001
0010
0001
0010
0001
0000
1001
0000
,
1000
0100
0010
0001
0010
0100
1000
0000
,
0001
0010
1000
0100
1000
0001
0100
0001
,
0100
0001
0010
0001
1000
0100
0010
0001
,
0011
0000
1001
0000
0010
0001
0100
0010
,
1000
0100
0010
0100
0010
0001
0010
0001
,
0010
0100
1000
0001
0010
0100
0010
0001
,
1000
0100
1000
0100
1000
0100
0010
0001
,
0011
0000
0110
0000
,
0010
0100
0010
0100
0001
0000
1000
0000
,
1001
0110
0010
0100
,
0001
0100
0010
2000
0000
0000
0000
0000
,
0000
0000
0000
3000
,
0000
0000
0000
0000
;
#NOTES:
     dance-double:
     :
     Easy:
     7:
     :
00000000
00000000
00000000
00000000
,
00000000
00000000
00000000
00000000
,
00000000
00000000
00000000
00000000
,
00000000
00000000
00000000
00000000
,
00000000
00000000
00000000
00000000
,
00001000
00000001
00000000
00000100
,
00000001
00000100
00000000
00001000
,
00010000
01000000
00000000
10000000
,
01000000
10000000
00000000
01000000
,
00200000
00000000
00000000
00300000
,
00000000
00000000
00000000
00000000
,
10000000
00000000
01000000
00000000
,
00010000
00000000
00001000
00000100
,
00000001
00000000
00000100
00000000
,
00001000
00000000
00010000
01000000
,
10000000
00000000
01000000
00000000
,
00010000
00001000
00010000
00000000
,
00001000
00000000
00000100
00000000
,
00000001
00000010
00001001
00000000
,
00000001
00000010
00000000
00001000
,
00010000
00100000
00000000
10010000
,
10000000
01000000
00000000
00010000
,
00001000
00010000
00001000
00010000
,
00001000
00000100
00000000
00000001
,
00000001
00000100
00000000
00001000
,
00010000
00000000
00100000
00000000
,
10000000
00010000
10000000
00000000
,
10000000
00010000
00000000
10000000
,
10000000
01000000
00010000
00000000
,
00001000
00010000
00001000
00010000
,
00001000
00000100
00000001
00000000
,
00000001
00000100
00001000
00000000
,
00010000
01000000
10000000
00000000
,
00100000
10000000
01000000
00010000
,
00001000
00010000
00000200
00000000
,
00000000
00000000
00000000
00000300
,
00000000
00000000
00000000
00000000
,
00000000
00000000
00000000
00000000
,
00001000
00000000
00000010
00000000
,
00000001
00000000
00000010
00000000
,
00001000
00010000
00001000
00010000
,
00001000
00010000
00001000
00010000
,
01000000
00000000
10000000
00000000
,
00010000
01000000
10000000
10000000
,
10000000
01000000
00010000
00001000
,
00000100
00000000
00000100
00000000
,
00000001
00000010
00001000
00010000
,
00001000
00010000
01000000
00000000
,
10000000
00010000
10000000
00010000
,
10000000
01000000
00010000
00001000
,
00000010
00000000
00000001
00000000
,
00000002
00000000
00000200
00000303
,
00000000
00001000
00000000
00010000
,
01000000
10000000
10000000
00000000
,
10000000
00100000
00010000
00001000
,
00010000
00001000
00000100
00000000
,
00000001
00001000
00000001
00001000
,
00000001
00000100
00001000
00010000
,
00100000
00000000
10000000
00000000
,
20000000
00000000
02000000
33000000
,
10000000
00000000
01000000
00000000
,
00010000
00000000
00001000
00000000
,
00000010
00000001
00000100
00001000
,
00000110
00000000
00000000
00000000
,
00011000
00000000
00000000
00000000
,
01100000
00000000
01100000
00000000
,
20020000
00000000
00000000
30030000
00000000
00000000
00000000
00000000
,
10000000
10000000
01000000
01000000
,
00010000
00001000
00000100
00000000
,
00000001
00000100
00000001
00000100
,
00000001
00000000
00000100
00000000
,
00000001
00000001
00000100
00000100
,
00001000
00010000
01000000
00000000
,
10000000
01000000
10000000
01000000
,
10000000
00000000
01000000
00000000
,
00010000
00000000
00001000
00000000
,
00000100
00000000
00000001
00000000
,
00000001
00000100
00000001
00000100
,
00001000
00010000
01000000
00000000
,
10000000
01000000
01000000
00000000
,
00010000
00001000
00001000
00000000
,
00000100
00000001
00000100
00000001
,
00000010
00000001
00000100
00000000
,
00001000
00001000
00001000
00000000
,
00010000
00010000
00010000
00000000
,
01000000
01000000
01000000
00000000
,
20020000
00000000
00000000
30030000
,
10000000
00000000
01000000
00000000
,
00010000
00000000
00001000
00000100
,
00000001
00000000
00000100
00000000
,
00001000
00000000
00010000
01000000
,
10000000
00000000
01000000
00000000
,
00010000
00001000
00010000
00000000
,
00001000
00000000
00000100
00000000
,
00000001
00000010
00000001
00000100
,
00022000
00000000
00000000
00033000
,
00010000
01000000
02200000
00000000
,
03300000
00000000
00000000
00000000
,
00000000
00000000
00000000
00000000
;
#NOTES:
     dance-double:
     :
     Medium:
     10:
     :
00000000
00000000
00000000
00000000
,
00000000
00000000
00000000
00000000
,
00000000
00000000
00000000
00000000
,
00000000
00000000
00000000
00000000
,
00000000
00000000
00000000
00000000
,
00001000
00000000
00000001
00001000
00000000
00000001
00000100
00000000
,
00000001
00000010
00001000
00010000
,
01000000
00000000
10000000
00010000
00000000
10000000
01000000
00000000
,
00010000
00001000
00000100
00000001
,
00000020
00000000
00000000
00000030
,
00001000
00010000
00001000
00010000
00001000
00000000
00010000
00000000
,
00010000
01000000
01000000
10000000
,
10000000
01000000
01010000
11000000
,
01000000
10000000
01000000
00010000
,
00001000
00000100
00000110
00000101
,
00000100
00000010
00001000
00000000
00000100
00010000
00001000
00000000
,
00010000
00000000
01000000
00000000
10000000
00100000
01000000
00000000
,
00010000
00000000
00100000
00000000
,
10000000
01000000
00010000
00011000
,
00001000
00000000
00010000
00000000
00000000
00010000
00001000
00010000
,
00001000
00010000
00001000
00000110
,
00000001
00000000
00000100
00000001
00000000
00001000
00000001
00000000
,
00000010
00001000
00010000
01000000
,
10000000
00000000
00010000
00000000
00000000
10000000
00010000
10000000
,
00010000
01000000
00001000
00011000
,
00001000
00000000
00000110
00000000
,
00000001
00000100
00000001
00000100
,
00001000
00000000
00010000
00000000
00000000
00001000
00010000
00001000
,
00010000
00001000
00011000
00000000
,
00010000
00000000
01000000
10000000
00000000
01000000
10000000
00000000
,
00100000
10000000
01000000
11000000
,
00000000
01000000
00010000
00011000
,
00000000
00010000
00001000
00011000
,
00001000
00000000
00000110
00000000
,
00000001
00000100
00000002
00000000
,
00000000
00000000
00000000
00000003
,
00000000
00000000
00000000
00000000
,
00000000
00000000
00000000
00000000
,
00001000
00000000
00010000
00000000
,
00010000
01000000
10000000
00000000
,
10000000
00100000
01000000
00001000
,
00010000
00001000
00010000
00001000
,
00000100
00000000
00000001
00000010
00000001
00000000
00000010
00000000
,
00000001
00000100
00001000
00010000
,
00001000
00010000
00001000
00010000
,
00001000
00100000
00000000
00010000
01000000
00000000
00000000
00000000
,
00010000
00000000
10000000
00000000
00100000
01000000
00100000
00000000
,
10000000
01000000
00010000
00001000
,
00000010
00000000
00000001
00000000
00000010
00000001
00000010
00000000
,
00000001
00000100
00001000
00010000
,
01000000
00100000
01000000
10000000
00100000
00000000
01000000
00000000
,
00020000
00000000
02000000
03030000
,
00000000
00011000
00000000
00001100
,
00000010
00000100
00000000
00000001
00000000
00000000
00000000
00000000
,
00000001
00000001
00000100
00000100
,
00001000
00000000
00000000
00010000
00000000
00000000
01000000
00000000
10000000
00000000
01000000
00000000
,
10000000
00000000
00010000
00000000
10000000
00100000
10000000
00100000
,
10000000
01000000
00010000
00001000
,
00010000
00002000
00000000
00000000
00000000
00000000
00003000
00000000
,
00010000
00000100
00010000
00000100
00002000
00000000
00003000
00000000
,
00000010
00000100
00001000
00010000
,
01000000
10000000
00100000
01000000
,
00010000
00100000
00010000
10000000
,
10000000
00000000
01000000
00000000
00010000
00001000
00010000
00000000
,
00001000
00000000
00000100
00000000
00000001
00000010
00000001
00000000
,
00001000
00000000
00000001
00000100
00000001
00000000
00000100
00000000
,
00002000
00000000
00003000
00000000
00010000
00001000
00010000
00000000
,
00100000
00000000
10000000
00000000
10000000
00010000
00100000
00000000
,
00010000
00000000
10000000
00000000
00010000
10000000
00100000
00000000
,
10000000
01000000
00010000
00001000
,
00000100
00000001
00000010
00000001
,
00000010
00000000
00000001
00000000
00000001
00001000
00000010
00000000
,
00001000
00000000
00000001
00000000
00001000
00000001
00000010
00000000
,
00000001
00000100
00001000
00010000
,
01000000
10000000
01000000
10000000
,
01000000
00000000
10000000
00000000
00010000
00100000
00000000
00001000
,
00000000
00010000
00001000
00010000
00000000
00000100
00000010
00000100
,
00000001
00000001
00000100
00000100
,
00001000
00010000
01000000
10000000
,
00010000
00000000
00000000
10000000
01000000
00000000
00000000
00000000
,
00100000
00000000
00000000
00001000
00010000
00000000
00000000
00000000
,
00010000
00000000
00000000
00000100
00000000
00001000
00000010
00000100
,
00000001
00000100
00000000
00000020
00000000
00000000
00000030
00000000
,
00000100
00000010
00000100
00000010
00000100
00000000
00000000
00000000
,
00001000
00010000
00001000
00010000
00001000
00000000
00000000
00000000
,
00010000
01000000
00010000
01000000
00010000
00000000
00000000
00000000
,
22000000
00000000
00000000
33000000
,
00010000
01000000
01000000
10000000
,
10000000
01000000
01010000
11000000
,
01000000
10000000
01000000
00010000
,
00001000
00000100
00000110
00000101
,
00000100
00000010
00001000
00000000
00000100
00010000
00001000
00000000
,
00010000
00000000
01000000
00000000
10000000
00100000
01000000
00000000
,
00010000
00000000
00100000
00000000
,
10000000
01000000
00010000
00011000
,
00022000
00000000
00000000
00033000
,
00001000
00010000
00001000
00000200
00000000
00000000
00000000
00000000
,
00000000
00000000
00000000
00000300
,
00000000
00000000
00000000
00000000
;
#NOTES:
     dance-double:
     :
     Hard:
     12:
     :
00000000
00000000
00000000
00000000
,
00000000
00000000
00000000
00000000
,
00000000
00000000
00000000
00000000
,
00000000
00000000
00000000
00000000
,
00000000
00000000
00000000
00000000
,
00010000
00000000
00001000
00010000
00000000
00001000
00100000
00001000
,
00010000
00000000
00001000
00010000
00000000
00001000
00010000
00001000
,
00010000
00000000
00000100
00010000
00000000
00001000
00010000
00001000
,
00010000
00000000
00000100
00010000
00000000
00001000
00000100
00000001
,
00000020
00000000
00000000
00000030
,
00000001
00001000
00000100
00001000
00000001
00001000
00000100
00000000
,
00001000
00000000
00010000
00000000
01000000
10000000
00100000
00000000
,
01000000
00100000
11000000
01010000
,
10000000
00000000
01000000
00000000
00010000
00001000
00000100
00000000
,
00000001
00000000
00000100
00000000
00000001
00001000
00000100
00000000
,
00000001
00000100
00001000
00000000
00010000
00001000
01000000
00000000
,
00010000
00000000
00100000
00000000
01000000
00010000
00001000
00000100
,
00000001
00000000
00000010
00000000
,
00000001
00000100
00001000
00010000
00001000
00000000
00010000
00000000
,
00100000
00000000
10000000
00100000
00000000
01000000
00010000
10000000
,
01000000
00000000
10000000
00100000
00000000
01000000
00001000
00010000
,
00001000
00000000
00000100
00000001
00000000
00000010
00000001
00000000
,
00000011
00001010
00011000
00101000
,
00010000
00000000
00001000
00100000
00000000
00010000
01000000
00010000
,
10000000
00000000
01000000
00100000
00000000
01000000
00100000
01000000
,
00010000
00000000
00011000
00000000
,
00010000
00001000
00100000
00001000
00010000
00001000
00100000
00001000
,
00010000
00000000
00001000
00000000
00000100
00000000
00000001
00000010
,
00000001
00000000
00000010
00000100
00000010
00000000
00000000
00000000
,
00000001
00000000
00000100
00000000
00001000
00010000
00100000
01000000
,
00100000
10000000
00010000
00100000
01000000
00100000
01000000
00000000
,
10000000
01000000
00010000
00001000
00000010
00000000
00000000
00000000
,
00000001
00000100
00001000
00010000
00001000
00000000
00000000
00000000
,
00011000
01010000
01100000
11000000
,
10000000
01000000
00100000
00001000
00020000
00000000
00000000
00000000
,
00000000
00000000
00000000
00030000
,
00000000
00000000
00000000
00000000
,
00000000
00000000
00000000
00000000
,
00001000
00000000
00000010
00000000
,
00000001
00000000
00000100
00000000
,
00001000
00000000
00010000
00100000
10000000
00000000
01000000
00000000
,
10000000
01000000
00000000
00000000
01000000
00010000
00000000
00000000
00010000
00001000
00000000
00000000
00001000
00000010
00000000
00000000
,
00001000
00000000
00000100
00001000
00000001
00000000
00000100
00000010
,
00000100
00001000
00010000
00001000
00020000
00000000
00031000
00000000
,
00110000
01100000
11000000
11000000
,
00010000
10000000
00000000
00010000
00000000
00000000
00000000
00000000
,
10000000
00100000
01000000
00010000
01000000
00001000
00010000
00000000
,
00000100
00001000
00000010
00000001
00000100
00000001
00000010
00000000
,
00000001
00001000
00000001
00001000
00000001
00000100
00000001
00000100
,
00000001
00000110
00001100
00011000
,
00100000
01000000
00100000
10000000
01000000
10000000
00100000
01000000
,
00020000
00000000
00002000
00033000
,
00000000
00011000
00000000
00000110
,
00000001
00000100
00000000
00000010
00000000
00000000
00000100
00000000
,
00000001
00000010
00000100
00001000
00000100
00010000
00001000
00000000
,
01000000
00000000
00000000
00010000
00000000
00000000
00100000
00000000
00000000
00010000
00000000
00000000
10000000
00000000
00000000
00000000
00010000
00000000
00000000
00000000
00100000
00000000
00000000
00000000
,
00010000
10000000
00010000
10000000
00010000
01000000
00010000
01000000
,
00010000
00011000
00001100
00000110
,
00000001
00000200
00000000
00000000
00000000
00000000
00000300
00000000
,
00000001
00000010
00000100
00001000
00000020
00000000
00000130
00000000
,
00001000
00010000
00001000
00000000
00100000
00010000
00100000
00000000
,
01000000
10000000
01000000
00000000
10000000
01000000
10000000
00000000
,
01000000
00100000
01000000
00000000
00010000
00001000
00010000
00000000
,
00010000
00001000
00100000
00001000
00010000
00001000
00000100
00000000
,
00000001
00000100
00000010
00001000
00000001
00001000
00000010
00000000
,
00000001
00000000
00000010
00010000
00001000
00000000
00011000
00000000
,
02200000
03300000
00000000
00000000
,
10000000
01000000
00010000
00001000
00000010
00000000
00000001
00000000
,
00000100
00000001
00000100
00001000
00010000
00000000
01000000
00000000
,
10000000
00010000
10000000
01000000
,
00110000
00011000
00001100
00000110
,
00000010
00000100
00001000
00010000
00100000
00000000
10000000
00000000
,
01000000
10000000
01000000
00010000
00001000
00000000
00000100
00000000
,
00000001
00001000
00000001
00000100
,
00001010
00011000
01010000
01100000
,
00010000
00000000
10000000
00000000
00010000
01000000
00000000
00001000
,
00000000
00010000
00000100
00001000
00000000
00000001
00000100
00000010
,
00001000
00000100
00001000
00000010
00000100
00001000
00010000
00001000
,
00010000
00011000
00110000
01100000
,
10000000
00000000
00000000
00010000
00100000
00000000
00001000
00000000
,
00010000
00000000
00000000
00000000
00000000
00000000
00001000
00010000
00001000
00000000
00000000
00000000
00000000
00000000
00000000
00000000
,
00010000
00000000
00000000
00000010
00000000
00001000
00000100
00001000
,
00000001
00000010
00000000
00000002
00000000
00000000
00000003
00000000
,
00000001
00000100
00001000
00010000
00100000
00000000
00000000
00000000
,
10000000
01000000
10000000
01000000
00010000
00000000
00000000
00000000
,
00001000
00010000
00001000
00010000
00001000
00000000
00000000
00000000
,
00010000
00001000
00100000
00010000
00100000
00001000
00010000
00000000
,
00011000
00000000
00001000
00000000
00000100
00000001
00000010
00000000
,
00000100
00000010
00000101
00001100
,
00000001
00000000
00000100
00000000
00001000
00010000
01000000
00000000
,
10000000
00000000
01000000
00000000
10000000
00010000
01000000
00000000
,
10000000
01000000
00010000
00000000
00001000
00010000
00000100
00000000
,
00001000
00000000
00000010
00000000
00000100
00001000
00010000
01000000
,
10000000
00000000
00100000
00000000
,
10000000
01000000
00010000
00001000
00010000
00000000
00001000
00000000
,
00000110
00000000
00000000
00000000
,
00001000
00000100
00000010
00000002
00000000
00000000
00000000
00000000
,
00000000
00000000
00000000
00000003
,
00000000
00000000
00000000
00000000
;
