
//----- song id: ayak
#TITLE:妖隠し -あやかしかくし-;
#ARTIST:DJ TOTTO feat.3L;
#TITLETRANSLIT:Ayakashi kakushi;
#BANNER:Ayakashi kakushi.png;
#BACKGROUND:Ayakashi kakushi-bg.png;
#CDTITLE:./CDTitles/DDR (2014).png;
#MUSIC:Ayakashi kakushi.ogg;
#SAMPLESTART:61.416;
#SAMPLELENGTH:15;
#BPMS:0=85;
#NOTES:
     dance-single:
     :
     Beginner:
     4:
     :
0000
0000
0000
0000
,
0000
0000
0000
0000
,
0000
0000
1000
0000
1000
0001
0000
0000
,
0001
0000
0000
0010
0000
0000
0001
0000
,
0001
1000
0000
0000
1000
0000
0000
0010
,
0000
0000
1000
0000
1000
0001
0000
0000
,
0001
0000
0000
0100
0000
0000
0001
0000
,
0001
1000
0000
0000
1000
0000
0000
0100
,
0000
0000
0010
0010
0000
0001
0000
0000
,
1000
0000
0000
1000
0000
0000
0010
0010
,
0000
1000
0000
0000
0001
0000
0000
0001
,
0000
0000
1000
1000
0000
0001
0000
0000
,
1000
0000
0000
1001
0000
0000
0001
0001
,
0000
1000
0000
0000
0001
0000
0000
1001
,
0000
0010
0010
0010
,
0001
0000
0000
0001
0000
0000
1000
0000
,
1000
1000
0000
0000
0001
0000
0001
0001
,
0000
0010
0010
0010
,
1000
0000
0000
1000
0000
0000
0001
0000
,
0001
0001
0000
0000
1000
0000
1000
1000
,
0000
1001
0000
0000
,
1001
0000
0000
1000
,
1000
0010
0000
0000
0001
0000
0001
0010
,
0000
0000
0100
0000
0000
0100
0000
0000
,
1000
0000
0000
1000
0000
0000
0001
0000
,
0001
0100
0000
0000
1000
0000
1000
0100
,
0000
0000
0010
0000
0000
0010
0000
0000
,
0001
0000
0000
0001
0000
0000
1001
0000
,
0000
0000
0100
0000
,
0000
1001
0000
0000
,
0010
0000
0000
1001
,
0000
0000
0100
0000
,
0000
1001
0000
0000
,
0010
0000
0000
0001
,
0000
1000
0000
0000
0001
0000
0001
0010
,
0000
0000
0100
0000
0000
0100
0000
0000
,
1000
0000
0000
1000
0000
0000
0001
0000
,
0001
0100
0000
0000
1000
0000
1000
0100
,
0000
0000
0010
0000
0000
0010
0000
0000
,
0001
0000
0000
0001
0000
0000
1000
0000
,
1000
0001
0000
0000
0001
0000
0000
0010
,
0000
0000
0001
0000
0001
1000
0000
0000
,
1000
0000
0000
0010
0000
0000
0000
0000
,
0000
0000
0000
0000
;
#NOTES:
     dance-single:
     :
     Easy:
     7:
     :
0000
0000
0000
0000
,
0000
0000
0000
0000
,
0000
0000
0000
0000
1000
0000
0001
0000
0010
0100
0010
0000
0000
0000
0000
0000
,
0001
1000
0001
0010
0000
0000
0001
1000
,
0010
0100
0010
0000
0000
0000
0000
0000
1000
0000
0001
0000
1000
0000
0010
0000
,
0000
0000
0000
0000
1000
0000
0001
0000
0100
0010
0100
0000
0000
0000
0000
0000
,
0001
1000
0001
0100
0000
0000
0001
1000
,
0100
0010
0100
0000
0000
0000
0000
0000
1000
0000
0001
0000
1000
0000
1001
0000
,
0000
0000
0010
1000
0100
0010
0001
1000
,
0010
0100
0001
1000
0000
0000
0001
0010
,
0100
0010
0100
1000
0001
0000
0000
0000
,
0000
0000
1000
0001
0010
0100
1000
0100
,
0010
0001
0100
0010
0000
0000
1000
0001
,
0100
1000
0100
0001
1000
0100
0001
0100
,
0000
0000
0010
0001
1000
0100
0010
0001
,
1000
0000
0000
0001
0000
0000
1001
0000
0000
0000
0000
0000
0010
0000
0001
0000
,
0010
0100
1000
0100
0001
0100
1000
0010
,
0000
0000
0100
0001
0100
0010
1000
0001
,
1000
0000
0000
0001
0000
0000
1001
0000
0000
0000
0000
0000
0010
0000
1000
0000
,
0100
0010
0001
0010
0100
0000
1000
0001
,
0100
0010
1000
0100
0010
0001
1000
0001
,
0010
0100
1000
0001
0000
0000
1000
0001
,
0010
0100
0010
0000
0000
0000
0000
0000
0001
0000
0100
0000
0010
1000
0010
0000
,
0000
0000
1000
0010
0100
0001
1000
0100
,
0010
0001
1000
0010
0000
0000
1000
0001
,
0010
0100
0010
0000
0000
0000
0000
0000
0001
0000
0100
0000
0010
1000
0010
0000
,
0000
0000
1000
0001
0100
0001
0010
0100
,
2000
0000
3000
0000
0001
0000
0001
0000
1000
0000
0010
0100
0020
0000
0000
0000
,
0030
0200
0000
0300
0002
0000
0003
1000
,
0001
1000
0200
0000
0300
2000
0000
3000
,
0020
0000
0030
0100
0001
0100
0002
0000
,
0003
0020
0000
0030
0200
0000
0300
1000
,
0010
1000
0200
0000
0300
0020
0000
0030
,
0002
0000
0003
1000
0010
0100
0001
0000
,
0000
0000
1000
0000
0000
0000
0000
0000
0001
0000
0100
0000
0010
1000
0010
0000
,
0000
0000
1000
0010
0100
0001
1000
0100
,
0010
0001
1000
0010
0000
0000
1000
0001
,
0010
0100
0010
0000
0000
0000
0000
0000
0001
0000
0100
0000
0010
1000
0010
0000
,
0000
0000
1000
0001
0100
0001
0010
0100
,
2000
0000
3000
0000
0001
0000
0001
0000
1000
0000
0010
0100
0001
0000
1000
0000
,
0100
0010
0100
0000
0000
0000
0000
0000
1000
0000
0001
0000
1000
0000
0100
0000
,
0000
0000
0000
0000
1000
0000
0001
0000
0100
0010
0100
0000
0000
0000
0000
0000
,
0001
1000
0001
1001
0100
0010
0000
0000
,
0000
0000
0000
0000
;
#NOTES:
     dance-single:
     :
     Medium:
     11:
     :
0000
0000
0000
0000
,
0000
0000
0000
0000
,
0000
0000
0000
0000
1000
0100
1000
0100
0010
0000
0002
0000
0103
0010
1000
0000
,
0001
0010
0001
0010
0100
0000
1000
0010
0100
0001
0010
0000
0100
1000
0100
1000
,
0001
0000
0200
0000
0310
1000
0001
0000
0010
0100
0010
0100
1000
0000
0001
0100
,
1000
0001
0010
1000
0010
0100
0010
0100
0001
0000
0020
0000
0130
1000
0001
0000
,
0100
0010
0100
0010
1000
0000
0001
0010
0100
1000
0010
0000
0100
0001
0100
0001
,
0010
0000
0100
1000
0001
0100
0010
1000
0001
0010
0100
1000
0001
0010
0200
0000
,
0000
0310
0000
0000
0110
0000
0001
1000
0100
0010
0001
0000
0100
0000
0010
0000
,
0110
0000
1000
0001
1000
0000
0011
0000
0010
0100
1000
0100
0010
0000
0001
0100
,
1000
0100
0001
0000
0010
0000
0100
0000
1000
0000
0001
0010
0001
0000
0100
0010
,
0100
0000
1000
0000
0110
0000
0001
1000
0100
0010
0001
0000
0100
0000
0010
0000
,
0101
0000
0100
1000
0100
0000
1100
0000
0001
0010
1000
0010
0001
0000
1000
0100
,
0001
0100
1000
0000
0010
0000
0100
0000
0001
0000
1000
0100
0001
1000
0010
0000
,
0100
0000
0110
0000
1001
0000
0001
0100
0000
0100
0010
0000
1000
0000
0001
0000
,
0021
0000
0000
1000
0000
0000
0031
0000
0010
0100
1000
0000
1001
0000
0001
0100
,
0000
0100
0010
0000
0010
1000
0000
1000
0100
0000
0100
0001
0000
0001
0200
0000
,
0010
0000
0310
0000
1001
0000
0001
0100
0000
0100
0010
0000
0010
0000
1000
0000
,
0002
0000
0000
0010
0000
0000
1003
0000
0100
0010
0001
0000
1000
0000
1000
0100
,
0000
0100
0001
0000
0001
0100
0000
0100
0020
0000
0031
0000
0100
0001
0100
0000
,
0010
0000
1000
0000
0002
0000
0100
0000
1000
0000
0010
0000
1003
0001
1000
0000
,
2000
0000
0100
0000
0001
0000
3010
0100
0010
0000
1001
0000
0110
0000
0011
0000
,
0100
1000
0100
0000
0010
0001
0010
0000
0101
0000
1100
0000
0010
1000
0100
0000
,
0010
0001
1000
0010
0100
0000
0001
1000
0100
0010
0001
0000
1000
0010
0100
0001
,
0010
0000
0100
1000
0100
0010
0001
0000
0010
0100
0010
0000
0011
0000
0110
0000
,
1000
0001
1000
0000
0010
0100
0010
0000
0011
0000
0110
0000
1000
0001
1000
0000
,
0001
0010
0100
1000
0010
0000
0100
0001
1000
0100
0010
0000
0001
0100
0010
1000
,
0100
0000
0000
0000
0010
0001
0010
0000
0100
0000
1000
0100
0002
0000
0100
0000
,
0103
0000
0010
0001
0010
0000
0100
0000
0001
0100
1000
0000
0010
0000
1000
0001
,
0100
0000
1000
0000
0200
0000
0010
0000
0310
0000
1000
0100
0001
0000
0100
0000
,
0010
0001
1000
0000
0010
0000
0100
0001
1000
0100
0010
0000
0002
0000
1000
0000
,
1003
0000
0100
0010
0100
0000
0010
0000
0001
0010
0100
0000
0010
0000
0100
1000
,
0001
0000
0100
0000
0020
0000
1000
0000
1030
0000
0100
0010
0001
0000
0010
0000
,
0100
1000
0001
0000
0100
0000
0010
1000
0001
0010
0100
0000
0110
0000
0000
0000
,
0000
0000
1001
0000
0000
0000
0000
0000
1010
0000
0011
0000
0100
0001
0010
0000
,
0100
1000
0001
0100
0010
0000
1000
0001
0010
0100
1000
0000
0001
0100
0010
1000
,
0100
0000
0010
0001
0010
0100
1000
0000
0100
0010
0100
0000
1100
0000
0110
0000
,
0001
1000
0001
0000
0100
0010
0100
0000
1100
0000
0110
0000
0001
1000
0001
0000
,
1000
0100
0010
0001
0100
0000
0010
1000
0001
0010
0100
0000
1000
0010
0100
0001
,
0010
0000
0000
0000
0100
1000
0100
0000
0010
0000
0001
0010
0001
0100
0001
0100
,
0010
0000
2000
0000
3100
0010
0001
0000
1000
0010
1000
0010
0100
0000
0001
0010
,
0100
1000
0010
0000
0100
0001
0100
0001
1000
0000
0200
0000
0310
0001
1000
0000
,
0010
0100
0010
0100
0001
0000
1000
0100
0001
1000
0010
0001
0000
0000
0000
0000
,
0000
0000
0000
0000
;
#NOTES:
     dance-single:
     :
     Hard:
     14:
     :
0000
0000
0000
0000
,
0000
0000
0000
0000
,
0000
0000
0000
0000
0000
0000
0000
0000
1000
0000
0100
0000
1000
0000
0100
0000
0010
0000
0001
0000
0100
0000
0001
1000
0100
0000
0010
0000
0001
0000
0100
0000
,
0010
0000
1000
0000
0010
0000
1000
0000
0001
0000
0010
0000
0001
1000
0100
0010
0001
0000
0100
0010
1000
0001
0100
0000
0001
0000
0010
0000
0001
0000
0010
0000
,
0100
0000
1000
0000
0100
0000
0010
0001
0100
0000
0010
0000
1000
0000
0001
0000
0100
0000
0010
0000
0100
0000
0010
0000
1000
0000
0001
0000
1100
0000
0100
1000
,
0100
0000
0110
0000
0010
0001
0010
0000
0001
0000
0100
0000
0001
0000
0100
0000
0010
0000
1000
0000
0100
0000
1000
0001
0100
0000
0010
0000
1000
0000
0100
0000
,
0001
0000
0100
0000
0001
0000
0100
0000
1000
0000
0010
0000
1000
0001
0100
0010
1000
0000
0100
0010
0001
1000
0010
0000
1000
0000
0100
0000
0010
0000
0001
0000
,
0100
0000
0001
0000
1000
0000
0010
0100
0001
0000
0010
0000
0100
0000
1000
0000
0100
0000
0001
0000
0100
0000
1000
0000
0001
0000
0010
0000
0001
0100
0001
0100
,
0001
0000
1000
0010
1000
0010
1000
0000
0002
0000
0000
0000
0000
0000
0000
0000
0000
0000
0000
0000
0023
0000
0000
0000
0000
0000
0000
0000
0000
0000
0000
0000
,
0230
0000
0000
2300
0000
3002
0203
0000
,
0000
0320
0000
0000
2030
3000
1000
0002
,
0000
0003
0000
0000
0001
0000
0000
0000
0010
0000
0001
0000
1000
0000
0100
0000
0010
0000
0000
0000
0001
0000
1000
0000
0010
0000
0100
0000
0001
0000
0000
0000
,
0010
0100
1000
0001
0100
0010
1000
0100
0010
0001
0100
0000
0010
1000
0001
1000
,
0100
0000
0010
0001
1000
0100
0010
0000
0001
0100
0010
1000
0100
0010
0001
0100
,
0010
1000
0010
0000
1100
0000
0100
0010
0001
1000
0001
0010
0100
1000
0100
0000
,
1010
0000
0000
0000
0100
0000
0001
0000
1000
0000
0100
0000
0010
0000
0001
0010
0100
0000
0010
0100
1000
0000
0100
0000
0010
0000
0001
0000
0010
0000
0100
0000
,
1000
0100
0001
1000
0001
0100
0010
0100
1000
0001
1000
0010
0100
0010
0001
1000
,
0001
0010
0100
0010
1000
0010
0001
0000
0010
0100
0010
0000
1000
0100
0001
0100
,
0010
0000
0001
0000
0010
0000
0000
0000
0100
0000
1000
0000
0100
0000
0010
0100
1000
0000
0001
0100
0010
0000
1000
0000
0001
0000
0100
0000
0001
0000
0100
0000
,
0001
0010
0100
1000
0100
1000
0100
0010
0001
1000
0001
1000
0001
0100
0010
1000
,
0010
0000
1000
0000
0010
0000
0100
0000
0001
0000
1000
0000
0001
0000
1000
0000
0001
0000
0100
0000
0010
1000
0010
0000
0100
0010
0100
0000
0001
0000
0010
0000
,
1000
0000
0010
0000
1000
0000
0010
0000
1000
0000
0010
0001
0200
0000
0000
0000
0302
0000
0000
0000
1003
0000
0000
0000
0100
0000
0010
0000
0001
0000
1000
0000
,
0010
0000
0100
0000
0001
0010
0100
0000
0010
0000
0001
0000
1000
0000
0010
0000
0100
0000
0001
0000
0010
0000
0100
0000
1000
0000
0001
0000
0100
0000
0010
0000
,
1000
0000
0100
0000
0010
0000
0001
0000
0100
0001
1000
0000
0100
0000
0010
0000
0001
0000
0010
0000
0100
1000
0001
0000
0100
0000
0010
0000
1000
0000
0001
0000
,
0010
0001
1000
0000
0010
0000
0100
0000
0001
0000
0010
0000
0100
0010
0100
0000
1000
0001
1000
0000
0010
0100
0010
0000
1000
0000
0001
0000
0100
0000
0010
0000
,
1000
0000
0001
0000
0010
0100
0010
0000
0001
0000
0100
0000
0010
0000
1000
0000
0001
0000
0010
0000
0100
0000
1000
0000
0001
0000
0100
0000
0010
0000
1000
0000
,
0010
0000
0100
0000
0001
0000
0100
0000
0010
1000
0010
0000
0100
0000
0001
0000
1000
0000
0100
0000
0010
0001
0010
0000
0100
0000
1000
0000
0001
0000
0100
0000
,
0010
1000
0010
0000
0100
0000
0001
0000
1000
0000
0100
0000
0010
0100
0010
0000
0001
0100
0001
0000
1000
0010
1000
0000
0200
0000
0000
0000
1300
0000
0001
0000
,
0100
0000
0010
1000
0100
0001
0100
1000
0020
0000
0000
0130
0001
1000
0100
0010
,
0001
0010
0000
0100
2000
0000
3001
0100
0010
0000
1000
0001
0010
0100
0001
0100
,
2000
0000
0000
3001
0100
0010
1000
0100
0001
1000
0010
0001
0200
0000
0301
1000
,
0010
0000
0100
0001
0010
1000
0010
0001
0200
0000
0000
0310
1000
0001
0010
0100
,
1000
0100
0000
0010
0002
0000
1003
0010
0100
0000
0001
1000
0100
0010
0001
0010
,
0002
0100
0000
1003
0010
0100
0001
1000
0100
0001
1000
0010
0220
0330
0000
0000
,
0000
0000
2002
3003
0000
1000
0001
0100
0010
1000
0100
0010
0001
1000
0010
0100
,
0001
0000
0010
0000
0100
0000
1000
0000
0010
1000
0001
0000
0010
0000
0100
0000
1000
0000
0100
0000
0010
0001
1000
0000
0010
0000
0100
0000
0001
0000
1000
0000
,
0100
1000
0001
0000
0100
0000
0010
0000
1000
0000
0100
0000
0010
0100
0010
0000
0001
1000
0001
0000
0100
0010
0100
0000
0001
0000
1000
0000
0010
0000
0100
0000
,
0001
0000
1000
0000
0100
0010
0100
0000
1000
0000
0010
0000
0100
0000
0001
0000
1000
0000
0100
0000
0010
0000
0001
0000
1000
0000
0010
0000
0100
0000
0001
0000
,
0100
0000
0010
0000
1000
0000
0010
0000
0100
0001
0100
0000
0010
0000
1000
0000
0001
0000
0010
0000
0100
1000
0100
0000
0010
0000
0001
0000
1000
0000
0010
0000
,
0100
0001
0100
0000
0010
0000
1000
0000
0001
0000
0010
0000
0100
0010
0100
0000
1000
0010
1000
0000
0001
0100
0001
0000
1000
0000
0100
0000
1000
0000
0100
0000
,
0010
0000
0001
0000
0100
0000
0001
1000
0100
0000
0010
0000
0001
0000
0100
0000
0010
0000
1000
0000
0010
0000
1000
0000
0001
0000
0010
0000
0001
1000
0100
0010
,
0001
0000
0100
0010
1000
0001
0100
0000
0001
0000
0010
0000
0001
0000
0010
0000
0100
0000
1000
0000
0100
0000
0010
0001
0100
0000
0010
0000
1000
0000
0001
0000
,
0100
0000
0010
0000
0100
0000
0010
0000
1000
0000
0001
0000
1100
0000
0100
1000
0100
0000
0110
0000
0010
0001
0010
0000
0000
0000
0000
0000
0000
0000
0000
0000
,
0000
0000
0000
0000
;
#NOTES:
     dance-double:
     :
     Easy:
     7:
     :
00000000
00000000
00000000
00000000
,
00000000
00000000
00000000
00000000
,
00000000
00000000
00000000
00000000
10000000
00000000
00010000
00000000
00100000
01000000
00100000
00000000
00000000
00000000
00000000
00000000
,
00001000
00010000
00001000
00000010
00000000
00000000
00000001
00001000
,
00000010
00000100
00000010
00000000
00000000
00000000
00000000
00000000
00010000
00000000
00001000
00000000
00010000
00000000
00100000
00000000
,
00000000
00000000
00000000
00000000
10000000
00000000
00010000
00000000
01000000
00100000
01000000
00000000
00000000
00000000
00000000
00000000
,
00001000
00010000
00001000
00000100
00000000
00000000
00000001
00001000
,
00000100
00000010
00000100
00000000
00000000
00000000
00000000
00000000
00010000
00000000
00001000
00000000
00010000
00000000
00011000
00000000
,
00000000
00000000
00100000
10000000
01000000
00100000
00010000
10000000
,
01000000
00010000
00001000
00010000
00000000
00000000
00001000
00000010
,
00000001
00000010
00000100
00001000
00000100
00000000
00000000
00000000
,
00000000
00000000
00000001
00001000
00000010
00000100
00000001
00000100
,
00001000
00010000
00001000
00010000
00000000
00000000
00100000
10000000
,
01000000
00010000
01000000
10000000
00010000
01000000
10000000
01000000
,
00000000
00000000
00010000
10000000
00100000
01000000
00001000
00010000
,
00001000
00000000
00000000
00010000
00000000
00000000
00011000
00000000
00000000
00000000
00000000
00000000
00000010
00000000
00000001
00000000
,
00000010
00000100
00001000
00000100
00000001
00000100
00001000
00000010
,
00000000
00000000
00000100
00000001
00000100
00001000
00010000
00001000
,
00010000
00000000
00000000
00001000
00000000
00000000
00011000
00000000
00000000
00000000
00000000
00000000
00100000
00000000
10000000
00000000
,
01000000
00100000
00010000
00100000
01000000
00000000
10000000
00010000
,
01000000
00100000
10000000
01000000
00010000
00001000
00010000
00001000
,
00000010
00000001
00001000
00000001
00000000
00000000
00001000
00000001
,
00000010
00000100
00000010
00000000
00000000
00000000
00000000
00000000
00000001
00000000
00000100
00000000
00001000
00010000
00001000
00000000
,
00000000
00000000
00010000
00100000
01000000
00010000
10000000
00100000
,
01000000
00010000
10000000
01000000
00000000
00000000
10000000
00010000
,
00100000
01000000
00100000
00000000
00000000
00000000
00000000
00000000
01000000
00000000
00010000
00000000
00001000
00010000
00001000
00000000
,
00000000
00000000
00000010
00000001
00001000
00000001
00000010
00000100
,
00002000
00000000
00003000
00000000
00000001
00000000
00000001
00000000
00001000
00000000
00000010
00000100
00000020
00000000
00000000
00000000
,
00000030
00000200
00000000
00000300
00002000
00000000
00003000
00010000
,
00001000
00010000
00200000
00000000
00300000
20000000
00000000
30000000
,
02000000
00000000
03000000
00010000
00001000
00010000
00002000
00000000
,
00003000
00000020
00000000
00000030
00000002
00000000
00000003
00000100
,
00001000
00000100
00002000
00000000
00003000
00020000
00000000
00030000
,
00002000
00000000
00003000
00010000
00100000
01000000
00010000
00000000
,
00000000
00000000
10000000
00000000
00000000
00000000
00000000
00000000
10000000
00000000
00100000
00000000
00010000
00001000
00010000
00000000
,
00000000
00000000
00001000
00000100
00000010
00001000
00000001
00000100
,
00000010
00001000
00000001
00000010
00000000
00000000
00000001
00001000
,
00000100
00000010
00000100
00000000
00000000
00000000
00000000
00000000
00000010
00000000
00001000
00000000
00010000
00001000
00010000
00000000
,
00000000
00000000
01000000
10000000
00010000
10000000
01000000
00100000
,
00020000
00000000
00030000
00000000
10000000
00000000
10000000
00000000
00010000
00000000
01000000
00100000
10000000
00000000
00010000
00000000
,
00100000
01000000
00100000
00000000
00000000
00000000
00000000
00000000
00001000
00000000
00010000
00000000
00001000
00000000
00000010
00000000
,
00000000
00000000
00000000
00000000
00000001
00000000
00001000
00000000
00000010
00000100
00000010
00000000
00000000
00000000
00000000
00000000
,
00010000
00001000
00010000
00100000
01000000
10000000
00000000
00000000
,
00000000
00000000
00000000
00000000
;
#NOTES:
     dance-double:
     :
     Medium:
     12:
     :
00000000
00000000
00000000
00000000
,
00000000
00000000
00000000
00000000
,
00000000
00000000
00000000
00000000
10000000
01000000
10000000
01000000
00100000
00000000
00020000
00000000
01030000
10000000
01000000
00000000
,
00001000
00010000
00001000
00000010
00000001
00000000
00000200
00000000
00000301
00000010
00001000
00000000
00010000
00001000
00010000
00001000
,
00000100
00000000
00000002
00000000
00000013
00001000
00010000
00000000
00001000
00010000
00001000
00010000
00100000
00000000
10000000
01000000
,
00010000
10000000
00100000
00010000
01000000
00001000
01000000
00001000
00010000
00000000
00000200
00000000
00000310
00000001
00001000
00000000
,
00000001
00000010
00000001
00000010
00001000
00000000
00020000
00000000
00031000
00010000
00100000
00000000
10000000
00100000
10000000
00100000
,
01000000
00000000
00100000
10000000
00010000
00100000
01000000
10000000
00010000
10000000
01000000
00010000
00001000
00000010
00000002
00000000
,
00000000
00000103
00000000
00000000
00000110
00000000
00000001
00001000
00000100
00000010
00000001
00000000
00000100
00000000
00000010
00000000
,
00000110
00000000
00001000
00000000
00010000
00000000
00110000
00000000
00100000
10000000
01000000
00100000
00010000
00000000
10000000
01000000
,
00010000
01000000
10000000
00000000
00100000
00000000
01000000
00000000
00010000
00000000
10000000
01000000
10000000
00000000
01000000
00000000
,
00010000
00000000
00001000
00000000
00000110
00000000
00000001
00001000
00000100
00000010
00000001
00000000
00000100
00000000
00000010
00000000
,
00000101
00000000
00000100
00001000
00000100
00000000
00001100
00000000
00000001
00000100
00001000
00010000
00100000
00000000
10000000
01000000
,
00010000
01000000
10000000
00000000
00100000
00000000
01000000
00000000
00010000
00000000
10000000
01000000
00010000
00001000
00000010
00000000
,
00000100
00000000
00000110
00000000
00001001
00000000
00000001
00000100
00000000
00000100
00000010
00000000
00001000
00000000
00000001
00000000
,
00000021
00000000
00000000
00001000
00000000
00000000
00000031
00000000
00000100
00001000
00010000
00000000
00011000
00000000
00010000
00100000
,
00000000
00100000
10000000
00000000
10000000
01000000
00000000
01000000
00010000
00000000
00010000
00001000
00000000
00001000
00000020
00000000
,
00000001
00000000
00000031
00000000
00001001
00000000
00000001
00000100
00000000
00000100
00000010
00000000
00000010
00000000
00001000
00000000
,
00020000
00000000
00000000
01000000
00000000
00000000
10030000
00000000
01000000
00100000
00010000
00000000
10000000
00000000
10000000
01000000
,
00000000
01000000
00010000
00000000
00010000
00001000
00000000
00001000
00000020
00000000
00000031
00000000
00000100
00000001
00000100
00000000
,
00000010
00000000
00001000
00000000
00020000
00000000
01000000
00000000
10000000
00000000
00100000
00000000
00031000
00010000
00001000
00000000
,
00002000
00000000
00000100
00000000
00000001
00000000
00003010
00000100
00000010
00000000
00001001
00000000
00000110
00000000
00000011
00000000
,
00000100
00001000
00000100
00000000
00000020
00000000
00000031
00000000
00000101
00000000
00001100
00000000
00001000
00010000
00001000
00000000
,
00010000
00100000
10000000
01000000
00100000
00000000
00010000
10000000
00100000
01000000
00010000
00000000
10000000
01000000
00100000
00010000
,
01000000
00000000
00100000
10000000
01000000
00010000
00002000
00000000
00000010
00000000
00003010
00000000
00000011
00000000
00000110
00000000
,
00001000
00000001
00001000
00000000
00000020
00000000
00000130
00000000
00000011
00000000
00000110
00000000
00001000
00000001
00001000
00000000
,
00000001
00000010
00001000
00010000
00001000
00000000
00010000
00100000
10000000
01000000
00010000
00000000
00001000
00010000
00100000
10000000
,
01000000
00000000
00000000
00000000
00010000
00001000
00000010
00000000
00001000
00000000
00010000
01000000
00020000
00000000
00001000
00000000
,
00031000
00000000
00000010
00000001
00000010
00000000
00000100
00000000
00000001
00000100
00001000
00000000
00000010
00000000
00001000
00010000
,
01000000
00000000
10000000
00000000
02000000
00000000
00100000
00000000
03100000
00000000
10000000
01000000
00010000
00000000
01000000
00000000
,
00010000
00001000
00000010
00000000
00000100
00000000
00000010
00000001
00001000
00000010
00000100
00000000
00002000
00000000
00010000
00000000
,
00013000
00000000
01000000
10000000
01000000
00000000
00010000
00000000
10000000
00100000
00010000
00000000
01000000
00000000
00100000
00010000
,
00001000
00000000
00000100
00000000
00000002
00000000
00000010
00000000
00000013
00000000
00000100
00001000
00000001
00000000
00000010
00000000
,
00001000
00010000
01000000
00000000
00100000
00000000
01000000
10000000
00010000
01000000
00100000
00000000
01100000
00000000
00000000
00000000
,
00000000
00000000
10010000
00000000
00000000
00000000
00000000
00000000
10100000
00000000
00110000
00000000
00010000
00001000
00010000
00000000
,
00001000
00000100
00000001
00000010
00000100
00000000
00001000
00000001
00000100
00000010
00001000
00000000
00000001
00000010
00000100
00001000
,
00000010
00000000
00000100
00000001
00000010
00001000
00020000
00000000
01000000
00000000
01030000
00000000
11000000
00000000
01100000
00000000
,
00010000
10000000
00010000
00000000
02000000
00000000
03100000
00000000
11000000
00000000
01100000
00000000
00010000
10000000
00010000
00000000
,
10000000
01000000
00010000
00001000
00010000
00000000
00001000
00000100
00000001
00000010
00001000
00000000
00010000
00001000
00000100
00000001
,
00000010
00000000
00000000
00000000
00001000
00010000
01000000
00000000
00010000
00000000
00001000
00000010
00000001
00000010
00000001
00000010
,
00000100
00000000
00002000
00000000
00003010
00000001
00000010
00000000
00010000
00001000
00010000
01000000
10000000
00000000
00200000
00000000
,
10300000
01000000
00010000
00000000
00001000
00010000
00001000
00010000
00100000
00000000
20000000
00000000
31000000
00010000
00001000
00000000
,
00010000
00001000
00010000
00001000
00000100
00000000
00000001
00000010
00001000
00000001
00000100
00001000
00000000
00000000
00000000
00000000
,
00000000
00000000
00000000
00000000
;
#NOTES:
     dance-double:
     :
     Hard:
     15:
     :
00000000
00000000
00000000
00000000
,
00000000
00000000
00000000
00000000
,
00000000
00000000
00000000
00000000
00000000
00000000
00000000
00000000
10000000
00000000
01000000
00000000
10000000
00000000
01000000
00000000
00100000
00000000
00010000
00000000
01000000
00000000
00001000
00010000
00000100
00000000
00000010
00000000
00000001
00000000
00000100
00000000
,
00001000
00000000
00010000
00000000
00001000
00000000
00010000
00000000
00100000
00000000
01000000
00000000
00001000
00010000
00001000
00010000
00001000
00000000
00000010
00000000
00000001
00000000
00000100
00000000
00001000
00000000
00010000
00000000
00100000
00000000
10000000
00000000
,
01000000
00000000
00010000
00000000
00001000
00000000
00010000
00000100
00001000
00000000
00000100
00000000
00000010
00000000
00000001
00000000
00000100
00000000
00001000
00000000
00000100
00000000
00001000
00000000
00010000
00000000
00001000
00000000
00010000
00100000
00010000
00000000
,
00100000
01000000
00100000
00000000
10000000
00000000
01000000
00000000
00100000
00000000
00010000
00000000
00100000
00000000
00010000
00000000
00001000
00000000
00010000
00000000
00000010
00000000
00000001
00001000
00000100
00000000
00000010
00000000
00000001
00000000
00000100
00000000
,
00001000
00000000
00010000
00000000
00001000
00000000
00010000
00000000
00100000
00000000
01000000
00000000
00010000
10000000
00100000
00000000
10000000
00000000
01000000
00000000
00010000
00000000
00001000
00000000
00000010
00000000
00000100
00000000
00000010
00000000
00000100
00000000
,
00000010
00000000
00000001
00000000
00000100
00000000
00000010
00001000
00000001
00000000
00000010
00000000
00001000
00000000
00010000
00000000
01000000
00000000
10000000
00000000
01000000
00000000
00010000
00000000
00001000
00000000
00000010
00000000
00000001
00000000
00000100
00000000
,
00001000
00010000
00100000
10000000
02000000
00000000
00000000
00000000
00000000
00000000
00200000
00000000
00000000
00000000
00300000
00000000
,
20000000
00000000
30000000
00020000
03000000
00032000
00000020
00000000
,
00003000
00000200
00000000
00000300
00000002
00000000
00000003
00000200
,
00000000
00000300
00002000
00000000
00000030
00020000
00000000
00030000
,
00000200
00000000
00000300
00000002
00003000
00000023
00020000
00000000
,
00000030
00002000
00000000
00003000
00200000
00000000
00300000
20000000
,
00000000
00000000
30030000
00000000
00100000
10000000
01000000
00000000
00010000
00001000
00010000
00000000
01000000
10000000
01000000
00010000
,
00001000
00000000
00100000
00000000
00010000
00000000
00000000
00000000
00000010
00000000
00000100
00000000
00000010
00000000
00000001
00000010
00000100
00000000
00001000
00000000
00000001
00000000
00000100
00000000
00001000
00000000
00010000
00000000
00001000
00000000
00100000
00000000
,
00010000
00100000
01000000
10000000
01000000
00100000
00010000
00100000
00001000
00010000
00001000
01000000
00100000
01000000
00010000
00000000
,
10000000
01000000
00010000
00000000
00001000
00000000
00010000
00000000
00001000
00000000
00000010
00000000
00000001
00000000
00000000
00000000
00000100
00000000
00000010
00000000
00000100
00000000
00000000
00000000
00000001
00000000
00000010
00000000
00001000
00000000
00010000
00000000
,
01000000
00000000
00100000
00000000
01000000
00000000
00000000
00000000
10000000
00000000
00100000
00000000
00010000
00000000
00001000
00100000
00010000
00000000
10000000
00000000
01000000
00000000
00010000
00000000
00001000
00000000
00010000
00000000
00001000
00000000
00010000
00000000
,
00001000
00000010
00000001
00000100
00000001
00000100
00000001
00000010
00000100
00001000
00000100
00001000
00000100
00010000
00001000
00100000
,
00001000
00000000
00100000
00000000
00001000
00000000
01000000
00000000
00100000
00000000
10000000
00000000
00100000
00000000
10000000
00000000
00100000
00000000
01000000
00000000
00010000
01000000
00010000
00000000
10000000
00100000
10000000
00000000
00010000
00000000
00100000
00000000
,
10000000
00000000
00100000
00000000
10000000
00000000
00100000
00000000
10000000
00000000
00100000
01000000
00020000
00000000
00000000
00000000
00032000
00000000
00000000
00000000
00013000
00000000
00000000
00000000
00000100
00000000
00000010
00000000
00000001
00000000
00001000
00000000
,
00000100
00000000
00000010
00000000
00000001
00001000
00000100
00000000
00000010
00000000
00001000
00000000
00010000
00000000
00001000
00000000
00000100
00000000
00000001
00000000
00000010
00000000
00001000
00000000
00010000
00000000
01000000
00000000
10000000
00000000
00100000
00000000
,
01000000
00000000
00001000
00000000
00010000
00000000
01000000
00000000
10000000
01000000
00100000
00000000
00001000
00000000
00010000
00000000
00100000
00000000
00010000
00000000
00001000
01000000
00100000
00000000
10000000
00000000
01000000
00000000
00010000
00000000
00001000
00000000
,
00000010
00000001
00000100
00000000
00000010
00000000
00001000
00000000
00000001
00000000
00000100
00000000
00001000
00010000
00001000
00000000
00000100
00000010
00000100
00000000
00000001
00000000
00000010
00000000
00001000
00000000
00010000
00000000
01000000
00000000
00100000
00000000
,
00010000
00000000
10000000
00000000
00100000
00010000
00100000
00000000
01000000
00000000
10000000
00000000
00010000
00000000
00100000
00000000
10000000
00000000
00010000
00000000
00100000
00000000
01000000
00000000
10000000
00000000
01000000
00000000
00010000
00000000
10000000
00000000
,
00100000
00000000
00010000
00000000
00001000
00000000
00000100
00000000
00000010
00000001
00000010
00000000
00000100
00000000
00001000
00000000
00000001
00000000
00000100
00000000
00001000
00010000
00001000
00000000
00000100
00000000
00000001
00000000
00001000
00000000
00000100
00000000
,
00000010
00000001
00000010
00000000
00001000
00000000
00010000
00000000
01000000
00000000
10000000
00000000
00100000
00000000
01000000
00000000
00010000
00000000
00100000
00000000
00001000
00000000
00010000
00000000
02000000
00000000
00000000
00000000
13000000
00000000
00010000
00000000
,
01000000
00000000
00100000
10000000
01000000
00010000
01000000
10000000
00200000
00000000
00000000
01300000
00001000
00010000
00000100
00000010
,
00000001
00000010
00000000
00000100
00002000
00000000
00003001
00000100
00000010
00000000
00001000
00000001
00000010
00001000
00010000
01000000
,
20000000
00000000
00000000
30010000
01000000
00100000
10000000
01000000
00010000
00001000
00000010
00000001
00000200
00000000
00000301
00001000
,
00000010
00000000
00000100
00000001
00000010
00001000
00000010
00000001
00000200
00000000
00000000
00000310
00010000
00001000
00100000
01000000
,
10000000
01000000
00000000
00100000
00020000
00000000
10030000
00100000
01000000
00000000
00010000
10000000
01000000
00010000
00001000
00000010
,
00000002
00000100
00000000
00001003
00000010
00000100
00000001
00000010
00001000
00010000
01000000
10000000
02200000
03300000
00000000
00000000
,
00000000
00000000
00022000
00033000
00000000
00010000
00001000
00010000
00100000
10000000
01000000
00010000
00001000
00000010
00000001
00000100
,
00000010
00000000
00010000
00000000
00001000
00000000
00000010
00000000
00000001
00000010
00000100
00000000
00010000
00000000
00001000
00000000
00000100
00000000
00001000
00000000
00010000
00000010
00000100
00000000
00000001
00000000
00000010
00000000
00001000
00000000
00010000
00000000
,
01000000
10000000
00100000
00000000
01000000
00000000
00010000
00000000
10000000
00000000
00100000
00000000
00010000
00001000
00010000
00000000
00100000
01000000
00100000
00000000
10000000
00000000
01000000
00000000
00010000
00000000
00001000
00000000
00000010
00000000
00000100
00000000
,
00001000
00000000
00000001
00000000
00000100
00001000
00000100
00000000
00000010
00000000
00000001
00000000
00001000
00000000
00000100
00000000
00000001
00000000
00001000
00000000
00000100
00000000
00000010
00000000
00000001
00000000
00000010
00000000
00001000
00000000
00000001
00000000
,
00000100
00000000
00001000
00000000
00010000
00000000
00100000
00000000
01000000
10000000
01000000
00000000
00100000
00000000
00010000
00000000
10000000
00000000
00100000
00000000
00010000
00001000
00010000
00000000
00100000
00000000
10000000
00000000
00010000
00000000
00100000
00000000
,
01000000
10000000
01000000
00000000
00010000
00000000
00001000
00000000
00000010
00000000
00000001
00000000
00000100
00000000
00000010
00000000
00001000
00000000
00000100
00000000
00000010
00000000
00000000
00000000
00000001
00000000
00000010
00000000
00000001
00000000
00000010
00000000
,
00000100
00000000
00001000
00000000
00000010
00000000
00010000
00001000
00100000
00000000
01000000
00000000
10000000
00000000
00100000
00000000
00010000
00000000
00001000
00000000
00010000
00000000
00001000
00000000
00000100
00000000
00000010
00000000
00010000
00001000
00010000
00001000
,
00010000
00000000
01000000
00000000
10000000
00000000
00100000
00000000
00010000
00000000
00001000
00000000
00000100
00000000
00000001
00000000
00000010
00000000
00001000
00000000
00010000
00000000
00001000
00100000
00010000
00000000
00100000
00000000
01000000
00000000
10000000
00000000
,
00100000
00000000
00010000
00000000
00100000
00000000
00010000
00000000
00001000
00000000
00010000
00000000
00001000
00000100
00001000
00000000
00000100
00000010
00000100
00000000
00000001
00000000
00000010
00000000
00000000
00000000
00000000
00000000
00000000
00000000
00000000
00000000
,
00000000
00000000
00000000
00000000
;
