
//----- song id: awao
#TITLE:阿波おどり -Awaodori- やっぱり踊りはやめられない;
#ARTIST:U1 ミライダガッキ連と矢印連;
#TITLETRANSLIT:Awa odori -Awaodori- yappari odori wa yame rarenai;
#ARTISTTRANSLIT:U1 Miraidagakki ren to yajirushi ren;
#BANNER:Awa odori -Awaodori- yappari odori wa yame rarenai.png;
#BACKGROUND:Awa odori -Awaodori- yappari odori wa yame rarenai-bg.png;
#CDTITLE:./CDTitles/Miraidagakki FutureTomTom.png;
#MUSIC:Awa odori -Awaodori- yappari odori wa yame rarenai.ogg;
#SAMPLESTART:2.824;
#SAMPLELENGTH:15;
#BPMS:0=170,145=190,179=130,188=170,196=185,206=200,231=220,254=240,264=260,272=120;
#STOPS:145=2.638,179=2.964,231=1.718;
#NOTES:
     dance-single:
     :
     Beginner:
     5:
     :
0000
0000
0000
0000
,
0000
0000
0000
0000
,
0000
0000
0000
0000
,
0000
0000
0000
0000
,
0000
0000
0000
0000
,
0000
0000
0000
0000
,
0001
0001
0000
0000
,
1000
1000
0000
0000
,
0010
0000
0001
0000
,
0010
0000
1000
0000
,
0001
0001
0000
0000
,
1000
1000
0000
0000
,
0010
0000
0001
0000
,
0010
0000
1000
0000
,
0010
0000
0001
0000
,
0001
0000
1000
0000
,
1000
0000
0001
0000
,
0001
0000
1000
0000
,
1000
0000
0010
0000
,
0001
0000
0010
0000
,
1000
0000
0100
0000
,
0100
0000
0100
0000
,
0100
0000
0010
0000
,
0010
0000
0010
0010
,
0010
0000
0001
0000
,
1000
0000
0001
0000
,
1000
0000
0001
0000
,
0000
0000
1000
1000
,
1000
0000
0010
0010
,
0000
0000
1000
1000
,
0000
0000
0010
0010
,
0000
0000
0001
0001
,
0000
0000
0010
0000
,
1000
0000
0010
0000
,
0001
0000
0010
0010
,
0010
0000
0001
0000
,
1001
0000
0010
0000
,
0010
0000
0010
0010
,
0010
0000
1000
0000
,
0001
0000
0010
0010
,
0000
0000
0001
0001
,
0000
0000
0010
0000
,
1000
0000
0010
0000
,
0001
0001
0001
0000
,
1000
0000
1001
0000
,
0010
0000
0001
0000
,
0010
0000
1000
0000
,
0010
0000
0001
0000
,
0010
0000
1000
0000
,
0010
0000
0010
0000
,
0100
0000
0100
0000
,
0010
0000
0010
0000
,
0100
0000
0100
0000
,
0001
0000
1000
0000
,
0001
0000
1000
0000
,
0001
0001
0001
0000
,
0010
0000
1001
0000
,
0010
0000
1001
0000
,
0100
0000
0100
0000
,
0100
0100
0100
0000
,
1000
0000
1000
0000
,
1000
1000
1000
0000
,
0010
0000
0010
0000
,
0010
0010
0010
0000
,
0001
0000
0001
0000
,
0001
0001
0001
0000
,
1000
0000
1000
0000
,
1000
1000
1000
0000
,
0001
0001
0001
0000
,
0010
0000
1000
0000
,
0010
0000
0001
0000
,
0000
0000
0000
0000
;
#NOTES:
     dance-single:
     :
     Easy:
     9:
     :
0000
0000
0000
0000
,
0000
0000
0000
0000
,
0000
0000
0000
0000
,
0000
0000
0000
0000
,
0000
0000
0000
0000
,
0000
0000
0000
0000
,
0001
0000
1000
0002
0000
0000
0000
0000
0000
0003
0000
0000
,
0110
1001
0000
0000
,
0010
0002
0010
2003
,
0010
3002
0010
1003
,
1000
0000
0001
2000
0000
0000
0000
0000
0000
3000
0000
0000
,
0110
1001
0000
0000
,
0010
2000
0010
3002
,
0010
2003
0010
3002
,
0010
1003
0001
0001
,
0101
0101
1000
1000
,
1100
1100
0001
0001
,
0101
0101
1000
1000
,
1100
1100
0010
2000
,
0010
3002
0010
2003
,
0010
3001
0010
0001
,
0100
0100
0010
1000
,
0100
0000
0001
0010
,
1000
0100
0001
1000
,
0110
0000
0001
0010
,
1000
0010
0001
0010
,
1000
0000
0001
0100
,
1000
0010
0001
1000
,
0110
0000
0000
0000
0000
0000
0001
0000
0010
0002
0000
0000
,
0000
0003
0110
1001
,
0000
0000
0000
0000
0000
0000
1000
0000
0010
2000
0000
0000
,
0000
3000
0110
1001
,
0000
0000
0010
0002
,
0010
2003
0010
3002
,
0010
1003
0010
0100
,
0110
0000
0000
0000
0000
0000
0001
0000
0001
0000
0000
1000
,
0001
0000
0010
0002
,
0010
2003
0010
3002
,
0010
2003
0010
3002
,
0010
0000
0000
1003
0000
0000
0001
0000
0100
0002
0000
0000
,
0000
0003
1100
0101
,
0000
0000
0010
0001
,
0100
1000
0010
0001
,
1000
0001
0110
0000
,
1000
0000
1000
0000
0000
0001
1000
0000
0000
0000
0000
0000
,
0010
2000
0010
3002
,
0010
2003
0010
3002
,
0010
2003
0010
3002
,
0010
2003
0010
3001
,
1000
1000
1100
1100
,
0001
0001
0101
0101
,
1000
1000
1100
1100
,
0001
0001
0101
0101
,
1000
1000
0010
0010
,
0100
0100
0001
0001
,
1000
0001
1001
0000
,
0010
0000
0010
0000
0000
0100
0010
0000
0000
0000
0000
0000
,
0010
0000
0010
0000
0000
0100
0010
0000
0000
0000
0000
0000
,
0010
0002
0010
2003
,
0010
3010
0010
2000
,
0010
3002
0010
2003
,
0010
3010
0010
2000
,
0010
3002
0010
2003
,
0010
3010
0010
0100
,
0100
0002
0100
2003
,
0100
3100
0100
2000
,
0100
3002
0100
2003
,
0100
3100
0100
1000
,
0001
1000
1001
0000
,
0001
0000
0001
0000
0000
0100
0001
0000
0000
0000
0000
0000
,
1000
0000
1000
0000
0000
0100
0010
0000
0000
0000
0000
0000
,
0000
0000
0000
0000
;
#NOTES:
     dance-single:
     :
     Medium:
     12:
     :
0000
0000
0000
0000
,
0000
0000
0000
0000
,
0000
0000
0000
0000
,
0000
0000
0000
0000
,
0000
0000
0000
0000
,
0000
0000
0000
0000
,
1000
0000
0001
0020
0000
0000
0100
0000
0000
0130
0000
0000
,
1000
0000
0001
1000
0000
0001
1000
0000
0000
1000
0000
0000
,
0010
0000
1000
0001
0000
0000
0010
0000
0001
1000
0000
0000
,
0010
0000
1000
0001
0000
0000
0010
0000
0001
1000
0000
0000
,
0001
0000
1000
0020
0000
0000
0100
0000
0000
0130
0000
0000
,
0001
0000
1000
0001
0000
1000
0001
0000
0000
0001
0000
0000
,
0010
0000
0001
1000
0000
0000
0010
0000
1000
0001
0000
0000
,
0010
0000
0001
1000
0000
0000
0010
0000
1000
0001
0000
0000
,
0010
0000
0001
1000
0000
0000
0001
0000
0001
0100
0000
0000
,
1000
0000
1000
0100
0000
0000
0001
0000
0001
0010
0000
0000
,
1000
0000
1000
0010
0000
0000
0001
0000
0001
0100
0000
0000
,
1000
0000
1000
0100
0000
0000
0001
0000
0001
0010
0000
0000
,
1000
0000
1000
0010
0000
0000
0010
0000
1000
0001
0000
0000
,
0010
0000
0001
1000
0000
0000
0010
0000
1000
0001
0000
0000
,
0010
0000
0001
1000
0000
0000
0001
0000
0000
0011
0000
0000
,
0100
0110
1000
0001
,
1001
0000
1000
1010
,
0100
0110
0001
1000
,
1001
0000
0000
0000
0000
0000
0001
0000
0001
0010
0000
0000
,
1000
0000
1000
0010
0000
0000
1000
0000
1000
0001
0000
0001
,
1000
0000
0000
0000
0000
0000
0001
0000
0001
0100
0000
0000
,
1000
0000
1000
0100
0000
0000
1000
0000
1000
0001
0000
0001
,
1000
0000
0000
0000
0000
0000
0001
0000
1000
0020
0000
0000
,
0100
0000
0000
0130
0000
0000
0010
0000
0100
0010
0000
0100
,
0010
0000
0000
0010
0000
0000
1000
0000
0001
0020
0000
0000
,
0100
0000
0000
0130
0000
0000
0010
0000
0100
0010
0000
0100
,
0010
0000
0000
0010
0000
0000
0010
0000
0001
1000
0000
0000
,
0010
0000
1000
0001
0000
0000
0010
0000
0010
0001
0000
0001
,
0100
0000
0100
0010
0000
0010
0100
0000
0000
0010
0000
0000
,
0110
0000
0000
0000
0000
0000
1000
0000
0010
0000
0000
0100
,
0001
0000
0000
0000
0000
0000
0010
0000
0001
1000
0000
0000
,
0010
0000
1000
0001
0000
0000
0010
0000
0001
1000
0000
0000
,
0010
0000
1000
0001
0000
0000
0010
0000
0001
1000
0000
0000
,
0010
0000
1000
0001
0000
0000
1000
0000
0100
0020
0000
0000
,
0100
0000
0000
0130
0000
0000
1000
0000
0001
1000
0000
0001
,
1000
1000
0001
0010
,
0100
1000
0001
0100
,
0010
0100
1001
0000
,
0010
0000
0001
0000
0000
0100
0010
0000
0000
0000
0000
0000
,
0010
0000
1000
0001
0000
0000
0010
0000
0001
1000
0000
0000
,
0010
0000
1000
0001
0000
0000
0010
0000
0001
1000
0000
0000
,
0100
0000
1000
0001
0000
0000
0100
0000
0001
1000
0000
0000
,
0100
0000
1000
0001
0000
0000
0100
0000
0001
1000
0000
0000
,
0010
0000
0100
0001
0000
0000
0010
0000
0100
0001
0000
0000
,
0010
0000
0100
1000
0000
0000
0010
0000
0100
1000
0000
0000
,
0010
0000
0100
0001
0000
0000
0010
0000
0100
0001
0000
0000
,
0010
0000
0100
1000
0000
0000
0010
0000
0100
2000
0000
0000
,
0010
3002
0010
2003
,
0010
3002
0010
1003
,
0010
0100
0101
0000
,
0010
0000
0100
0000
0000
1000
0001
0000
0000
0000
0000
0000
,
0010
0000
0100
0000
0000
1000
0001
0000
0000
0000
0000
0000
,
0010
0000
0001
1000
0000
0000
0010
0000
1000
0001
0000
0000
,
0011
0110
1100
1001
,
0010
0000
1000
0001
0000
0000
0010
0000
0001
1000
0000
0000
,
1010
0110
0101
1001
,
0010
0000
0001
1000
0000
0000
0010
0000
1000
0001
0000
0000
,
0011
0110
1100
1001
,
0010
0000
1000
0001
0000
0000
0010
0000
0001
1000
0000
0000
,
1010
0110
0101
1001
,
0100
0000
0001
1000
0000
0000
0100
0000
1000
0001
0000
0000
,
0101
0110
1010
1001
,
0010
0001
1001
0000
,
1000
0000
0010
0000
0000
0100
0001
0000
0000
0000
0000
0000
,
0001
0000
0010
0000
0000
0100
1000
0000
0000
0000
0000
0000
,
0000
0000
0000
0000
;
#NOTES:
     dance-single:
     :
     Hard:
     14:
     :
0000
0000
0000
0000
,
0000
0000
0000
0000
,
0000
0000
0000
0000
,
0000
0000
0000
0000
,
0000
0000
0000
0000
,
0000
0000
0000
0000
,
0001
0010
0001
0200
0000
0000
0010
0000
0000
0310
0000
0000
,
0001
0000
1000
0001
0000
1000
0001
0000
0001
1000
0000
1000
,
0010
0000
0010
1000
0000
1000
0001
0000
0001
0010
0000
0010
,
0001
0000
0001
1000
0000
1000
0010
0000
0010
1000
0000
1000
,
0001
0010
0100
2000
0000
0000
0010
0000
0000
3010
0000
0000
,
0001
0000
1000
0001
0000
1000
0001
0000
0001
1000
0000
1000
,
0010
0000
0010
1000
0000
1000
0001
0000
0001
0010
0000
0010
,
0001
0000
0001
1000
0000
1000
0010
0000
0010
0100
0000
0100
,
1000
0000
1000
0100
0000
0100
0001
0010
0100
1000
0000
0000
,
0001
0010
0100
1000
0000
0000
0001
0100
0010
1000
0000
0000
,
0001
0100
0010
1000
0000
0000
0001
0010
0100
1000
0000
0000
,
0001
0010
0100
1000
0000
0000
0001
0100
0010
1000
0000
0000
,
0001
0100
0010
1000
0000
0000
0001
0000
0001
0010
0000
0010
,
0100
0000
0100
1000
0000
1000
0010
0000
0010
0100
0000
0100
,
0001
0000
0001
0010
0000
0010
0100
0000
0100
1000
0000
1000
,
0100
0000
0100
0001
0000
0001
0100
0000
0100
1000
0000
1000
,
0001
0000
0000
1001
0000
0000
0001
0000
0001
0100
0000
0100
,
1000
0000
1000
0100
0000
0100
0001
0000
0001
0100
0000
0100
,
1000
0000
0000
0100
0000
0000
0001
0000
0001
0010
0000
0010
,
1000
0000
1000
0001
0000
0001
0100
0000
0100
1000
0000
1000
,
0001
0000
0000
0110
0000
0000
0001
0000
0001
1000
0000
1000
,
0010
0000
0010
0001
0000
0001
1000
0000
1000
0100
0000
0100
,
0001
0000
0000
0000
0000
0000
1000
0010
1000
0002
0000
0000
,
0010
0000
0000
0013
0000
0000
1000
0000
0001
1000
0000
0001
,
1000
0000
0000
1000
0000
0000
0001
0010
0001
2000
0000
0000
,
0010
0000
0000
3010
0000
0000
0001
0000
1000
0001
0000
1000
,
0001
0000
0000
0001
0000
0000
0010
0000
0001
1000
0000
0000
,
0010
0000
1000
0001
0000
0000
0010
1000
0100
0010
0001
0100
,
0010
1000
0100
0010
0001
0100
0010
0000
0000
0100
0000
0000
,
0110
0000
0000
0000
0000
0000
1000
0000
0010
0000
0000
0100
,
0001
0000
0000
0000
0000
0000
0010
0000
1000
0001
0000
0001
,
0010
0000
0001
1000
0000
1000
0010
0000
1000
0001
0000
0001
,
0010
0000
0001
1000
0000
1000
0001
0000
0001
0100
0010
1000
,
0100
0000
0100
0010
0000
0010
0001
1000
0001
0200
0000
0000
,
0001
0000
0000
0301
0000
0000
0010
0000
0100
0010
0000
0100
,
0010
0010
1000
0001
,
1000
0010
0100
0001
0010
0100
1000
0010
0100
0001
0010
0100
,
1000
0001
1001
0000
,
0010
0000
1000
0000
0000
0100
0010
0000
0000
0000
0000
0000
,
0010
0000
0001
1000
0000
1000
0010
0000
1000
0001
0000
0001
,
0010
0000
0001
1000
0000
1000
0010
0000
1000
0001
0000
0001
,
0010
0000
0001
1000
0000
1000
0010
0000
1000
0001
0000
0001
,
0010
0000
0001
1000
0000
1000
0010
0000
1000
0001
0000
0001
,
1000
0010
0100
0001
0000
0001
1000
0010
0100
0001
0000
0001
,
1000
0100
0010
0001
0000
0001
1000
0100
0010
0001
0000
0001
,
1000
0010
0100
0001
0000
0001
1000
0010
0100
0001
0000
0001
,
1000
0100
0010
0001
0000
0001
1000
0100
0010
0001
0000
0001
,
1000
0001
1000
0001
1000
0001
1000
0001
1000
0001
1000
0001
,
0010
0001
1000
0010
1000
0001
0010
0001
1000
0010
1000
0001
,
1000
0001
0110
0000
,
0001
0000
0010
0000
0000
0100
1000
0000
0000
0000
0000
0000
,
0001
0000
0100
0000
0000
0010
1000
0000
0000
0000
0000
0000
,
0010
0000
0001
1000
0000
1000
0010
0000
1000
0001
0000
0001
,
0010
0000
0100
0010
0000
0100
0010
0000
0100
1000
0000
1000
,
0010
0000
1000
0001
0000
0001
0010
0000
0001
1000
0000
1000
,
0010
0000
0100
0010
0000
0100
0010
0000
0100
0001
0000
0001
,
0010
0000
0001
1000
0000
1000
0010
0000
1000
0001
0000
0001
,
0010
0000
0100
0010
0000
0100
0010
0000
0100
1000
0000
1000
,
0010
0000
1000
0001
0000
0001
0010
0000
0001
1000
0000
1000
,
0010
0000
0100
0010
0000
0100
0010
0000
0100
0001
0000
0001
,
0100
0000
0001
1000
0000
1000
0100
0000
1000
0001
0000
0001
,
0100
0000
0010
0100
0000
0010
0100
0000
0010
1000
0000
1000
,
0100
1000
1100
0000
,
0100
0000
0010
0001
0000
0100
0010
0000
0000
0000
0000
0000
,
1000
0000
0100
0010
0000
0001
0100
0000
0000
0000
0000
0000
,
0000
0000
0000
0000
;
#NOTES:
     dance-double:
     :
     Easy:
     9:
     :
00000000
00000000
00000000
00000000
,
00000000
00000000
00000000
00000000
,
00000000
00000000
00000000
00000000
,
00000000
00000000
00000000
00000000
,
00000000
00000000
00000000
00000000
,
00000000
00000000
00000000
00000000
,
00001000
00000000
00010000
00002000
00000000
00000000
00000000
00000000
00000000
00003000
00000000
00000000
,
00001010
00001010
00000000
00000000
,
00010000
02000000
00010000
03002000
,
00010000
02003000
00010000
03001000
,
00001000
00000000
00010000
00002000
00000000
00000000
00000000
00000000
00000000
00003000
00000000
00000000
,
00110000
00110000
00000000
00000000
,
00001000
00000200
00001000
00020300
,
00001000
00030200
00001000
00020300
,
00001000
00030100
00000010
00000010
,
00000101
00000101
00001000
00001000
,
00011000
00011000
00100000
00100000
,
11000000
11000000
00010000
00010000
,
00011000
00021000
00001000
00030200
,
00001000
00020300
00001000
00030200
,
00001000
00010300
00000010
00001000
,
00000100
00000100
00000010
00000001
,
00000100
00000000
00001000
00010000
,
01000000
10000000
00010000
01000000
,
01100000
00000000
10000000
00100000
,
00010000
00001000
00000010
00000001
,
00000100
00000000
00000001
00000010
,
00001000
00010000
00100000
10000000
,
10010000
00000000
00000000
00000000
00000000
00000000
10000000
00000000
01000000
00200000
00000000
00000000
,
00000000
00300000
00110000
00011000
,
00000000
00000000
00000000
00000000
00000000
00000000
00000001
00000000
00000100
00000020
00000000
00000000
,
00000000
00000030
00001010
00011000
,
00000000
00000000
00010000
02000000
,
00010000
03002000
00010000
02003000
,
00010000
03001000
00010000
00100000
,
01100000
00000000
00000000
00000000
00000000
00000000
00010000
00000000
00100000
00000000
00000000
01000000
,
10000000
00000000
00010000
00002000
,
00010000
02003000
00010000
03002000
,
00010000
02003000
00010000
03002000
,
00010000
00000000
00000000
01003000
00000000
00000000
00100000
00000000
01000000
00020000
00000000
00000000
,
00000000
00030000
00011000
00001100
,
00000000
00000000
00000001
00000010
,
00000100
00001000
00000010
00000100
,
00001000
00010000
00011000
00000000
,
00100000
00000000
00010000
00000000
00000000
10000000
00010000
00000000
00000000
00000000
00000000
00000000
,
00010000
02000000
00010000
03002000
,
00010000
02003000
00010000
03002000
,
00010000
02003000
00010000
03002000
,
00010000
02003000
00010000
03001000
,
00010000
00010000
00101000
00101000
,
00010000
00010000
01001000
01001000
,
00010000
00010000
00101000
00101000
,
00010000
00010000
01001000
01001000
,
00100000
10000000
01000000
00010000
,
00001000
00000100
00000001
00000010
,
00000001
00001000
00001001
00000000
,
00000010
00000000
00000010
00000000
00000000
00000100
00000010
00000000
00000000
00000000
00000000
00000000
,
00010000
00000000
00010000
00000000
00000000
00001000
00010000
00000000
00000000
00000000
00000000
00000000
,
00001000
00000200
00001000
00020300
,
00001000
00031000
00001000
00020000
,
00001000
00030200
00001000
00020300
,
00001000
00031000
00001000
00010000
,
00010000
02000000
00010000
03002000
,
00010000
00013000
00010000
00002000
,
00010000
02003000
00010000
03002000
,
00010000
00013000
00010000
00001000
,
00001000
00000020
00001000
00020030
,
00001000
00031000
00001000
00010000
,
00001000
00010000
00011000
00000000
,
00100000
00000000
10000000
00000000
00000000
01000000
00100000
00000000
00000000
00000000
00000000
00000000
,
00010000
00000000
01000000
00000000
00000000
00001000
00010000
00000000
00000000
00000000
00000000
00000000
,
00000000
00000000
00000000
00000000
;
#NOTES:
     dance-double:
     :
     Medium:
     13:
     :
00000000
00000000
00000000
00000000
,
00000000
00000000
00000000
00000000
,
00000000
00000000
00000000
00000000
,
00000000
00000000
00000000
00000000
,
00000000
00000000
00000000
00000000
,
00000000
00000000
00000000
00000000
,
10000000
00000000
00010000
00200000
00000000
00000000
01000000
00000000
00000000
01300000
00000000
00000000
,
00010000
00000000
00001000
00010000
00000000
00001000
00010000
00000000
00000000
00010000
00000000
00000000
,
00001000
00000000
00010000
00000100
00000000
00000000
00001000
00000000
00000100
00010000
00000000
00000000
,
00001000
00000000
00010000
00000100
00000000
00000000
00001000
00000000
00000100
00010000
00000000
00000000
,
00001000
00000000
00010000
00000020
00000000
00000000
00000100
00000000
00000000
00000130
00000000
00000000
,
00000010
00000000
00001000
00000010
00000000
00001000
00000010
00000000
00000000
00000010
00000000
00000000
,
00010000
00000000
00001000
01000000
00000000
00000000
00010000
00000000
01000000
00001000
00000000
00000000
,
00010000
00000000
00001000
01000000
00000000
00000000
00010000
00000000
01000000
00001000
00000000
00000000
,
00010000
00000000
00001000
01000000
00000000
00000000
00010000
00000000
00100000
10000000
00000000
00000000
,
10000000
00000000
00100000
00010000
00000000
00000000
00001000
00000000
00000010
00000001
00000000
00000000
,
00000001
00000000
00000010
00001000
00000000
00000000
00010000
00000000
01000000
10000000
00000000
00000000
,
10000000
00000000
01000000
00010000
00000000
00000000
00001000
00000000
00000100
00000001
00000000
00000000
,
00000001
00000000
00000100
00001000
00000000
00000000
00001000
00000000
00000100
00010000
00000000
00000000
,
00001000
00000000
00010000
00000100
00000000
00000000
00001000
00000000
00000100
00010000
00000000
00000000
,
00001000
00000000
00010000
00000100
00000000
00000000
00010000
00000000
00000000
00011000
00000000
00000000
,
00100000
00110000
10000000
00100000
,
01010000
00000000
00100000
00011000
,
00000010
00011000
00000100
00000001
,
00001001
00000000
00000011
00000011
,
00001100
00011000
00010010
00101000
,
10010000
00000000
10100000
10100000
,
01010000
00011000
00101000
00010010
,
00001001
00000000
00000000
00000000
00000000
00000000
00000010
00000000
00000001
00000200
00000000
00000000
,
00000010
00000000
00000000
00000310
00000000
00000000
00010000
00000000
00001000
00010000
00000000
00001000
,
00010000
00000000
00000000
00010000
00000000
00000000
00100000
00000000
10000000
02000000
00000000
00000000
,
00100000
00000000
00000000
03100000
00000000
00000000
00001000
00000000
00010000
00001000
00000000
00010000
,
00001000
00000000
00000000
00001000
00000000
00000000
00010000
00000000
00001000
01000000
00000000
00000000
,
00010000
00000000
01000000
00001000
00000000
00000000
00100000
00000000
00100000
00010000
00000000
00010000
,
00001000
00000000
00001000
00000100
00000000
00000100
00000010
00000000
00000000
00000001
00000000
00000000
,
00001001
00000000
00000000
00000000
00000000
00000000
00000010
00000000
00000100
00000000
00000000
00000001
,
00001000
00000000
00000000
00000000
00000000
00000000
00001000
00000000
00000100
00010000
00000000
00000000
,
00001000
00000000
00010000
00000100
00000000
00000000
00001000
00000000
00000100
00010000
00000000
00000000
,
00001000
00000000
00010000
00000100
00000000
00000000
00001000
00000000
00000100
00010000
00000000
00000000
,
00001000
00000000
00010000
00000100
00000000
00000000
00010000
00000000
00001000
02000000
00000000
00000000
,
00100000
00000000
00000000
03100000
00000000
00000000
10000000
00000000
01000000
10000000
00000000
01000000
,
10000000
00000000
00000000
10000000
00000000
00000000
00010000
00000000
00010000
00100000
00000000
00000000
,
00001000
00000000
00001000
00010000
00000000
00000000
00000010
00000000
00000000
00001000
00000000
00000000
,
00000001
00000010
00000110
00000000
,
00000001
00000000
00000100
00000000
00000000
00001000
00010000
00000000
00000000
00000000
00000000
00000000
,
00010000
00000000
00001000
01000000
00000000
00000000
00010000
00000000
01000000
00001000
00000000
00000000
,
00010000
00000000
00001000
01000000
00000000
00000000
00010000
00000000
01000000
00001000
00000000
00000000
,
00010000
00000000
00001000
01000000
00000000
00000000
00010000
00000000
01000000
00001000
00000000
00000000
,
00010000
00000000
00001000
01000000
00000000
00000000
00010000
00000000
01000000
00001000
00000000
00000000
,
00010000
00000000
00100000
10000000
00000000
00000000
10000000
00000000
01000000
00010000
00000000
00000000
,
00001000
00000000
00000010
00000001
00000000
00000000
00000001
00000000
00000100
00001000
00000000
00000000
,
00010000
00000000
00100000
10000000
00000000
00000000
10000000
00000000
01000000
00010000
00000000
00000000
,
00001000
00000000
00000010
00000001
00000000
00000000
00000001
00000000
00000100
00001000
00000000
00000000
,
00010000
00000000
00001000
00010000
00000000
00001000
00010000
00000000
00001000
00010000
00000000
00001000
,
00010000
00000000
00001000
00010000
00000000
00001000
00010000
00000000
00001000
00010000
00000000
00001000
,
00100000
01000000
01100000
00000000
,
10000000
00000000
00100000
00000000
00000000
01000000
00010000
00000000
00000000
00000000
00000000
00000000
,
00100000
00000000
00010000
00000000
00000000
00001000
00000100
00000000
00000000
00000000
00000000
00000000
,
00001000
00000000
00000100
00010000
00000000
00000000
00001000
00000000
00010000
00000100
00000000
00000000
,
00000110
00001100
00011000
00110000
,
00010000
00000000
01000000
00001000
00000000
00000000
00010000
00000000
00001000
01000000
00000000
00000000
,
01100000
01010000
00011000
00001010
,
00001000
00000000
00000100
00010000
00000000
00000000
00001000
00000000
00010000
00000100
00000000
00000000
,
00000110
00001100
00011000
00110000
,
00010000
00000000
01000000
00001000
00000000
00000000
00010000
00000000
00001000
01000000
00000000
00000000
,
01100000
01010000
00011000
00001010
,
00001000
00000000
00000100
00010000
00000000
00000000
00001000
00000000
00010000
00000100
00000000
00000000
,
00000110
00001100
00011000
00110000
,
00100000
00010000
10010000
00000000
,
00100000
00000000
10000000
00000000
00000000
01000000
00010000
00000000
00000000
00000000
00000000
00000000
,
00001000
00000000
00000100
00000000
00000000
00000001
00000010
00000000
00000000
00000000
00000000
00000000
,
00000000
00000000
00000000
00000000
;
#NOTES:
     dance-double:
     :
     Hard:
     15:
     :
00000000
00000000
00000000
00000000
,
00000000
00000000
00000000
00000000
,
00000000
00000000
00000000
00000000
,
00000000
00000000
00000000
00000000
,
00000000
00000000
00000000
00000000
,
00000000
00000000
00000000
00000000
,
00000001
00000010
00000100
00002000
00000000
00000000
00000010
00000000
00000000
00003010
00000000
00000000
,
00010000
00000000
00001000
00010000
00000000
00001000
00010000
00000000
00010000
00100000
00000000
00100000
,
10000000
00000000
10000000
01000000
00000000
01000000
00010000
00000000
00010000
00001000
00000000
00001000
,
00000010
00000000
00000010
00000001
00000000
00000001
00000100
00000000
00000100
00001000
00000000
00001000
,
00010000
00001000
00010000
00000200
00000000
00000000
00000010
00000000
00000000
00000310
00000000
00000000
,
00001000
00000000
00010000
00001000
00000000
00010000
00001000
00000000
00001000
00010000
00000000
00010000
,
00001000
00000000
00010000
00000100
00000000
00000100
00001000
00000000
00000100
00010000
00000000
00010000
,
00001000
00000000
00010000
00000010
00000000
00000010
00001000
00000000
00000010
00010000
00000000
00010000
,
00001000
00000000
00001000
00000100
00000000
00000100
00000001
00000010
00000100
00001000
00000000
00000000
,
00010000
00100000
01000000
10000000
00000000
00000000
10000000
00100000
01000000
00010000
00000000
00000000
,
00001000
00000010
00000100
00000001
00000000
00000000
00000001
00000010
00000100
00001000
00000000
00000000
,
00010000
00100000
01000000
10000000
00000000
00000000
10000000
00100000
01000000
00010000
00000000
00000000
,
00001000
00000010
00000100
00000001
00000000
00000000
00001000
00000000
00001000
00000100
00000000
00000100
,
00001000
00000000
00000100
00010000
00000000
00010000
00001000
00000000
00010000
00000100
00000000
00000100
,
00001000
00000000
00000100
00010000
00000000
00010000
00001000
00000000
00001000
00100000
00000000
00100000
,
01000000
00000000
01000000
00100000
00000000
00100000
00001000
00000000
00001000
00010000
00000000
00010000
,
00100000
00000000
00000000
10010000
00000000
00000000
00100000
00000000
00100000
00001000
00000000
00001000
,
01000000
00000000
01000000
00100000
00000000
00100000
00010000
00000000
00010000
00001000
00000000
00001000
,
00000100
00000000
00000000
00000000
00000000
00000000
00000010
00000000
00000010
00010000
00000000
00010000
,
00000100
00000000
00000100
00000010
00000000
00000010
00000100
00000000
00000100
00010000
00000000
00010000
,
00001000
00000000
00000000
00110000
00000000
00000000
00001000
00000000
00001000
00010000
00000000
00010000
,
01000000
00000000
01000000
10000000
00000000
10000000
00100000
00000000
00100000
00010000
00000000
00010000
,
00001000
00000000
00000000
00000000
00000000
00000000
00010000
00000010
00001000
00000020
00000000
00000000
,
00000100
00000000
00000000
00000130
00000000
00000000
00000001
00000000
00000010
00000001
00000000
00000010
,
00000001
00000000
00000000
00000100
00000000
00000000
00001000
00010000
00001000
00020000
00000000
00000000
,
00100000
00000000
00000000
00130000
00000000
00000000
10000000
00000000
01000000
10000000
00000000
01000000
,
10000000
00000000
00000000
10000000
00000000
00000000
00010000
00000000
01000000
00001000
00000000
00000000
,
00010000
00000000
00001000
01000000
00000000
00000000
00100000
10000000
00010000
01000000
00001000
00010000
,
00000010
00001000
00000001
00000100
00000010
00001000
00000100
00000000
00000000
00000010
00000000
00000000
,
00000110
00000000
00000000
00000000
00000000
00000000
00000001
00000000
00000100
00000000
00000000
00001000
,
00010000
00000000
00000000
00000000
00000000
00000000
00010000
00000000
00001000
01000000
00000000
01000000
,
00010000
00000000
01000000
00001000
00000000
00001000
00010000
00000000
00001000
01000000
00000000
01000000
,
00010000
00000000
01000000
00001000
00000000
00001000
00010000
00000000
00001000
01000000
00000000
01000000
,
00010000
00000000
01000000
00001000
00000000
00001000
00010000
00000010
00001000
00000002
00000000
00000000
,
00000100
00000000
00000000
00000103
00000000
00000000
00000010
00000000
00000100
00000010
00000000
00000100
,
00000010
00010000
00000100
00000010
,
00000001
00001000
00000100
00010000
00001000
01000000
00100000
10000000
01000000
00100000
00010000
01000000
,
00100000
01000000
01100000
00000000
,
10000000
00000000
01000000
00000000
00000000
00010000
00001000
00000000
00000000
00000000
00000000
00000000
,
00001000
00000000
00010000
00000100
00000000
00000100
00001000
00000000
00000100
00010000
00000000
00010000
,
00001000
00000000
00010000
00000100
00000000
00000100
00001000
00000000
00000100
00010000
00000000
00010000
,
00001000
00000000
00010000
00000100
00000000
00000100
00001000
00000000
00000100
00010000
00000000
00010000
,
00001000
00000000
00010000
00000100
00000000
00000100
00001000
00000000
00000100
00010000
00000000
00010000
,
00001000
00000010
00000100
00000001
00000000
00000000
00000001
00000100
00000010
00001000
00000000
00000000
,
00010000
01000000
00100000
10000000
00000000
00000000
10000000
00100000
01000000
00010000
00000000
00000000
,
00001000
00000010
00000100
00000001
00000000
00000000
00000001
00000100
00000010
00001000
00000000
00000000
,
00010000
01000000
00100000
10000000
00000000
00000000
10000000
00100000
01000000
00010000
00000000
00000000
,
00001000
00010000
00001000
00010000
00001000
00010000
00001000
00010000
00001000
00010000
00001000
00010000
,
00000010
00001000
00000010
00010000
00001000
00010000
00000100
00001000
00000100
00000010
00000001
00000010
,
00000100
00001000
00001001
00000000
,
00000100
00000000
00001000
00000000
00000000
00010000
00001000
00000000
00000000
00000000
00000000
00000000
,
00100000
00000000
00010000
00000000
00000000
00001000
00010000
00000000
00000000
00000000
00000000
00000000
,
00010000
00000000
00001000
01000000
00000000
01000000
00010000
00000000
01000000
00001000
00000000
00001000
,
00100000
00000000
00010000
00100000
00000000
00010000
00100000
00000000
00010000
01000000
00000000
01000000
,
00001000
00000000
00010000
00000100
00000000
00000100
00001000
00000000
00000100
00010000
00000000
00010000
,
00000010
00000000
00001000
00000010
00000000
00001000
00000010
00000000
00001000
00000100
00000000
00000100
,
00010000
00000000
00001000
01000000
00000000
01000000
00010000
00000000
01000000
00001000
00000000
00001000
,
00100000
00000000
00010000
00100000
00000000
00010000
00100000
00000000
00010000
01000000
00000000
01000000
,
00001000
00000000
00010000
00000100
00000000
00000100
00001000
00000000
00000100
00010000
00000000
00010000
,
00000010
00000000
00001000
00000010
00000000
00001000
00000010
00000000
00001000
00000100
00000000
00000100
,
00010000
00000000
00001000
01000000
00000000
01000000
00010000
00000000
01000000
00001000
00000000
00001000
,
00100000
00000000
00010000
00100000
00000000
00010000
00100000
00000000
00010000
01000000
00000000
01000000
,
00100000
10000000
11000000
00000000
,
00010000
00000000
00001000
00000010
00000000
00000001
00000100
00000000
00000000
00000000
00000000
00000000
,
00000001
00000000
00000010
00001000
00000000
00010000
00001000
00000000
00000000
00000000
00000000
00000000
,
00000000
00000000
00000000
00000000
;
