
//----- song id: asai
#TITLE:朝色の紙飛行機;
#ARTIST:かめりあ;
#TITLETRANSLIT:Asa-iro no kami hikouki;
#ARTISTTRANSLIT:Camelia;
#BANNER:Asa-iro no kami hikouki.png;
#BACKGROUND:Asa-iro no kami hikouki-bg.png;
#CDTITLE:./CDTitles/DDR (2014).png;
#MUSIC:Asa-iro no kami hikouki.ogg;
#SAMPLESTART:52.964;
#SAMPLELENGTH:15;
#BPMS:0=132;
#NOTES:
     dance-single:
     :
     Beginner:
     2:
     :
0000
0000
0000
0000
,
0000
0000
0000
0000
,
0000
0000
0000
0000
,
0000
0000
0000
0000
,
0000
0000
0000
0000
,
0000
0000
0000
0000
,
2000
0000
0000
0000
,
0000
0000
3000
0000
,
0020
0000
0000
0000
,
0000
0000
0030
0000
,
0001
0000
0001
0000
,
0100
0000
0100
0000
,
1000
0000
1000
0000
,
0000
0000
0000
0000
,
0001
0001
0001
0000
,
1000
1000
1000
0000
,
0001
0001
0001
0000
,
1000
1000
1000
0000
,
0010
0010
0010
0000
,
0100
0100
0100
0000
,
0010
0010
0010
0000
,
0100
0100
0100
0000
,
0001
0000
0010
0000
,
1000
0000
0010
0000
,
0002
0000
0003
0000
,
2000
0000
3000
0000
,
0001
0000
0010
0000
,
1000
0000
0010
0000
,
0001
0000
0000
0000
,
1001
0000
0000
0000
,
1000
1000
1000
0000
,
0010
0010
0010
0000
,
0001
0001
0001
0000
,
0010
0010
0010
0000
,
1000
1000
1000
0000
,
0100
0100
0100
0000
,
0001
0000
1000
0000
,
0001
0000
1000
0000
,
0000
0001
0001
0000
,
0100
0100
0100
0000
,
1000
1000
1000
0000
,
0100
0100
0100
0000
,
0001
0000
0010
0000
,
1000
0000
0010
0000
,
0001
0000
1000
0000
,
2002
0000
3003
0000
,
0010
0010
0010
0010
,
0010
0000
0100
0000
,
1000
1000
1000
1000
,
1000
0000
0001
0000
,
0100
0100
0100
0100
,
0100
0000
0010
0000
,
0001
0001
0001
0001
,
0001
0000
1000
0000
,
0001
0000
0000
0000
,
0001
0000
0000
0000
,
1000
0000
0000
0000
,
1000
0000
0000
0000
,
0010
0000
0000
0000
,
0010
0000
0000
0000
,
0000
0000
0000
0000
;
#NOTES:
     dance-single:
     :
     Easy:
     5:
     :
0000
0000
0000
0000
,
0000
0000
0000
0000
,
0000
0000
0000
0000
,
0000
0000
0000
0000
,
0000
0000
0000
0000
,
0000
0000
0000
0000
,
0002
0000
0000
0000
,
0000
0000
0000
0003
,
0020
0000
0000
0000
,
0000
0030
0010
0100
,
0010
0000
0001
0000
,
0100
0000
1000
0000
,
0010
0001
0100
1000
,
0010
0000
1000
1001
,
0010
1000
1000
0010
,
1000
0001
0001
1000
,
0100
0010
0100
0100
,
1000
0100
0010
0001
,
1000
0001
0001
0100
,
0001
1000
1000
0010
,
0100
0100
1000
0010
,
0001
0010
0001
0000
,
0002
0010
1000
0013
,
2000
0010
0001
3010
,
0002
0000
0000
2000
,
0000
0000
3003
0000
,
0002
0100
1000
0103
,
2000
0100
0001
3100
,
2000
0000
0000
3000
,
0000
0001
0001
0001
,
0010
0001
0100
0001
,
0010
1000
1000
1000
,
0001
0010
0100
1000
,
1000
0010
0001
0010
,
1001
0000
0010
1000
,
0010
0001
1000
0001
,
0001
1000
0010
0001
,
0100
0010
0100
1000
,
1001
0000
1000
0100
,
1000
0010
0001
0100
,
0001
0010
0100
1000
,
0001
0010
1000
0100
,
0001
0000
0010
0000
,
0001
0000
1000
0000
,
1000
0001
0010
0000
,
0200
0000
0000
0300
,
0001
0001
1000
0001
,
1000
0001
1000
0001
,
0010
1000
0001
1000
,
0001
1000
0001
1000
,
0100
1000
0001
1000
,
0001
1000
0001
1000
,
0010
0001
1000
0001
,
0100
0000
1000
0001
,
0020
0000
0000
0000
,
0200
0000
0000
0330
,
0002
0000
0000
0000
,
2000
0000
0000
3003
,
0020
0000
0000
0000
,
0200
0000
0000
0330
,
0000
0000
0000
0000
;
#NOTES:
     dance-single:
     :
     Medium:
     9:
     :
0000
0000
0000
0000
,
0000
0000
0000
0000
,
0000
0000
0000
0000
,
0000
0000
0000
0000
,
0000
0000
0000
0000
,
0000
0000
0000
0000
,
1000
0000
0000
0001
0000
1000
0000
0002
0000
0000
0000
0000
0000
0000
0000
0000
,
0000
0003
0000
0000
,
0010
0000
0000
0100
0000
0010
0000
0100
0000
0000
0000
0000
0000
0000
0001
0000
,
0000
0001
0010
0100
,
0010
0010
1000
1000
,
0100
0100
0001
0001
,
1000
0010
0100
0001
1000
0100
0010
0001
,
1000
0000
0001
1001
,
0010
0000
0001
0010
0001
0000
0010
1000
,
0001
0000
1000
0010
1000
0000
0001
1000
,
0100
0000
0010
0001
0100
0000
0100
0000
,
0001
0010
0100
0010
0001
0000
0001
0000
,
1001
0000
1000
0100
1000
0000
0100
0001
,
1000
0000
0001
0100
0001
0000
0010
1000
,
0100
0000
0100
1000
0001
0000
0010
0000
,
1000
0100
0010
0100
1000
0000
1000
0000
,
1020
0031
1200
0301
,
0021
0000
1030
0000
0001
0100
1000
0000
,
0020
0000
0000
0200
,
0000
0000
0330
0100
,
1020
0031
1200
0301
,
0021
1030
0201
1300
,
0002
0000
0000
0003
,
0000
0000
1000
0000
0000
1000
0000
0000
0001
0000
0000
0001
0000
0000
0001
0000
,
0010
0000
1000
0010
0100
0010
1000
0000
,
1010
0000
0001
0010
0001
1000
0001
0000
,
1001
0000
0010
1000
0100
0010
0001
0000
,
0001
0010
1000
0010
,
1001
0000
0010
0001
0010
1000
0001
0000
,
0011
0000
1000
0010
0001
0010
1000
0000
,
1000
0001
0010
1000
,
0100
0001
0010
0000
0100
0010
0001
0000
,
1000
0000
1001
0000
0001
0010
0100
0000
,
0011
0000
1000
0010
1000
0001
0100
0000
,
1001
0000
0010
0001
0100
1000
0001
0000
,
1000
0010
0001
0100
,
1001
0000
0000
1000
0010
0001
1000
0000
,
1010
0000
0000
0010
1000
0010
0001
0000
,
0001
0000
0001
0000
1000
0000
1000
0000
0010
0000
0000
0010
0000
0000
0020
0000
,
0000
0000
0000
0030
,
1000
0000
1000
0000
0001
0100
1000
0000
,
0001
0100
1000
0000
0001
0100
1000
0000
,
0010
0000
0001
0000
1000
0100
0001
0000
,
1000
0100
0001
0000
1000
0100
0001
0000
,
0100
0000
0001
0000
1000
0010
0001
0000
,
1000
0010
0001
0000
1000
0010
0001
0000
,
1000
0000
1000
0000
0001
0000
1000
0010
,
0000
0010
0100
0000
0001
0000
1000
0000
,
0020
1000
0000
1000
,
0000
0100
0000
0130
,
2000
0001
0000
0001
,
0000
0100
0000
3100
,
0020
0001
0000
0001
,
0000
0100
0000
0130
,
0000
0000
0000
0000
;
#NOTES:
     dance-single:
     :
     Hard:
     13:
     :
0000
0000
0000
0000
,
0000
0000
0000
0000
,
0000
0000
0000
0000
,
0000
0000
0000
0000
,
0000
0000
0000
0000
,
0000
0000
0000
0000
,
0010
0000
0000
1000
0000
0001
0000
0220
0000
0000
0000
0000
0000
0000
0000
0000
,
0330
0000
1000
0000
0001
0000
0000
0100
,
2010
0000
0000
3001
0000
0010
0000
0110
0000
0000
0000
0000
0010
0000
1001
0000
,
0000
0010
1000
0001
0010
0000
0100
0000
,
0010
0001
0010
0000
0001
0100
0001
0000
,
0100
1000
0100
0000
1000
0010
1000
0000
,
0001
0010
0001
0010
0100
1000
0100
1000
0001
0100
0001
0100
0010
1000
0010
1000
,
0001
0000
1000
1001
,
0010
0000
1000
0100
1000
0100
0010
0100
1000
0100
0000
0100
0010
0000
0001
0000
,
1000
0000
0001
0100
0001
0100
0010
0100
0001
0100
0000
0100
0001
0000
1000
0000
,
0001
0000
0010
0001
0010
0001
1000
0001
0100
0001
0000
0001
0100
0000
0010
0000
,
1000
0010
0100
0010
1000
0000
1000
0000
,
1001
0000
0001
0010
0001
0010
0100
0010
0001
0010
0000
0010
0100
0000
1000
0000
,
0001
0000
1000
0010
1000
0010
0100
0010
1000
0010
0000
0010
1000
0000
0001
0000
,
1000
0000
0100
1000
0100
1000
0001
1000
0010
1000
0000
1000
0010
0000
0100
0000
,
0001
0100
0010
0100
0001
0000
0001
0000
,
0021
1030
0201
1300
,
1020
0000
0031
0000
1000
0100
0001
0000
,
0020
0000
0000
0200
,
0000
0000
0000
0330
0000
0100
0010
0000
,
0021
1030
0201
1300
,
1020
0031
1200
0301
,
2000
0000
0000
3000
,
0000
0000
0011
0000
0000
0010
0100
0000
1100
0000
0000
0001
0100
0000
0110
0000
,
1000
0000
0000
0000
0001
0100
0010
1000
0001
0000
0010
0000
0100
0000
0010
0000
,
0011
0000
0000
0000
1000
0100
0010
0001
1000
0000
0001
0000
1000
0000
0001
0000
,
1001
0000
0000
0000
0010
1000
0001
0010
0100
0000
1000
0000
0001
0000
1000
0000
,
1100
0010
0100
1000
0010
0100
0010
0000
,
1001
0000
0000
0000
0010
0100
1000
0100
0010
0000
0001
0000
1000
0000
0010
0000
,
1010
0000
0000
0000
0001
0100
0010
0100
0001
0000
0010
0000
0001
0000
1000
0000
,
0001
0001
1000
1000
0010
1000
0001
0010
,
0100
1000
0010
0001
0100
0010
1000
1000
,
0001
0000
0000
0000
1001
0000
0010
0001
1000
0000
0010
0000
0100
0000
0010
0000
,
1010
0000
0000
0000
0001
0100
0010
1000
0001
0000
1000
0000
0100
0000
1000
0000
,
1001
0000
0000
0000
0010
0001
1000
0010
0100
0000
0001
0000
1000
0000
0001
0000
,
0101
0010
0100
0001
0010
0100
0010
0000
,
1001
0000
0000
0000
0010
0100
0001
0100
0010
0000
1000
0000
0001
0000
0010
0000
,
0011
0000
0000
0000
1000
0100
0010
0100
1000
0000
0010
0000
1000
0000
0001
0000
,
1000
0000
1000
0000
0001
0000
0001
0000
0010
0001
0000
1000
0000
0000
0010
0000
,
0000
0100
0010
0000
0000
0000
1000
0000
0100
0000
0010
0000
0010
0000
0010
0000
,
0001
0000
0000
0010
0001
1000
0000
0010
1000
0000
0100
0000
0001
0000
0100
0000
,
1000
0100
0001
0100
1000
0100
0001
0100
,
0010
0000
0000
0001
1000
0010
0000
0100
0001
0000
0100
0000
1000
0000
0100
0000
,
0001
0000
0100
0000
1000
0000
0100
0000
0001
0000
0100
0010
0000
1000
0010
0000
,
0100
0000
0000
0010
1000
0010
0000
0100
0001
0000
0010
0000
1000
0000
0010
0000
,
0001
0010
1000
0010
0001
0010
1000
0010
,
0001
0000
0000
0100
0001
1000
0000
0100
1000
0000
0000
0000
0001
0000
0010
0000
,
0000
0010
0100
0010
1000
0010
0001
0010
,
0210
1000
0000
1000
,
0000
0010
0000
0310
,
0002
1000
0000
1000
,
0000
0100
0000
0103
,
0020
1000
0000
1000
,
0000
0100
0000
0130
,
0000
0000
0000
0000
;
#NOTES:
     dance-double:
     :
     Easy:
     5:
     :
00000000
00000000
00000000
00000000
,
00000000
00000000
00000000
00000000
,
00000000
00000000
00000000
00000000
,
00000000
00000000
00000000
00000000
,
00000000
00000000
00000000
00000000
,
00000000
00000000
00000000
00000000
,
00000200
00000000
00000000
00000000
,
00000300
00010000
00001000
00000000
,
00200000
00000000
00000000
00300000
,
00010000
00100000
00010000
00001000
,
00000100
00000001
00000010
00000000
,
00001000
00010000
01000000
00000000
,
01000000
10000000
00100000
00000000
,
00010000
00000000
00001000
00011000
,
00000010
00000010
00000001
00000100
,
00001000
00001000
00010000
01000000
,
10000000
10000000
00100000
01000000
,
00100000
10000000
01000000
00010000
,
00001000
00001000
00000100
00000001
,
00000010
00000010
00000001
00001000
,
00000010
00000010
00000100
00001000
,
00010000
00001000
00010000
00000000
,
00002000
00100000
00010000
00103000
,
00020000
00000010
00001000
00030010
,
00000200
00000000
00000000
00000020
,
00000000
00000000
00000330
00000000
,
00020000
00000010
00001000
00030010
,
00002000
00100000
00010000
00103000
,
00020000
00000000
00000000
00000000
,
00030000
00000000
00000000
00000000
,
00100000
00100000
10000000
00100000
,
10000000
01000000
00010000
00001000
,
00000010
00000010
00000100
00000010
,
00000001
00000100
00001000
00010000
,
00001000
00001000
00010000
01000000
,
10000000
00010000
01000000
00100000
,
10000000
00000000
01000000
00000000
,
00010000
00001000
00010000
00001000
,
00011000
00000000
00010000
00001000
,
00000010
00001000
00010000
00010000
,
00001000
00010000
00100000
01000000
,
00010000
00100000
01000000
10000000
,
00010000
00000000
01000000
00000000
,
00001000
00000000
00010000
00000000
,
00000010
00000000
00001000
00000000
,
00000002
00000000
00000000
00000003
,
00001000
00000100
00010000
00000010
,
00010000
00000010
00010000
00000010
,
00010000
00001000
00100000
00001000
,
00100000
00001000
00100000
00001000
,
00010000
00001000
01000000
00001000
,
01000000
00001000
01000000
00001000
,
00010000
00000100
00010000
00000100
,
00010000
00000010
00001000
00000001
,
00000020
00000000
00000000
00000000
,
00000200
00000000
00000000
00000330
,
00020000
00000000
00000000
00000000
,
00002000
00000000
00000000
00033000
,
00200000
00000000
00000000
00000000
,
00020000
00000000
00000000
00330000
,
00000000
00000000
00000000
00000000
;
#NOTES:
     dance-double:
     :
     Medium:
     10:
     :
00000000
00000000
00000000
00000000
,
00000000
00000000
00000000
00000000
,
00000000
00000000
00000000
00000000
,
00000000
00000000
00000000
00000000
,
00000000
00000000
00000000
00000000
,
00000000
00000000
00000000
00000000
,
00100000
00000000
00000000
01000000
00000000
00100000
00000000
02000000
00000000
00000000
00000000
00000000
00000000
00000000
00000000
00000000
,
03000000
00001000
00010000
00000000
,
00000100
00000000
00000000
00000010
00000000
00000100
00000000
00000010
00000000
00000000
00000000
00000000
00000000
00000000
00000001
00000000
,
00000000
00000001
00000100
00000000
00001000
00000000
00010000
00000000
,
00100000
10000000
01000000
01000000
,
00010000
00001000
00000100
00000001
,
00000010
00001000
00010000
00100000
,
10000000
00000000
00010000
10010000
,
00100000
10000000
00100000
10000000
01000000
00100000
00010000
00000000
,
00001000
00000100
00001000
00000100
00000010
00000001
00001000
00000000
,
00000010
00000100
00000010
00000100
00001000
00010000
00001000
00000000
,
00100000
10000000
00100000
01000000
00100000
00000000
10000000
00000000
,
01000000
10000000
01000000
00100000
00010000
00001000
00010000
00000000
,
00001000
00000010
00000100
00000010
00001000
00000001
00000100
00000000
,
00000010
00010000
00001000
00100000
01000000
10000000
00010000
00000000
,
00100000
10000000
01000000
00100000
00010000
00000000
00001000
00000000
,
00102000
00013000
00020100
00031000
,
01002000
00013000
00020010
00031000
,
00200000
00000000
00000000
02000000
,
00000000
00000000
00000000
03300000
00000000
00001000
00010000
00000000
,
00021000
01030000
21000000
30100000
,
00120000
00031000
00001020
00000031
,
00002000
00000000
00000000
00003000
,
00000000
00000000
00000011
00000000
00000000
00000100
00000000
00000000
00001000
00000000
00000000
00010000
00000000
00000000
01000000
00000000
,
10000000
00000000
00010000
00100000
01000000
00100000
00001000
00010000
,
00100000
00000000
10000000
01000000
00010000
00001000
00010000
00000000
,
00001000
00000000
00000100
00000010
00001000
00010000
00100000
10000000
,
00010000
00100000
01000000
00000000
10000000
00100000
01000000
00000000
,
10010000
00000000
00100000
00010000
00001000
00000100
00000010
00000001
,
00001000
00000000
00000010
00000001
00000010
00000100
00000010
00000000
,
00000100
00010000
01000000
10000000
,
01000000
00010000
00100000
00000000
01000000
00010000
00001000
00000000
,
00010000
00000000
00011000
00000000
00000100
00000010
00010000
00001000
,
00000010
00000000
00000001
00000100
00001000
00010000
00001000
00000000
,
00010000
00000000
01000000
00100000
00010000
00001000
00000010
00000001
,
00001000
00000010
00000100
00000000
00000001
00000010
00000100
00000000
,
00001001
00000000
00000010
00001000
00010000
01000000
00100000
10000000
,
00010000
00000000
00100000
10000000
00100000
01000000
00100000
00000000
,
10000000
00000000
00000000
00000000
00010000
00000000
00000000
00000000
00001000
00000000
00000000
00000100
00000000
00000000
00000200
00000000
,
00000000
00000000
00000000
00000300
,
00000010
00000000
00000001
00000000
00000100
00001000
00010000
00000000
,
00000100
00001000
00010000
00000000
00000100
00001000
00010000
00000000
,
00000010
00000000
00010000
00000000
00001000
00010000
00100000
00000000
,
00001000
00010000
00100000
00000000
00001000
00010000
00100000
00000000
,
10000000
00000000
01000000
00000000
00010000
00001000
00000100
00000000
,
00010000
00001000
00000100
00000000
00010000
00001000
00000100
00000000
,
00000001
00000000
00000010
00000000
00000100
00000000
00000010
00001000
,
00000000
00010000
01000000
10000000
00010000
00000000
10000000
00000000
,
00200000
01000000
00000000
01000000
,
00000000
10000000
00000000
10300000
,
02000000
00100000
00000000
00100000
,
00000000
00010000
00000000
03010000
,
00002000
00010000
00000000
00010000
,
00000000
00000100
00000000
00003100
,
00000000
00000000
00000000
00000000
;
#NOTES:
     dance-double:
     :
     Hard:
     13:
     :
00000000
00000000
00000000
00000000
,
00000000
00000000
00000000
00000000
,
00000000
00000000
00000000
00000000
,
00000000
00000000
00000000
00000000
,
00000000
00000000
00000000
00000000
,
00000000
00000000
00000000
00000000
,
00000010
00000000
00000000
00000001
00000000
00001000
00000000
00002200
00000000
00000000
00000000
00000000
00000000
00000000
00000000
00000000
,
00003300
00000000
00010000
00000000
00001000
00000000
00000000
00100000
,
00020000
00000000
00000000
10030000
00000000
00100000
00000000
01100000
00000000
00000000
00000000
00000000
00100000
00000000
10010000
00000000
,
00000000
00100000
10000000
01000000
00010000
00000000
00000100
00000000
,
00000010
00000001
00000100
00000000
00000010
00001000
00000100
00000000
,
00000010
00001000
00010000
00000000
01000000
10000000
00100000
00000000
,
10000000
00100000
10000000
00000000
00010000
01000000
00001000
00000000
00010000
00001000
00010000
00000000
00000010
00001000
00000010
00001000
,
00000001
00000000
00000010
00001001
,
00000010
00000000
00000001
00000100
00000001
00000100
00000010
00000000
00001000
00000100
00000000
00000100
00010000
00000000
00001000
00000000
,
00100000
00000000
01000000
00100000
01000000
00100000
01000000
00000000
10000000
01000000
00000000
01000000
00010000
00000000
01000000
00000000
,
10000000
00000000
00100000
01000000
00100000
01000000
00010000
00000000
00100000
00010000
00000000
00010000
00001000
00000000
00000100
00000000
,
00000010
00000001
00000010
00000100
00000010
00000000
00000001
00000000
,
00001001
00000000
00000010
00000100
00000010
00000100
00000010
00000000
00001000
00000001
00000000
00000001
00000100
00000000
00001000
00000000
,
00010000
00000000
00100000
01000000
00100000
01000000
00100000
00000000
10000000
00010000
00000000
00010000
10000000
00000000
01000000
00000000
,
00100000
00000000
00001000
00100000
00001000
00100000
00010000
00000000
00100000
00001000
00000000
00001000
00000010
00000000
00000100
00000000
,
00000010
00000001
00000100
00000010
00001000
00000000
00010000
00000000
,
00210000
10300000
12000000
03010000
,
00001200
00000000
00000301
00000000
00000001
00000010
00001000
00000000
,
00000020
00000000
00000000
00000200
,
00000000
00000000
00000000
00000330
00000000
00010000
00001000
00000000
,
00001020
00000031
00000201
00001300
,
02010000
13000000
10200000
00310000
,
20000000
00000000
00000000
30000000
,
00000000
00000000
10100000
00000000
00000000
01000000
00010000
00000000
00001000
00000000
00000000
00000100
00000001
00000000
00001000
00000000
,
00000001
00000000
00000000
00000000
00001000
00000100
00000010
00000001
00001000
00000000
00000010
00000000
00000100
00000000
00000010
00000000
,
00001000
00000000
00000000
00000000
00000100
00010000
00001000
00100000
00010000
00000000
10000000
00000000
01000000
00000000
00100000
00000000
,
00010000
00000000
00000000
00000000
01000000
00100000
00010000
00100000
01000000
00000000
00001000
00000000
00010000
00000000
00000010
00000000
,
00001000
00000010
00000001
00000010
00001000
00000100
00000010
00000000
,
00001001
00000000
00000000
00000000
00000010
00000100
00000010
00000100
00001000
00000000
00010000
00000000
01000000
00000000
10000000
00000000
,
00010000
00000000
00000000
00000000
00100000
00010000
10000000
00010000
00100000
00000000
01000000
00000000
10000000
00000000
00100000
00000000
,
01000000
00001000
00010000
00000000
00000100
00000010
00000001
00000000
,
00000100
00001000
00000010
00000100
00001000
00010000
01000000
10000000
,
00010000
00000000
00000000
00000000
10010000
00000000
00100000
10000000
00010000
00000000
00100000
00000000
01000000
00000000
00100000
00000000
,
00010000
00000000
00000000
00000000
01000000
00001000
00010000
00000010
00001000
00000000
00000001
00000000
00000100
00000000
00000010
00000000
,
00001000
00000000
00000000
00000000
00000100
00000010
00001000
00000010
00000100
00000000
00010000
00000000
00001000
00000000
00100000
00000000
,
00010000
00100000
10000000
00100000
00010000
01000000
00100000
00000000
,
10010000
00000000
00000000
00000000
00100000
01000000
00100000
01000000
00010000
00000000
00001000
00000000
00000100
00000000
00000001
00000000
,
00001000
00000000
00000000
00000000
00000010
00001000
00000001
00001000
00000010
00000000
00000100
00000000
00000001
00000000
00000010
00000000
,
00000001
00000000
00000000
00000000
00001000
00000000
00000000
00000000
00000010
00001000
00000000
00010000
00000000
00000000
01000000
00000000
,
00000000
00100000
01000000
00000000
00000000
00000000
00010000
00000000
01000000
00000000
01000000
00000000
01000000
00000000
01000000
00000000
,
00100000
00000000
00000000
10000000
01000000
00100000
00000000
00010000
00001000
00000000
00000100
00000000
00000010
00000000
00000100
00000000
,
00010000
00000100
00000010
00000100
00010000
00000100
00000010
00000001
,
00000100
00000000
00000000
00000010
00000100
00000010
00000000
00001000
00010000
00000000
01000000
00000000
00100000
00000000
01000000
00000000
,
00001000
00000000
01000000
00000000
00100000
00000000
01000000
00000000
00001000
00000000
00000000
01000000
00100000
00000000
10000000
00000000
,
00010000
00000000
00000000
00100000
00010000
10000000
00000000
00100000
10000000
00000000
01000000
00000000
00001000
00000000
01000000
00000000
,
10000000
01000000
00001000
01000000
10000000
01000000
00001000
00010000
,
00000010
00000000
00000000
00000100
00001000
00000001
00000000
00000100
00000001
00000000
00000000
00000000
00001000
00000000
00000010
00000000
,
00000000
00000010
00000100
00000010
00000001
00000010
00001000
00010000
,
02000000
00100000
00000000
00100000
,
00000000
00010000
00000000
03010000
,
20000000
00010000
00000000
00010000
,
00000000
01000000
00000000
31000000
,
00020000
00001000
00000000
00001000
,
00000000
00000100
00000000
00030100
,
00000000
00000000
00000000
00000000
;
