
//----- song id: awak
#TITLE:AWAKE;
#ARTIST:柊木りお featured by TAG;
#ARTISTTRANSLIT:Rio Hiiragi featured by TAG;
#BANNER:AWAKE.png;
#BACKGROUND:AWAKE-bg.png;
#CDTITLE:./CDTitles/DDR (2014).png;
#MUSIC:AWAKE.ogg;
#SAMPLESTART:70;
#SAMPLELENGTH:15;
#BPMS:0=180;
#NOTES:
     dance-single:
     :
     Beginner:
     3:
     :
0000
0000
0000
0000
,
0000
0000
0000
0000
,
0000
0000
0000
0000
,
0000
0000
0000
0000
,
0000
0000
0000
0000
,
0001
0000
0000
0000
,
1000
0000
0000
0000
,
0001
0000
0000
0000
,
1000
0000
0000
0000
,
0020
0000
0030
0000
,
0010
0000
0010
0000
,
2000
0000
3000
0000
,
1000
0000
1000
0000
,
0002
0000
0003
0000
,
0001
0000
0001
0000
,
1000
0000
0000
0000
,
0001
0000
0000
0000
,
0010
0000
0010
0000
,
1000
0000
1000
0000
,
0001
0000
0001
0000
,
0010
0000
0010
0000
,
1000
0000
0000
0000
,
0001
0000
0000
0000
,
1000
0000
0000
0000
,
1001
0000
0000
0000
,
1000
0000
0010
0000
,
1000
0000
0010
0000
,
2000
0000
3000
0000
,
0002
0000
0003
0000
,
0001
0000
0010
0000
,
0001
0000
0010
0000
,
0002
0000
0003
0000
,
2000
0000
3000
0000
,
0001
0000
0100
0000
,
0001
0000
0100
0000
,
0002
0000
0003
0000
,
2000
0000
3000
0000
,
1000
0000
0100
0000
,
1000
0000
0100
0000
,
2000
0000
3000
0000
,
0002
0000
0003
0000
,
1000
1000
1000
0000
,
0001
0001
0001
0000
,
1000
1000
1000
0000
,
0001
0001
0001
0000
,
1000
0000
0010
0000
,
0001
0000
0010
0000
,
1000
0000
0000
0000
,
0001
0000
0000
0000
,
0010
0000
0000
0000
,
0100
0000
0000
0000
,
1000
0000
0000
0000
,
1001
0000
0000
0000
,
1000
1000
1000
0000
,
0010
0000
0010
0000
,
0001
0001
0001
0000
,
0010
0000
0010
0000
,
1000
0000
0100
0000
,
0010
0000
0001
0000
,
1000
0000
0001
0000
,
0000
0000
0000
0000
,
0001
0001
0001
0000
,
0100
0000
0100
0000
,
1000
1000
1000
0000
,
0100
0000
0100
0000
,
0001
0000
0010
0000
,
0100
0000
1000
0000
,
0001
0000
0000
0000
,
1000
0000
0000
0000
,
0001
0001
0001
0000
,
0100
0100
0100
0000
,
0010
0010
0010
0000
,
1000
1000
1000
0000
,
0001
0000
1000
0000
,
0001
0000
1000
0000
,
0020
0000
0030
0000
,
0200
0000
0300
0000
,
0001
0000
0010
0000
,
1000
0000
0100
0000
,
0002
0000
0000
0000
,
0003
0000
0000
0000
,
0000
0000
0000
0000
;
#NOTES:
     dance-single:
     :
     Easy:
     5:
     :
0000
0000
0000
0000
,
0000
0000
0000
0000
,
0000
0000
0000
0000
,
0000
0000
0000
0000
,
0000
0000
0000
0000
,
2000
0000
0000
3000
,
0002
0000
0000
0003
,
0020
0000
0000
0030
,
0200
0000
0300
0000
,
1001
0000
0000
0000
,
0010
0000
0010
0000
,
1000
0000
0000
0000
,
0100
0000
0100
0000
,
0010
0000
0000
0000
,
0001
0000
0001
0000
,
1000
0000
0001
0000
,
1000
0000
1001
0000
,
0001
0010
0001
0000
,
1000
0010
1000
0000
,
0100
0100
0010
0000
,
0001
0000
1000
0000
,
1000
1000
0001
0000
,
0001
0001
1000
0000
,
1000
1000
0001
0001
,
0010
0000
0000
0000
,
0100
0010
0100
0000
,
0100
0001
0010
0000
,
1000
0001
0100
0000
,
1000
0000
0001
0000
,
1000
0001
1000
0000
,
0100
0010
1000
0000
,
0002
0000
1003
0000
,
0020
0000
0130
0000
,
0001
0010
0001
0000
,
0010
0001
0100
0000
,
0001
1000
0100
0000
,
0001
0000
1000
0000
,
0001
0100
0010
0000
,
0100
0010
0100
0000
,
0020
0000
1030
0000
,
0002
0000
1003
0000
,
1000
1000
1000
0000
,
0100
0010
0001
0000
,
0001
0100
0001
0000
,
0100
0010
1000
0000
,
0001
0000
0010
0000
,
1000
0000
0100
0000
,
0001
0000
1000
0000
,
0001
0000
1000
0001
,
0010
0000
0200
0000
,
0000
0000
0000
0300
,
0010
0010
0001
0001
,
1000
0001
0000
0000
,
0100
0001
0100
0000
,
1000
0010
0010
0000
,
0001
1000
0001
0000
,
0010
0010
0100
0000
,
1000
0000
0100
0000
,
0001
0000
0100
0000
,
2000
0000
0002
0000
,
0000
3003
0000
0000
,
0010
1000
0100
0000
,
0010
0001
0100
0000
,
0010
1000
0001
0000
,
0010
0001
1000
0000
,
0001
0000
0100
0000
,
1000
0000
0010
0000
,
0001
0000
1000
0000
,
0010
0000
1001
0000
,
0100
0100
0001
0000
,
1000
0100
0010
0000
,
0001
0001
0100
0000
,
1000
0000
0001
0000
,
1000
1000
0001
0000
,
0001
0001
1000
0000
,
0010
0000
0001
0000
,
1000
0000
0000
0000
,
0010
0010
0001
0001
,
0100
0100
1000
1000
,
0020
0000
0000
0000
,
0030
0000
0000
0000
,
0000
0000
0000
0000
;
#NOTES:
     dance-single:
     :
     Medium:
     10:
     :
0000
0000
0000
0000
,
0000
0000
0000
0000
,
0000
0000
0000
0000
,
0000
0000
0000
0000
,
0000
0000
0000
0000
,
2000
0000
0000
0000
,
3002
0000
0000
0200
0000
0000
0303
0000
,
0002
0000
0000
0000
,
2003
0000
3100
0010
,
1001
0000
0000
0010
0002
0000
0003
0000
,
1001
0000
0000
0010
2000
0000
3000
0000
,
1100
0000
0000
0010
0002
0000
0003
0000
,
1010
0000
0000
0001
2000
0000
3000
0000
,
0110
0000
0000
0001
2000
0000
3000
0000
,
0011
0000
0000
0100
1000
0000
0001
0000
,
1000
1000
0000
0001
0001
0000
0010
0010
,
0000
0010
0001
0100
0010
0000
0000
0000
,
0100
0000
0001
0000
0010
0001
1000
0000
,
0001
0000
1000
0000
0010
1000
0001
0000
,
0010
0001
0100
0000
0010
1000
0100
0000
,
0002
0010
1000
0103
,
1000
0100
0010
0000
0001
0000
0001
0000
,
1000
0100
0010
0000
0001
0100
0010
0000
,
1000
0000
0010
0000
0001
0100
0010
1000
,
0100
0000
0000
0010
0000
0000
1001
0000
,
0010
0001
0100
0000
0010
0000
0100
0000
,
0010
1000
0001
0000
0100
0000
0100
0000
,
1000
0001
0100
0000
0010
1000
0001
0000
,
1000
0100
0010
0000
0001
0010
0100
0000
,
1000
0000
0100
0000
0010
0001
1000
0000
,
0010
0000
0100
0000
1000
0001
0100
0000
,
0002
0000
0103
0010
1000
0000
0000
0000
,
0002
0000
0013
0100
1000
0000
0000
0000
,
0100
0000
0001
1000
0100
1000
0001
0000
,
0100
0001
0010
1000
,
0001
0000
0010
0100
1000
0100
0010
0000
,
0001
0100
1000
0010
,
0001
1000
0010
0000
0100
0001
0100
0000
,
0010
1000
0100
0000
0010
0000
0010
0000
,
0100
0000
0010
0001
1000
0000
0000
0000
,
0010
0000
0100
0001
1000
0000
0001
0000
,
0201
0010
0001
0301
,
0010
1000
0100
0010
0000
0010
0001
0000
,
1200
0010
1000
1300
,
0010
0001
0000
1000
0000
1001
0000
0000
,
0110
0000
1001
0000
0010
0001
0100
0000
,
0010
1000
0100
0010
0000
0001
1000
0001
,
0100
0000
0100
0010
0000
0010
1000
0000
,
0001
1000
0110
1001
,
0010
0000
0001
1000
0020
0000
0000
0000
,
0000
0000
0000
0030
,
0100
0000
0001
0000
0010
0100
1000
0010
,
0000
0100
0010
0000
0100
0000
1001
0000
,
0010
1000
0001
0010
0000
0100
0010
0100
,
0000
1000
0100
0000
0010
0001
0100
0000
,
0010
1000
0001
1000
0000
0001
0000
0010
,
0000
1000
0100
0000
0010
0000
0010
0000
,
1000
0001
1000
0000
0010
0100
0001
0000
,
0021
0130
1020
0130
,
0001
0000
0010
0001
2000
0000
0000
0000
,
0002
0000
3003
0000
0010
1000
0100
0000
,
1000
0000
0010
0001
0000
0001
1000
0010
,
0000
0100
0010
0000
1000
0001
0100
0000
,
0001
0000
0010
0100
0000
1000
0001
0010
,
0000
0100
0010
0000
0001
0000
1000
0000
,
1001
0000
0100
0000
0010
0001
1000
0000
,
0010
0000
0100
0010
0100
0000
0000
0000
,
0010
0010
0000
1000
1000
0000
0001
0001
,
0000
0010
0100
1000
0001
0000
0000
0000
,
0010
0000
0010
0000
0001
0100
0010
0000
,
1000
0000
1000
0000
0100
0010
0001
0000
,
0100
0000
0100
0000
0010
1000
0001
0000
,
1200
0310
0201
0310
,
1000
0010
1000
0000
0001
0010
0001
0000
,
1000
0100
1000
0000
0001
0100
0001
0000
,
1000
0010
0100
0001
0100
0010
1000
0000
,
0010
0000
0000
0100
0000
0000
1001
0000
,
0010
0001
0100
1000
,
0010
1000
0100
0010
0001
0100
0010
0000
,
2002
0000
0000
0000
,
3003
0000
0000
0000
,
0000
0000
0000
0000
;
#NOTES:
     dance-single:
     :
     Hard:
     13:
     :
0000
0000
0000
0000
,
0000
0000
0000
0000
,
0000
0000
0000
0000
,
0000
0000
0000
0000
,
0000
0000
0000
0000
,
0002
0000
0000
0000
,
0203
0000
0000
0020
0000
0000
0330
0000
,
2000
0000
0000
0000
,
3200
0000
0310
0100
,
2001
0000
0000
3200
2000
0000
0000
3300
,
1001
0000
0000
0100
0000
0000
0010
0000
0002
0000
0000
0000
0000
0000
0003
0000
,
0021
0000
0000
0230
2000
0000
0000
3300
,
0101
0000
0000
0010
0000
0000
1000
0000
0002
0000
0000
0000
0000
0000
0003
0000
,
0220
0000
0030
2300
0002
0000
0000
3003
,
1200
0000
0000
0310
0001
1000
0010
0100
,
0001
1001
0000
1000
1010
0000
0010
0101
,
0000
0100
1000
0010
0220
0000
0330
0000
,
0001
1000
0010
0100
0001
0100
0001
0100
,
1000
0001
0010
0100
1000
0100
1000
0100
,
0001
1000
0100
0010
0001
0100
0010
1000
,
1200
0310
0201
0310
,
0001
0010
1000
0010
0001
0100
0010
0000
,
1000
0100
0001
0100
1000
0001
0010
0000
,
1000
0010
0100
0000
0001
0010
0100
0100
,
0010
0000
0000
0001
0000
0000
0100
0000
0000
1000
0000
0000
1001
0000
0000
0000
,
0100
1000
0010
0100
0000
0100
0001
1000
,
0100
1000
0001
0010
0000
0010
0100
0000
,
0010
0001
1000
0010
0000
0010
0100
0001
,
0010
0100
1000
0100
0010
0001
0010
0001
,
1000
0010
0100
0001
0000
1000
0001
0010
,
0100
1000
0100
0010
0000
0010
0001
0000
,
1000
0010
0100
0000
0001
0010
0100
0000
,
0100
1000
0001
0000
0100
0001
1000
0000
,
0010
1000
0001
1000
0001
0001
1000
1000
,
0010
1000
0100
0010
0001
1000
0100
0000
,
1000
0100
0010
0001
0100
0100
0010
0010
,
0100
0001
1000
0100
1000
0001
1000
0000
,
0001
0020
0100
0030
0100
0020
0001
0030
,
0001
0200
0010
0300
0010
2000
0001
3000
,
0010
0000
0010
0001
1000
0000
0000
0000
,
0010
0000
0010
1000
0001
0001
0001
0001
,
0021
0000
0100
0000
0031
0000
1000
0010
,
0100
0001
0010
0100
0000
0100
1000
0001
,
1020
0000
0100
0000
1030
0000
0001
0010
,
0100
1000
0000
0110
0000
1001
0000
0000
,
0010
1000
0100
0100
0010
0001
0100
0100
,
0010
1000
0001
0010
0000
0010
0001
1000
,
0001
0000
0002
0010
0003
0020
0100
0030
,
1000
0001
0110
1001
,
0100
1000
0010
0001
0200
0000
0000
0000
,
0000
0000
0000
0300
,
0010
1000
0001
0010
0100
0010
0001
0100
,
0000
0100
0100
0000
0010
0000
1001
0000
,
0100
0001
1000
0100
0010
0010
0100
0100
,
1000
0001
0010
0000
1000
0100
0100
1000
,
0010
0010
0100
0010
0000
1100
0001
0100
,
0000
1010
0001
1000
0001
0100
0001
0100
,
0001
1000
0001
0000
0100
0010
1000
0100
,
0010
0011
1100
0101
,
1000
0100
0001
1000
0001
0100
1000
0001
,
1000
0100
0001
1000
0100
0010
0001
1000
,
0010
0100
0001
1000
0000
1000
0001
0001
,
0100
0001
0010
0100
1000
0100
0010
0001
,
0100
1000
0010
0001
0000
1010
0100
0001
,
0000
0011
0100
1000
0001
0010
0010
0001
,
0010
0000
0000
0010
0100
0000
0000
0100
1000
0000
0000
1000
0010
0000
0000
0010
,
1000
0001
0010
0001
0100
0010
1000
0001
,
0100
1100
0000
1000
1001
0000
0010
0110
,
0000
0100
0010
1000
2002
0000
3003
0000
,
1000
0001
0010
0100
1000
0100
1000
0100
,
0001
1000
0010
0100
0001
0100
0001
0100
,
1000
0001
0100
0010
1000
0100
0010
0001
,
0201
0310
1200
0310
,
1000
0010
0001
0010
1000
0100
0010
0000
,
0001
0100
1000
0100
0001
1000
0010
0000
,
0001
0010
0100
0000
1000
0010
0100
0000
,
0010
0000
0000
1000
0000
0000
0100
0000
0000
0001
0000
0000
1001
0000
1000
0000
,
0100
0100
1000
1000
0010
0010
0001
0001
,
0100
1000
0010
1000
0001
0100
0010
1000
,
2002
0000
0000
0000
,
3003
0000
0000
0000
,
0000
0000
0000
0000
;
#NOTES:
     dance-single:
     :
     Challenge:
     16:
     :
0000
0000
0000
0000
,
0000
0000
0000
0000
,
0000
0000
0000
0000
,
0000
0000
0000
0000
,
0000
0000
0000
0000
,
0002
0000
0000
0000
,
0023
0000
0000
0200
0000
0000
0330
0000
,
2000
0000
0000
0000
,
3020
0000
0130
0010
,
2001
0000
0000
3020
2000
0000
0000
3030
,
1001
0000
0000
0010
0000
0000
0100
1000
0002
0000
0000
0000
0000
0000
0003
0000
,
0201
0000
0000
0320
2000
0000
0000
3030
,
0011
0000
0000
0100
0000
0000
1000
0000
0002
0000
0000
0000
0000
0000
0003
0000
,
0220
0000
0300
2030
0002
0000
0000
3003
,
1020
0000
0000
0000
0000
0000
0130
0000
0001
1000
0100
0010
0001
1000
0010
0100
,
0001
0101
0000
1000
1100
0000
0010
1001
,
0000
0000
0010
0000
1000
0000
0100
0000
0010
0000
0010
0000
0001
0010
0001
0010
,
0100
0000
1000
0001
1000
0001
0100
0000
0010
1000
0010
0000
1000
0100
0010
0001
,
1000
0000
0001
0100
0001
0100
0001
0000
0010
0100
0010
0000
0001
1000
0010
0100
,
0001
0000
1000
0100
1000
0100
0010
0000
0001
1000
0001
0000
0100
0010
1000
0001
,
1000
0000
0010
1000
0001
0000
1001
0000
0100
0000
0010
0001
1000
0000
1001
0000
,
0001
0000
0100
0010
0100
0010
1000
0000
0100
0010
0100
0000
0010
0001
0100
0010
,
1000
0000
0001
1000
0001
1000
0100
0000
0010
0001
1000
0000
0010
1000
0001
0000
,
1000
0000
0100
0010
0000
0010
0001
0000
0100
0010
0100
0010
1000
0001
1000
0001
,
0100
0000
0000
1000
0000
0000
0010
0000
0000
0001
0000
0000
1001
0000
0000
0000
,
0010
1000
0100
0010
0000
0010
0001
1000
,
0010
0000
1000
0000
0001
0000
0100
0000
0000
0000
0100
0000
0010
1000
0010
0000
,
0100
0001
1000
0100
0000
0100
0010
0001
,
0100
0000
0010
0000
1000
0000
0010
0000
0100
0001
0100
0000
0001
1000
0001
0000
,
1000
0100
0010
0001
0000
1000
0001
0100
,
0010
0000
1000
0000
0010
0000
0100
0000
0000
0000
0100
0000
0001
0100
0001
0000
,
1000
0100
0110
0000
0001
0100
0110
0000
,
0010
1000
1001
0000
0010
0001
1001
0000
,
0100
0000
0001
0000
1000
0100
1000
0100
1000
0000
0001
0000
0100
0010
0100
0010
,
0100
0000
0001
0000
1000
0001
1000
0001
1000
0000
0100
0000
0010
0000
0001
0000
,
1000
0000
0010
0000
0100
0010
0100
0010
0100
0000
0001
0000
1000
0100
1000
0100
,
1000
0000
0100
0000
0010
0001
0010
0001
0010
0000
0100
0000
1000
0000
0000
0000
,
0001
0000
0100
0000
0010
1000
0010
1000
0010
0000
0100
0000
0001
1000
0001
1000
,
0001
0000
0010
0000
0100
1000
0100
1000
0100
0000
0010
0000
0001
0000
0100
0000
,
0010
0000
0010
1000
0100
0000
0100
0001
,
0010
0000
0010
1000
0100
0100
0100
0100
,
1200
0000
0001
0000
1300
0000
1000
0100
,
0010
0000
0001
0000
0100
0000
0010
0000
0000
0000
0010
1000
0001
0000
1000
0000
,
0021
0000
1000
0000
0031
0000
0001
0100
,
0010
0000
1000
0000
0000
0000
0001
0100
0000
0000
1000
0100
0000
0000
0001
0100
,
0010
0020
1000
2030
0001
3002
0100
0203
,
0010
0320
1000
2030
0100
3200
0010
0310
,
0001
0000
0002
0100
0003
0200
0010
0300
,
1000
0001
0110
1001
,
0010
1000
0100
0001
0020
0000
0000
0000
,
0000
0000
0000
0030
,
0100
0000
1000
0000
0001
0000
0100
0000
0010
1000
0100
0010
0001
0100
0010
0000
,
0000
0010
0010
0000
0100
0000
1001
0000
,
0010
0000
0001
0000
1000
0000
0010
0000
0100
0001
0100
0000
0010
0100
0010
0000
,
1000
0000
0001
0000
0100
0000
0000
0000
1000
0100
0010
0001
0010
0100
1000
0001
,
0100
0100
0010
0100
0000
1010
0001
0010
,
0000
0000
1100
0000
0001
0000
1000
0000
0001
0100
0010
1000
0001
1000
0010
0100
,
0001
1000
0001
0000
0010
0100
1000
0010
,
0100
0000
0000
0000
0100
0001
0000
0000
0001
0010
0000
0000
0010
1000
0000
0000
,
1000
0100
0010
0000
0001
0000
1000
0000
0001
0100
0010
0000
1000
0000
0001
0000
,
1000
0100
0010
0000
0001
0000
1000
0000
0010
0100
0010
0100
0001
1000
0001
1000
,
0100
0000
0100
0000
0010
0000
0001
0000
1000
0010
1000
0000
0001
0010
0001
0000
,
0010
0000
0001
0000
0100
0000
0010
0000
1000
0100
0010
0001
0010
0100
1000
0001
,
1000
0010
0100
0001
0000
1100
0010
0001
,
0000
0000
0101
0000
0010
0000
1000
0000
0001
0010
0100
1000
0100
0010
0001
1000
,
0001
0001
0100
0100
0010
0010
1000
1000
,
0001
0010
0001
0010
0100
1000
0100
1000
0001
0100
0010
1000
0100
0010
0001
0100
,
0010
1010
0000
1000
1001
0000
0100
0110
,
0000
0000
0010
0000
0100
0000
1000
0000
1001
0000
0000
0000
0001
0100
0001
0100
,
0010
0000
1000
0001
1000
0001
0010
0000
0100
1000
0100
0000
1000
0010
0100
0001
,
1000
0000
0001
0010
0001
0010
0001
0000
0100
0010
0100
0000
0001
1000
0100
0010
,
0001
0000
1000
0010
1000
0010
0100
0000
0001
1000
0001
0000
0010
0100
1000
0001
,
1000
0000
0100
1000
0001
0000
1001
0000
0010
0000
0100
0001
1000
0000
1001
0000
,
0001
0000
0010
0100
0010
0100
1000
0000
0010
0100
0010
0000
0100
0001
0010
0100
,
1000
0000
0001
1000
0001
1000
0010
0000
0100
0001
1000
0000
0100
1000
0001
0000
,
1000
0000
0010
0100
0000
0100
0001
0000
0010
0100
0010
0100
1000
0001
1000
0001
,
0010
0000
0000
1000
0000
0000
0100
0000
0000
0001
0000
0000
1001
0000
1000
0000
,
0010
0020
1030
2000
3100
0200
0301
0001
,
0010
0001
1000
0010
0100
0001
1000
0100
0010
0001
1000
0100
1000
0001
0100
0010
,
2000
0000
0000
0000
,
3000
0000
0000
0000
,
0000
0000
0000
0000
;
#NOTES:
     dance-double:
     :
     Easy:
     6:
     :
00000000
00000000
00000000
00000000
,
00000000
00000000
00000000
00000000
,
00000000
00000000
00000000
00000000
,
00000000
00000000
00000000
00000000
,
00000000
00000000
00000000
00000000
,
00000002
00000000
00000000
00000003
,
00000200
00000000
00000000
00000300
,
00002000
00000000
00000000
00003000
,
00020000
00000000
00000000
00030000
,
02000000
00000000
00000000
03000000
,
10000000
00000000
00010000
00000000
,
00200000
00000000
00000000
00300000
,
00001000
00000000
00010000
00000000
,
00000020
00000000
00000000
00000030
,
00001000
00000000
00000001
00000000
,
00000100
00000000
00000010
00000000
,
00010000
00000000
00022000
00033000
,
00100000
00010000
01000000
00000000
,
00100000
10000000
01000000
00000000
,
00100000
00001000
00010000
00000000
,
00001000
00001000
00010000
00010000
,
00000010
00001000
00000001
00000000
,
00000010
00000100
00001000
00000000
,
00000001
00000001
00000100
00000100
,
00001000
00000000
00000000
00000000
,
00010000
00010000
00010000
00000000
,
00100000
01000000
00010000
00000000
,
10000000
01000000
00100000
00000000
,
00001000
00010000
00001000
00000000
,
00010000
00001000
00000100
00000000
,
00000010
00001000
00000100
00000000
,
00000001
00000000
00000010
00000000
,
00001000
00000000
00010000
00000000
,
01000000
10000000
01000000
00000000
,
00100000
00010000
01000000
00000000
,
00100000
10000000
01000000
00000000
,
00010000
00001000
00010000
00000000
,
00001000
00000000
00000100
00000000
,
00000001
00000000
00000010
00000000
,
00000100
00000010
00000001
00000000
,
00000100
00000010
00010000
00000000
,
00001000
00010000
00011000
00000000
,
00100000
00100000
00100000
00000000
,
00010000
10000000
10010000
00000000
,
01000000
01000000
00100000
00000000
,
10000000
01000000
00010000
00001000
,
00000010
00000001
00001000
00000000
,
00000010
00000000
00000001
00001000
,
00001001
00000000
00000010
00000000
,
00000100
00000000
00020000
00000000
,
00000000
00000000
00000000
00030000
,
00001000
00001000
00010000
00010000
,
00001000
00001000
00000000
00000000
,
00100000
00010000
01000000
00000000
,
00100000
10000000
00010000
00000000
,
10000000
01000000
00010000
00010000
,
00001000
00000010
00000001
00000000
,
00000100
00000000
00000010
00000000
,
00001000
00000000
00000100
00000000
,
00010000
00001000
00010000
00000000
,
00001000
00010000
00001000
00000000
,
00100000
00100000
00010000
00010000
,
10000000
01000000
00100000
00000000
,
00001000
00001000
00010000
00010000
,
00000010
00001000
00000100
00000000
,
00000010
00000000
00000001
00000000
,
00000100
00000000
00001000
00000000
,
00010000
00000000
00001000
00000000
,
00010000
00000000
00022000
00033000
,
00100000
00010000
10000000
00000000
,
00100000
01000000
00010000
00000000
,
10000000
01000000
00010000
00000000
,
00002000
00003000
00020000
00030000
,
00001000
00000100
00000001
00000000
,
00001000
00000100
00000010
00000000
,
00000001
00000010
00000100
00001000
,
00000001
00000000
00000000
00000000
,
00000001
00000001
00000100
00000100
,
00001000
00001000
00010000
00010000
,
00022000
00000000
00000000
00000000
,
00033000
00000000
00000000
00000000
,
00000000
00000000
00000000
00000000
;
#NOTES:
     dance-double:
     :
     Medium:
     10:
     :
00000000
00000000
00000000
00000000
,
00000000
00000000
00000000
00000000
,
00000000
00000000
00000000
00000000
,
00000000
00000000
00000000
00000000
,
00000000
00000000
00000000
00000000
,
20000000
00000000
00000000
00000000
,
30200000
00000000
00000000
00320000
00000000
00000000
00000000
00000000
,
00032000
00000000
00000000
00000000
,
00023000
00000000
00030100
00000010
,
00000002
00000000
00000003
00001000
00000002
00000000
00000000
00000000
,
00000103
00000000
00000000
00001000
00020000
00000000
00030000
00000000
,
00200000
00000000
00300000
10000000
02000000
00000000
00000000
00000000
,
03100000
00000000
00000000
00010000
00002000
00000000
00003000
00000000
,
00000200
00000000
00000300
00000010
00000002
00000000
00000000
00000000
,
00001003
00000000
00000000
00000001
00000100
00000000
00001000
00000000
,
00010000
00100000
00000000
01000000
00100000
00000000
10000000
00100000
,
00000000
01000000
00010000
00000000
20020000
00000000
30030000
00000000
,
00100000
00000000
10000000
00000000
01000000
00010000
00001000
00000000
,
00000010
00000000
00000001
00000000
00001000
00000001
00000100
00000000
,
00000010
00000000
00010000
00000000
00001000
00010000
00001000
00000000
,
00102000
00013000
00020010
00031000
,
01000000
00000000
10000000
00000000
00010000
01000000
10000000
00000000
,
01000000
00000000
00010000
00000000
00100000
00010000
00001000
00000000
,
00000100
00000010
00000001
00000000
00000100
00000010
00001000
00000000
,
00000001
00000000
00000000
00000010
00000000
00000000
00001001
00000000
,
00000100
00000000
00010000
00000000
00001000
00100000
01000000
00000000
,
00100000
00000000
01000000
10000000
00000000
00010000
01000000
00000000
,
00100000
00000000
00010000
00000000
00001000
00000100
00000010
00000000
,
00001000
00000000
00000100
00000010
00000000
00000001
00000100
00000000
,
00001000
00000000
00010000
00000000
01000000
10000000
00010000
00000000
,
01000000
00000000
00100000
10000000
00000000
00010000
10000000
00000000
,
10000000
00000000
01000000
00010000
00001000
00000000
00001000
00000000
,
00010000
00000000
00001000
00000010
00000001
00000000
00001000
00000000
,
00000010
00000100
00000001
00000000
00000010
00000100
00001000
00000000
,
00000010
00000000
00010000
00001000
00000000
00100000
00010000
00000000
,
01000000
00100000
10000000
00000000
01000000
00100000
00010000
00000000
,
00100000
00000000
00001000
00010000
00000000
00000100
00001000
00000000
,
00000010
00001000
00000100
00000000
00000010
00000001
00000100
00000000
,
00001000
00010000
00001000
00000000
00100000
00010000
10000000
00000000
,
00100000
00000000
01000000
00010000
10000000
00000000
00000000
00000000
,
01000000
00010000
00001000
00000010
,
00000011
00001010
00000011
00000000
,
00000001
00000100
00000010
00001000
00000000
00000001
00001000
00000000
,
00001100
00011000
00110000
00000000
,
00010000
01000000
00000000
00100000
00000000
10000000
00000000
00000000
,
00020000
00000000
00100000
00000000
10030000
00010000
01000000
00000000
,
00100000
10000000
00000000
01000000
00000000
00100000
00010000
00001000
,
00000100
00000000
00000010
00000001
,
00001001
00000000
00000100
00000000
00000010
00010000
00000100
00000000
,
00010000
00000000
00001000
00000010
00000002
00000000
00000000
00000000
,
00000000
00000000
00000000
00000003
,
00000010
00000000
00000001
00000000
00000100
00001000
00010000
00100000
,
00000000
01000000
00100000
00000000
01000000
00000000
10010000
00000000
,
00100000
00000000
00010000
00100000
00000000
01000000
00100000
00010000
,
00000000
00001000
00000100
00000000
00000010
00000001
00000100
00000000
,
00000010
00000000
00001000
00010000
00000000
01000000
00100000
10000000
,
00000000
00010000
01000000
00000000
00100000
10000000
01000000
00000000
,
00010000
00001000
00000100
00000001
,
00000010
00000011
00000110
00001100
,
00000001
00000000
00000100
00000010
00001000
00000000
00000100
00010000
,
00001000
00000000
00100000
00010000
10000000
00000000
10000000
00000000
,
00100000
00000000
01000000
00100000
00000000
10000000
01000000
00100000
,
00000000
00001000
00010000
00000000
00001000
00000100
00000001
00000000
,
00001000
00000000
00000100
00000010
00000000
00000001
00000010
00000100
,
00000000
00001000
00000001
00000000
00000100
00000000
00000010
00000000
,
00001010
00000000
00000000
00000000
00010000
00001000
00010000
00000000
,
00110000
00000000
00000000
00000000
00100000
01000000
10000000
00000000
,
00100000
10000000
00000000
01000000
00100000
00000000
00001000
00010000
,
00000000
00000010
00001000
00000000
00002002
00000000
00003003
00000000
,
00000010
00000000
00000001
00000000
00000100
00001000
00010000
00000000
,
00100000
00000000
10000000
00000000
00010000
10000000
01000000
00000000
,
00100000
00000000
00001000
00000000
00010000
00001000
00010000
00000000
,
00020010
00031000
00102000
00013000
,
00000100
00000000
00000001
00000000
00001000
00000100
00000001
00000000
,
00000100
00000000
00001000
00000000
00000010
00001000
00010000
00000000
,
01000000
00100000
10000000
00000000
01000000
00100000
00010000
00000000
,
10000000
00000000
00000000
00100000
00000000
00000000
10010000
00000000
,
10000000
01000000
00100000
00000000
00001000
00010000
00000100
00000000
,
00000010
00000001
00000100
00000010
00001000
00000100
00000010
00000000
,
00002002
00000000
00000000
00000000
,
00003003
00000000
00000000
00000000
,
00000000
00000000
00000000
00000000
;
#NOTES:
     dance-double:
     :
     Hard:
     13:
     :
00000000
00000000
00000000
00000000
,
00000000
00000000
00000000
00000000
,
00000000
00000000
00000000
00000000
,
00000000
00000000
00000000
00000000
,
00000000
00000000
00000000
00000000
,
00020000
00000000
00000000
00000000
,
02030000
00000000
00000000
00200000
00000000
00000000
03000000
00000000
,
20000000
00000000
00000000
00300000
,
32000000
00000000
03010000
00001000
,
00012000
00000000
00000000
00003020
00000002
00000000
00000033
00000000
,
00001001
00000000
00000000
00000100
00000000
00000000
00000010
00000000
00002000
00000000
00000000
00000000
00003000
00000000
00000000
00000000
,
00021000
00000000
00000000
02030000
20000000
00000000
33000000
00000000
,
01010000
00000000
00000000
00100000
00000000
00000000
10000000
00000000
00020000
00000000
00000000
00000000
00030000
00000000
00000000
00000000
,
00102000
00000000
00000000
00003020
00000200
00000000
00000330
00000000
,
00000012
00000000
00000000
00000103
00000010
00001000
00010000
01000000
,
00010000
00010000
00000000
10000000
10000000
00000000
00100000
00100000
,
00000000
01000000
00100000
00010000
00002000
00000000
00003000
00000000
,
00100000
00010000
00001000
00000100
00000010
00000001
00000010
00000001
,
00000100
00000010
00001000
00010000
01000000
00100000
01000000
00100000
,
10000000
00010000
01000000
00100000
10000000
00010000
01000000
00001000
,
00012000
00103000
00021000
00030010
,
00000100
00000001
00001000
00000100
00010000
00001000
00010000
00000000
,
01000000
10000000
00010000
01000000
00001000
00010000
00001000
00000000
,
00000010
00001000
00010000
00000000
00100000
00010000
00001000
00000000
,
00100000
00000000
00000000
00001000
00000000
00000000
00000010
00000000
00000000
00000001
00000000
00000000
00001001
00000000
00000000
00000000
,
00000100
00000010
00001000
00000100
00000000
00000010
00001000
00010000
,
01000000
10000000
00010000
01000000
00000000
01000000
00100000
00000000
,
10000000
01000000
00100000
00010000
00000000
01000000
00001000
00010000
,
00000010
00001000
00000001
00000100
00000010
00000100
00000010
00000100
,
00010000
00000100
00000010
00001000
00000000
00000100
00001000
00010000
,
00100000
01000000
00100000
00010000
00000000
10000000
00010000
00000000
,
10000000
01000000
00010000
00000000
00001000
00010000
00001000
00000000
,
00001000
00000010
00000001
00000000
00000100
00000010
00001000
00000000
,
00000010
00010000
00001000
00010000
01000000
10000000
00100000
01000000
,
00100000
10000000
01000000
00100000
00001000
00010000
00000100
00000000
,
00000010
00000001
00001000
00000010
00010000
00000010
00000100
00000001
,
00001000
00000100
00010000
00001000
00100000
00010000
10000000
00000000
,
00010000
00100000
01000000
00000000
01000000
10000000
00100000
00000000
,
00100000
00010000
00001000
00000000
00001000
00000010
00000001
00000000
,
00001000
00000000
00000010
00000100
00000001
00000000
00000000
00000000
,
00000010
00000000
00000010
00001000
00010000
00010000
00010000
00010000
,
00021000
00000000
00230000
00000000
00301000
00000000
00100000
10000000
,
01000000
00100000
00010000
01000000
00000000
00100000
00010000
00001000
,
00012000
00000000
00003020
00000000
00010030
00000000
00000010
00000001
,
00001000
00000010
00000000
00000101
00000000
00001100
00000000
00000000
,
00000001
00000100
00001000
00000100
00000010
00010000
00001000
00100000
,
01000000
00010000
01000000
10000000
00000000
00100000
10000000
00010000
,
01000000
00000000
00100000
00010000
00000000
00001000
00000010
00000000
,
00000001
00001000
00001010
00000101
,
00000010
00000000
00000100
00001000
00020000
00000000
00000000
00000000
,
00000000
00000000
00000000
00030000
,
00000010
00001000
00010000
01000000
00100000
10000000
00010000
01000000
,
00000000
00100000
01000000
00000000
00100000
00000000
10010000
00000000
,
00100000
00001000
01000000
00100000
00010000
10000000
01000000
00010000
,
10000000
00010000
00100000
00000000
01000000
00010000
00001000
00000010
,
00000001
00001000
00000100
00000010
00000000
00001000
00010000
00000010
,
00000000
00000100
00000001
00001000
00000010
00010000
00001000
00100000
,
00010000
01000000
00100000
00000000
10000000
01000000
00100000
00010000
,
10000000
01010000
00011000
00001010
,
00000001
00000010
00000100
00001000
00000010
00000100
00010000
00000100
,
00000001
00001000
00000100
00010000
00001000
00010000
01000000
10000000
,
00100000
01000000
00010000
10000000
00000000
01000000
00100000
00010000
,
01000000
00001000
00010000
00000010
00001000
00000001
00001000
00000100
,
00000010
00000001
00000100
00000010
00000000
00010000
00100000
10000000
,
00000000
01000000
00100000
00010000
10000000
00100000
01000000
00010000
,
00100000
00010000
00001000
00000000
00000100
00000010
00000001
00000000
,
00001000
00000010
00000100
00000001
00000010
00000100
00001000
00000010
,
00010000
00010000
00000000
01000000
01000000
00000000
00010000
00010000
,
00000000
00000100
00000010
00001000
00020000
00000000
00030000
00000000
,
00000010
00001000
00010000
01000000
00100000
10000000
00100000
10000000
,
01000000
00100000
00010000
00001000
00000100
00000010
00000100
00000010
,
00000001
00001000
00000100
00000010
00000001
00001000
00000100
00010000
,
00021000
00030010
00012000
00103000
,
01000000
10000000
00010000
01000000
00001000
00010000
00001000
00000000
,
00000100
00000001
00001000
00000100
00010000
00001000
00010000
00000000
,
00100000
00010000
00001000
00000000
00000010
00001000
00010000
00000000
,
00000010
00000000
00000000
00010000
00000000
00000000
00100000
00000000
00000000
10000000
00000000
00000000
10010000
00000000
10000000
00000000
,
00010000
01000000
00001000
00010000
00000100
00001000
00000001
00000010
,
00000001
00000100
00001000
00010000
00100000
10000000
01000000
00100000
,
00020000
00000000
00000000
00000000
,
00030000
00000000
00000000
00000000
,
00000000
00000000
00000000
00000000
;
#NOTES:
     dance-double:
     :
     Challenge:
     16:
     :
00000000
00000000
00000000
00000000
,
00000000
00000000
00000000
00000000
,
00000000
00000000
00000000
00000000
,
00000000
00000000
00000000
00000000
,
00000000
00000000
00000000
00000000
,
00000002
00000000
00000000
00000000
,
00000023
00000000
00000000
00000200
00000000
00000000
00000030
00000000
,
00020000
00000000
00000000
00000300
,
00032000
00000000
01003000
00100000
,
20000000
00000000
30000000
00020000
20000000
00000000
00030000
00000000
,
31000000
00000000
00000000
00010000
00000000
00000000
00001000
00000010
00000002
00000000
00000000
00000000
00000003
00000000
00000000
00000000
,
00002000
00000000
00003000
00000002
00000200
00000000
00000003
00000000
,
00000310
00000000
00000000
00000100
00000000
00000000
00001000
00000000
00020000
00000000
00000000
00000000
00030000
00000000
00000000
00000000
,
00210000
00000000
00300000
02000000
20000000
00000000
03000000
00000000
,
30100000
00000000
00000000
10000000
00000000
00000000
00010000
00000000
01000000
00001000
00010000
00000010
00001000
00000001
00000100
00000010
,
00001000
00000001
00000000
00001000
00000100
00000000
00000010
00000001
,
00000000
00000100
00001000
00010000
02200000
00000000
03300000
00000000
,
10000000
00000000
00010000
01000000
00010000
01000000
00100000
00000000
10000000
01000000
00100000
00000000
00001000
00010000
00001000
00000000
,
00010000
00000000
00000010
00001000
00000010
00001000
00000001
00000000
00000010
00000100
00000010
00000000
00000001
00001000
00000010
00000000
,
00000100
00000000
00000001
00001000
00000001
00001000
00000100
00000000
00010000
00001000
00010000
00000000
00001000
00100000
00010000
00000000
,
01000000
00000000
00100000
10000000
00000000
10000000
01000000
00000000
00010000
00000000
00001000
00000100
00000000
00000100
00000001
00000000
,
00000010
00000000
00000100
00000010
00000100
00000010
00000001
00000000
00000100
00000010
00000100
00000000
00000010
00010000
00001000
00000000
,
01000000
00000000
00010000
10000000
00010000
10000000
00100000
00000000
01000000
00010000
01000000
00000000
00010000
10000000
01000000
00000000
,
00010000
00000000
01000000
10000000
00000000
10000000
00010000
00000000
01000000
00010000
01000000
00001000
00010000
00000010
00001000
00000001
,
00000100
00000000
00000000
00001000
00000000
00000000
00000010
00000000
00000000
00000001
00000000
00000000
00001001
00000000
00000000
00000000
,
00000010
00001000
00000100
00000010
00000000
00000010
00000001
00000100
,
00000010
00000000
00001000
00000000
00010000
00000000
01000000
00000000
00000000
00000000
00100000
00000000
10000000
00010000
10000000
00000000
,
01000000
00100000
00001000
00010000
00000000
00001000
00000100
00000001
,
00000010
00000000
00000100
00000000
00001000
00000000
00000001
00000000
00000100
00000001
00000100
00000000
00000010
00001000
00000010
00000000
,
00010000
00001000
00100000
00010000
00000000
01000000
00100000
10000000
,
00010000
00000000
10000000
00000000
01000000
00000000
00010000
00000000
00000000
00000000
00001000
00000000
00000010
00000100
00000010
00000000
,
00000002
00000000
00001003
00000010
00000200
00000000
00001300
01000000
,
00200000
00000000
10300000
01000000
00100000
00000000
00010000
10000000
,
00100000
00000000
01000000
00000000
00001000
01000000
00001000
01000000
00001000
00000000
00010000
00000000
00000010
00001000
00000010
00001000
,
00000010
00000000
00000100
00000000
00000001
00001000
00000001
00001000
00000001
00000000
00000010
00000000
00000100
00000000
00001000
00000000
,
00000010
00000000
00010000
00000000
00001000
00010000
00001000
00010000
00001000
00000000
00100000
00000000
01000000
00100000
01000000
00100000
,
01000000
00000000
10000000
00000000
00010000
01000000
00010000
01000000
00010000
00000000
10000000
00000000
00010000
00000000
00000000
00000000
,
00100000
00000000
00001000
00000000
00010000
00001000
00010000
00001000
00010000
00000000
00000010
00000000
00010000
00001000
00010000
00001000
,
00010000
00000000
00000100
00000000
00010000
00001000
00010000
00001000
00010000
00000000
00000010
00000000
00001000
00000000
00000001
00000000
,
00000010
00000000
00000010
00000100
00010000
00000000
00010000
01000000
,
10000000
00000000
00010000
01000000
00100000
00100000
00100000
00100000
,
00120000
00000000
00001000
00000000
00030100
00000000
00000010
00000001
,
00000100
00000010
00010000
00000010
00000000
00001000
00000100
00000010
,
00002010
00000000
00010000
00000000
01003000
00000000
00100000
10000000
,
01000000
00000000
00100000
00000000
00000000
00000000
00001000
00010000
00000000
00000000
00100000
00010000
00000000
00000000
00001000
00000000
,
00102000
00000000
00000010
00000000
00003001
00000100
00001000
00000010
,
00000001
00001000
00000100
00000010
00000000
00010000
00100000
10000000
,
00010000
00000000
00100000
10000000
00000000
00010000
00001000
00000000
,
00011000
00000000
00000100
00000000
00000001
00000010
00000100
00000000
,
00000010
00001000
00010000
00100000
20000000
00000000
00000000
00000000
,
00000000
00000000
00000000
30000000
,
00100000
00000000
10000000
00000000
01000000
00000000
00010000
00000000
00001000
00100000
00001000
00010000
00000010
00001000
00000001
00000000
,
00000000
00000010
00000010
00000000
00000100
00000000
00001001
00000000
,
00000010
00000000
00000001
00000000
00001000
00000000
00000010
00000000
00000100
00000010
00000100
00000000
00000010
00010000
00001000
00000000
,
00100000
00000000
00010000
00000000
10000000
00000000
00000000
00000000
01000000
00100000
01000000
00100000
00001000
00010000
00001000
00010000
,
00000100
00000100
00000010
00000100
00000000
00001000
00000010
00000001
,
00000000
00000000
00001000
00000000
00000100
00000000
00000001
00000000
00000010
00000100
00000010
00000100
00010000
00001000
00010000
00001000
,
00100000
00010000
01000000
00000000
00100000
10000000
01000000
00100000
,
00010000
00000000
00000000
00000000
00010000
00001000
00000000
00000000
00001000
00000010
00000000
00000000
00000010
00000001
00000000
00000000
,
00001000
00000100
00000010
00000000
00000001
00000000
00001000
00000000
00000001
00000100
00000010
00000000
00010000
00000000
00001000
00000000
,
00100000
00010000
10000000
00000000
00100000
00000000
01000000
00000000
00010000
00100000
00010000
00100000
01000000
10000000
00100000
01000000
,
00010000
10000000
01000000
00010000
00000000
10000000
00100000
00010000
,
00001000
00000000
00000100
00000000
00000010
00000000
00000000
00000000
00000001
00000010
00000001
00000010
00000100
00010000
00001000
00100000
,
00010000
01000000
00100000
10000000
00000000
00100000
01000000
00010000
,
00000000
00000000
00010000
00000000
00100000
00000000
00000000
00000000
00010000
00100000
00010000
00100000
00010000
00001000
00000100
00000010
,
00000001
00000000
00000000
00000001
00000100
00000000
00000000
00000100
00000010
00000000
00000000
00000010
00001000
00000000
00000000
00001000
,
00000100
00010000
00000100
00010000
00001000
00100000
00001000
00100000
01000000
00100000
00010000
01000000
00100000
10000000
01000000
00100000
,
00010000
10000000
00000000
00001000
00010000
00000000
00000001
00001000
,
00000000
00000010
00000100
00000001
00002002
00000000
00003003
00000000
,
00000001
00000000
00001000
00000100
00001000
00000100
00000010
00000000
00000001
00000100
00000010
00000000
00010000
00001000
00010000
00000000
,
00001000
00000000
00100000
00010000
00100000
00010000
10000000
00000000
00100000
01000000
00100000
00000000
10000000
00010000
00100000
00000000
,
01000000
00000000
10000000
00010000
10000000
00010000
01000000
00000000
00001000
00010000
00001000
00000000
00010000
00000010
00001000
00000000
,
00000100
00000000
00000010
00000001
00000000
00000001
00000100
00000000
00001000
00000000
00010000
01000000
00000000
01000000
10000000
00000000
,
00100000
00000000
01000000
00100000
01000000
00100000
10000000
00000000
01000000
00100000
01000000
00000000
00100000
00001000
00010000
00000010
,
00001000
00000000
00000001
00001000
00000001
00001000
00000100
00000000
00000010
00000001
00000010
00000000
00000001
00000100
00000010
00000000
,
00001000
00000000
00000100
00000010
00000000
00000010
00001000
00000000
00010000
00001000
00100000
00010000
10000000
00100000
01000000
00010000
,
10000000
00000000
00000000
00010000
00000000
00000000
00100000
00000000
00000000
10000000
00000000
00000000
10010000
00000000
00000000
00000000
,
10000000
01000000
00100000
00010000
00001000
00000100
00000010
00000001
,
00001000
00000010
00001000
00000010
00000100
00000001
00000100
00000001
00001000
00000100
00010000
00001000
00100000
00010000
10000000
00100000
,
02000000
00000000
00000000
00000000
,
03000000
00000000
00000000
00000000
,
00000000
00000000
00000000
00000000
;
