
//----- song id: atoz
#TITLE:A to Z;
#ARTIST:OSAKA翔GANGS 【大阪】;
#ARTISTTRANSLIT:OSAKA Sho GANGS [Osaka];
#BANNER:A to Z.png;
#BACKGROUND:A to Z-bg.png;
#CDTITLE:./CDTitles/DDR (2014).png;
#MUSIC:A to Z.ogg;
#SAMPLESTART:67.267;
#SAMPLELENGTH:15;
#BPMS:0=160,68=204.000;
#NOTES:
     dance-single:
     :
     Beginner:
     2:
     :
0000
0000
0000
0000
,
0000
0000
0000
0000
,
0000
0000
0000
0000
,
0000
0000
0000
0000
,
0000
0000
0000
0000
,
0000
0000
0000
0000
,
0000
0000
0000
0000
,
0000
0000
0000
0000
,
0000
0000
0000
0000
,
0001
0000
0000
0000
,
0000
0000
0000
0000
,
1000
0000
0000
0000
,
0000
0000
0000
0000
,
0001
0000
0000
0000
,
0000
0000
0000
0000
,
1001
0000
0000
0000
,
0000
0000
0000
0000
,
1001
0000
0000
0000
,
0000
0000
0000
0000
,
0000
0000
0000
0000
,
0000
0000
0000
0000
,
0010
0000
0000
0000
,
0010
0000
0000
0000
,
0100
0000
0000
0000
,
0100
0000
0000
0000
,
0001
0000
0000
0000
,
1000
0000
0000
0000
,
0001
0000
0000
0000
,
1001
0000
0000
0000
,
1000
0000
0000
0000
,
0100
0000
0000
0000
,
0010
0000
0000
0000
,
0001
0000
0000
0000
,
0100
0000
0000
0000
,
0100
0000
0000
0000
,
0010
0000
0000
0000
,
0010
0000
0000
0000
,
1000
0000
0000
0000
,
0001
0000
0000
0000
,
0100
0000
0000
0000
,
0010
0000
0000
0000
,
0001
0000
0000
0000
,
0010
0000
0000
0000
,
0100
0000
0000
0000
,
1000
0000
0000
0000
,
0010
0000
0000
0000
,
1000
0000
1000
0000
,
0010
0000
0000
0000
,
0100
0000
0100
0000
,
0001
0000
0000
0000
,
0001
0000
0001
0000
,
1000
0000
0000
0000
,
1001
0000
0000
0000
,
0001
0000
0000
0000
,
0001
0000
0000
0000
,
1000
0000
0000
0000
,
1000
0000
0000
0000
,
0010
0000
0010
0000
,
0010
0000
0010
0000
,
0100
0000
0000
0000
,
0100
0000
0000
0000
,
0001
0000
0000
0000
,
0100
0000
0000
0000
,
0010
0000
0000
0000
,
1000
0000
0000
0000
,
1001
0000
0000
0000
,
1001
0000
0000
0000
,
1001
0000
0000
0000
,
1001
0000
0000
0000
,
0010
0000
0010
0000
,
0100
0000
0000
0000
,
0100
0000
0100
0000
,
0010
0000
0000
0000
,
1000
0000
0000
0000
,
1000
0000
0000
0000
,
0001
0000
0000
0000
,
0001
0000
0000
0000
,
0001
0000
0001
0000
,
0100
0000
0000
0000
,
0010
0000
0010
0000
,
1000
0000
0000
0000
,
1001
0000
0000
0000
,
1001
0000
0000
0000
,
0001
0000
0000
0000
,
1000
0000
1001
0000
,
0000
0000
0000
0000
;
#NOTES:
     dance-single:
     :
     Easy:
     6:
     :
0000
0000
0000
0000
,
0000
0000
0000
0000
,
0000
0000
0000
0000
,
0000
0000
0000
0000
,
0000
0000
0000
0000
,
0002
0000
0000
0000
,
0000
0000
2003
0000
,
3020
0000
0000
0000
,
0030
0000
0000
0000
,
2002
0000
0000
0000
,
3003
0000
0200
0000
,
0320
0000
0000
0000
,
0030
0000
0000
0000
,
0022
0000
0000
0000
,
0033
0000
2000
0000
,
3020
0000
0000
0000
,
0030
0000
0000
0000
,
0000
0000
0000
0000
,
0000
0000
0000
0000
,
1000
0000
0001
0000
,
0100
0010
0100
0000
,
0001
0000
1000
0000
,
0001
0000
0001
0000
,
0100
0000
0010
0000
,
0100
0000
0100
0000
,
0010
0000
1000
0000
,
0010
0000
0010
0000
,
0200
0000
0300
0000
,
0001
1000
0001
0000
,
1000
0000
1000
0000
,
0010
0000
0010
0000
,
0100
0000
0100
0000
,
0001
0000
0001
0000
,
1000
0000
0010
0000
,
1000
0000
0100
0000
,
0010
0000
0001
0000
,
1001
0000
0000
1000
,
0100
0000
0100
0000
,
0010
0010
0010
0000
,
0001
0000
0001
0000
,
1000
1000
1000
0000
,
0010
0100
0010
1000
,
0100
0010
0001
1000
,
0010
0000
0110
0000
,
1000
0000
1001
0000
,
0001
1000
0001
1000
,
0001
1000
0001
1000
,
0010
0100
0010
0100
,
0010
0100
0010
0100
,
0001
1000
0001
1000
,
0001
1000
0001
1000
,
0010
0010
0100
0100
,
0001
1000
0001
0000
,
0010
0000
0010
0000
,
0100
0000
0100
0000
,
0001
0000
0001
0000
,
1000
0000
1000
0000
,
0010
0100
0010
0000
,
0010
0100
0010
0000
,
0010
1000
0001
0010
,
0100
0000
1000
1000
,
0001
0000
0001
0000
,
0100
0000
0100
0000
,
0010
0000
0010
0000
,
0100
0000
0100
0000
,
0002
0000
0003
0000
,
2000
0000
3000
0000
,
0010
0100
0000
0001
,
1000
0000
1001
0000
,
1000
0000
1000
0000
,
0010
0010
0010
0000
,
0100
0000
0100
0000
,
0001
0001
0001
0000
,
1000
0010
1000
0000
,
0001
0100
0001
0000
,
0010
0000
0100
0000
,
1000
0000
0001
0000
,
0100
0000
0100
0000
,
0010
0100
0010
0000
,
1000
0000
0001
0000
,
1000
0001
1000
0000
,
2000
0000
3000
0000
,
0002
0000
0003
0000
,
0001
1000
0000
0010
,
0100
0000
0110
0000
,
0000
0000
0000
0000
;
#NOTES:
     dance-single:
     :
     Medium:
     9:
     :
0000
0000
0000
0000
,
0000
0000
0000
0000
,
0000
0000
0000
0000
,
0000
0000
0000
0000
,
0000
0000
0000
0000
,
2001
0000
0000
0000
,
0000
0000
3020
0000
,
0230
0000
0000
0000
,
0300
0010
1000
0001
0010
0100
1000
0100
,
0020
0000
0000
0000
,
0000
0000
0230
0000
,
0302
0000
0000
0000
,
0000
0000
0000
0000
,
2003
0000
0000
0000
,
0000
0000
3020
0000
,
0230
0000
0000
0000
,
0002
0000
0000
0000
,
0303
0000
0000
0000
,
0000
0000
0000
0000
,
0001
0100
1000
0010
,
0100
0000
0001
0100
0000
0000
0110
0000
0000
0000
0000
0000
,
0010
1000
0010
0100
,
0010
0000
0000
1000
0000
0100
0000
0000
0010
0001
0000
0000
,
0001
0100
0001
0010
,
0001
0000
0000
1000
0000
0100
0000
0000
0010
0100
0000
0000
,
1000
0010
0100
0010
,
1000
0000
0000
0001
0000
0100
0000
0000
0010
1000
0000
0000
,
1000
0000
0100
0010
0000
0000
0001
0000
0010
0000
0100
0000
,
1000
0000
0010
0100
0000
0000
0101
0000
0000
0000
0000
0000
,
0001
0100
0001
1000
,
0001
0000
0000
0100
0000
0010
0000
0000
0100
0010
0000
0000
,
1000
0010
1000
0100
,
1000
0000
0000
0010
0000
1000
0000
0000
0010
0100
0000
0000
,
0001
0100
0010
1000
,
0100
0000
0000
0010
0000
0001
0000
0000
0010
0001
0000
0000
,
0100
0010
0100
1000
,
0100
0000
0000
0010
0000
0000
0200
0000
0000
0301
0000
1000
,
0001
0000
0000
1000
0000
0001
1000
0000
0000
0010
0000
0000
,
0100
0000
0000
0010
0000
0100
0000
0000
0000
0001
0000
0010
,
0001
0000
0000
0010
0000
0001
1000
0000
0000
0010
0000
1000
,
0010
0000
0000
1000
0000
0010
0000
0000
0010
0100
0000
0000
,
0010
0000
0000
1000
0000
0000
0100
0000
0000
0100
0000
0010
,
0001
0100
0010
1000
,
0002
0103
2000
3010
,
0001
0000
0000
0100
0000
0010
0000
0000
1000
0010
0000
0000
,
0010
2100
0100
0100
,
0100
0100
3100
0010
,
0001
0102
0100
0100
,
0100
0100
0103
0010
,
1000
0210
0010
0010
,
0010
0010
0310
0010
,
1000
0001
0010
0100
,
1000
0000
0001
0100
0000
0010
0200
0000
0000
0000
0000
0000
,
0310
1000
0010
0100
,
1000
0000
0000
0100
0000
0001
0000
0000
0000
0010
0000
0000
,
0001
0100
0001
0010
,
0100
0000
0000
1000
0000
0010
0000
0000
0000
0100
0000
0000
,
0001
0100
1001
0000
,
0001
0100
1001
0000
,
0010
0100
0001
0010
,
0100
0000
0110
1000
,
0001
0100
0001
0010
,
0100
0000
0000
1000
0000
0100
0000
0000
0000
0010
0000
0000
,
0001
0100
0001
0100
,
1000
0000
0000
0100
0000
0001
0000
0000
0001
0100
0000
0000
,
0010
1000
0010
0100
0000
0000
,
0001
0010
0001
0100
0000
0000
,
0010
1010
0000
1000
,
1001
0000
0220
0330
,
1000
0001
1000
0010
,
0100
0000
0000
0100
0000
0020
0000
0000
0000
0030
0000
0000
,
1000
0001
0100
0001
,
0010
0000
0000
0100
0000
2000
0000
0000
0000
3000
0000
0000
,
1000
0010
0010
0100
,
0001
1000
0100
0010
,
0200
0000
0001
0000
,
0320
0000
1000
0000
,
0031
0100
0010
1000
,
0010
0000
0000
0100
0000
0200
0000
0000
0000
0000
0000
0000
,
0301
0010
0100
1000
,
0100
0000
0000
0010
0000
0020
0000
0000
0000
0000
0000
0000
,
0031
0100
0010
1000
0000
0000
,
1000
0010
0100
0001
0000
0000
,
0001
0011
0000
1000
,
1010
0000
0220
0000
,
0330
0000
0000
0000
,
0000
0000
0000
0000
;
#NOTES:
     dance-single:
     :
     Hard:
     13:
     :
0000
0000
0000
0000
,
0000
0000
0000
0000
,
0000
0000
0000
0000
,
0000
0000
0000
0000
,
0000
0000
0000
0000
,
1002
0000
0000
0100
0000
0000
0100
0000
,
0000
1003
2100
0000
,
3020
0000
0000
0100
0000
0000
0130
0000
,
0202
0000
0000
0303
,
1001
0000
0000
0110
0000
0000
1001
0000
,
1000
0010
0100
0000
0110
0000
0000
0000
,
0101
0000
0000
1100
0000
0000
0101
0000
,
1000
0000
0010
0100
0001
0010
1000
0000
,
1020
0000
0000
0001
0000
0000
1030
0000
,
0011
0000
0100
0010
1000
0000
0100
0000
,
0110
0000
0000
1001
0000
0000
1001
0000
,
0220
0000
0000
0000
,
0330
0000
0000
0000
,
0000
0000
0000
0000
,
0010
1000
0001
0010
,
0100
0000
1000
0100
0010
0001
0020
0000
0000
0130
0000
0000
,
1001
0100
1001
0010
,
1001
0000
0000
1000
0000
0010
0000
0000
0100
0001
0000
0000
,
0011
1000
0011
0100
,
0011
0000
0000
1000
0000
0100
0010
0000
0100
1000
0000
0000
,
1010
0001
1100
0010
,
1100
0000
0000
1000
0000
0001
0000
0000
0010
0200
0000
0000
,
1300
0000
1000
0100
0000
0100
0010
0000
0001
0000
0100
0000
,
0010
1000
0010
0100
0000
0100
0002
0000
0000
0013
0000
0000
,
1100
0010
1100
0001
,
0110
0000
0000
0100
0000
0010
0000
0000
0100
0001
0000
0000
,
1001
0010
1001
0100
,
0110
0000
0000
0010
0000
0100
0000
0000
0100
0010
0000
0000
,
1010
0001
1100
0010
,
0110
0000
0000
0100
0000
0100
0000
0000
0100
0001
0000
0000
,
0101
1000
0011
1000
,
0110
0000
0000
0010
0000
0000
0020
0000
0000
1030
0000
0001
,
0100
0000
0000
0010
0000
0100
0001
0000
0000
0001
0000
0010
,
0100
0000
0000
1000
0000
0200
0000
0000
0310
0001
0000
1000
,
0010
0000
0000
0100
0000
0001
1000
0000
0000
1000
0000
0100
,
1000
0000
0000
1000
0000
0010
0000
0000
0100
0001
0000
0000
,
0001
0000
0010
0001
0000
0100
0001
0000
0000
1000
0000
0010
,
1000
0100
0110
0110
,
1002
0103
2001
3100
,
1001
0000
0000
0010
0000
0001
0010
0000
0100
1000
0000
0000
,
1001
1200
0001
1000
,
0001
1000
0301
0101
,
0110
2100
0001
0100
,
0001
0100
3001
0101
,
0011
0120
1000
0001
,
1000
0000
0000
0001
0000
0000
1030
0000
0010
0001
0000
0010
,
0100
1100
1010
1010
,
1000
0000
0001
0010
0100
1000
0020
0000
0000
0030
0000
0000
,
0010
0000
0000
1000
0000
0100
0010
0000
0000
1000
0000
0001
,
0010
0000
0000
0100
0000
0100
0000
0000
1000
0010
0000
0100
,
0001
0000
0000
0010
0000
0100
0001
0000
0000
1000
0000
0100
,
0010
0000
0000
0010
0000
0001
0000
0000
0100
0001
0000
0000
,
0110
1001
0220
0330
,
0110
1001
0220
0330
,
0010
0100
0001
0010
,
0200
0000
0000
0300
0000
0000
1001
0000
0000
1000
0000
0100
,
0010
0000
0000
1000
0000
0100
0010
0000
0000
1000
0000
0001
,
0010
0000
0000
0100
0000
1000
0000
0000
1000
0001
0000
0100
,
1000
0000
0000
0001
0000
0100
1000
0000
0000
0100
0000
0000
,
0010
0000
0000
1000
0000
0002
0000
0000
0013
0100
0000
0000
,
1000
0000
1000
0000
1000
0000
2200
0000
0000
3300
0000
0000
,
0001
0000
0001
0000
0001
0000
0022
0000
0000
0033
0000
0000
,
0011
1100
0000
1010
,
0101
0000
0220
0330
,
1000
0000
0000
0001
0000
0010
0100
0000
0000
1000
0000
0100
,
0010
0000
0000
0010
0000
0002
0000
0000
0100
0003
0000
0100
,
0010
0000
0000
1000
0000
0010
0100
0000
0000
0001
0000
0100
,
0010
0000
1000
0100
0010
0001
0020
0000
0000
0130
0000
0000
,
1100
0010
1010
0001
,
0101
0000
0000
1000
0000
0010
0000
0000
0100
0010
0000
0000
,
0110
1000
0101
1000
,
0011
0000
0000
0100
0000
0001
0010
0000
0100
1000
0000
0000
,
1100
0000
0000
0010
0000
0100
0001
0000
0000
0010
0000
0001
,
0100
0000
0000
1000
0000
0100
0000
0000
0010
0000
0000
1000
,
0001
0000
0000
0100
0000
1000
0100
0000
0000
0010
0000
0010
,
1000
0000
0001
0010
0100
1000
0200
0000
0000
0310
0000
0000
,
0001
0000
1000
0000
0001
0000
2200
0000
0000
3300
0000
0000
,
1000
0000
0001
0000
1000
0000
0202
0000
0000
0303
0000
0000
,
0101
2200
3300
1010
,
0202
0303
2002
0000
,
3003
0000
0000
0000
,
0000
0000
0000
0000
;
#NOTES:
     dance-double:
     :
     Easy:
     6:
     :
00000000
00000000
00000000
00000000
,
00000000
00000000
00000000
00000000
,
00000000
00000000
00000000
00000000
,
00000000
00000000
00000000
00000000
,
00000000
00000000
00000000
00000000
,
00000002
00000000
00000000
00000000
,
00000000
00000000
00000023
00000000
,
00000230
00000000
00000000
00000000
,
00000300
00000000
00000000
00000000
,
00022000
00000000
00000000
00000000
,
00033000
00000000
00200000
00000000
,
02300000
00000000
00000000
00000000
,
03000000
00000000
00000000
00000000
,
20020000
00000000
00000000
00000000
,
30030000
00000000
00200000
00000000
,
00302000
00000000
00000000
00000000
,
00020000
00000000
00000000
00000000
,
00033000
00000000
00000000
00000000
,
00000000
00000000
00000000
00000000
,
00001000
00000000
00010000
00000000
,
00010000
00001000
00011000
00000000
,
00001000
00000000
00000100
00000000
,
00000010
00000000
00000010
00000000
,
00000100
00000000
00001000
00000000
,
00010000
00000000
00010000
00000000
,
01000000
00000000
10000000
00000000
,
00100000
00000000
00100000
00000000
,
02000000
00000000
00000000
00000000
,
00010000
00010000
03010000
00000000
,
00100000
00000000
00100000
00000000
,
00001000
00000000
00001000
00000000
,
00010000
00000000
00010000
00000000
,
00000100
00000000
00000100
00000000
,
00000010
00000000
00000010
00000000
,
00001000
00000000
00001000
00000000
,
00010000
00000000
00010000
00000000
,
00011000
00000000
00000000
00100000
,
00010000
00000000
00200000
00000000
,
00001000
00001000
00301000
00000000
,
00010000
00000000
00002000
00000000
,
01000000
01000000
01003000
00000000
,
00100000
10000000
01000000
00100000
,
00010000
00001000
00000100
00000010
,
00000001
00000000
00000100
00000000
,
00000010
00000000
00001001
00000000
,
00000001
00000100
00000001
00000100
,
00000010
00001000
00000010
00001000
,
00000100
00010000
00000100
00010000
,
00001000
00100000
00001000
00100000
,
00010000
10000000
00010000
10000000
,
00100000
01000000
00100000
01000000
,
00100000
10000000
01000000
00100000
,
00001000
00010000
00011000
00000000
,
00001000
00000000
00001000
00000000
,
00010000
00001000
00010000
00000000
,
00000010
00000000
00000010
00000000
,
00000100
00000010
00000100
00000000
,
00000110
00000000
00000110
00000000
,
00011000
00000000
00011000
00000000
,
00010000
00001000
00100000
01000000
,
10000000
00000000
00100000
01000000
,
00010000
00000000
00010000
00000000
,
01000000
00001000
00010000
00000000
,
00000100
00000000
00000100
00000000
,
00010000
00001000
01000000
00000000
,
00011000
00000000
00011000
00000000
,
00000110
00000000
00000110
00000000
,
00000010
00000100
00000000
00010000
,
00001000
00000000
00011000
00000000
,
00010000
00000000
01000000
00000000
,
00100000
00010000
01000000
00000000
,
00001000
00000000
00000100
00000000
,
00000010
00001000
00000100
00000000
,
00000001
00000001
00000001
00000000
,
00001000
00001000
00001000
00000000
,
00000200
00000000
00020300
00000000
,
00032000
00000000
00203000
00000000
,
01300000
00000000
01000000
00000000
,
10000000
00100000
01000000
00000000
,
00100000
00000000
00100000
00000000
,
01000000
00010000
00100000
00000000
,
00110000
00000000
00011000
00000000
,
00001100
00000000
00011000
00000000
,
00001000
00010000
00000000
00010000
,
00001000
00000000
00011000
00000000
,
00000000
00000000
00000000
00000000
;
#NOTES:
     dance-double:
     :
     Medium:
     9:
     :
00000000
00000000
00000000
00000000
,
00000000
00000000
00000000
00000000
,
00000000
00000000
00000000
00000000
,
00000000
00000000
00000000
00000000
,
00000000
00000000
00000000
00000000
,
00000120
00000000
00000000
00000000
,
00000100
00000000
00002030
00000000
,
00003200
00000000
00000000
00000000
,
00000000
00001300
00000100
00010000
00001000
00100000
00010000
01000000
,
00200000
00000000
00000000
00000000
,
00000000
00000000
02300000
00000000
,
03002000
00000000
00000000
00000000
,
00000000
00000000
00000000
00000000
,
00003200
00000000
00000000
00000000
,
00000000
00000000
00000320
00000000
,
00002030
00000000
00000000
00000000
,
00000002
00000000
00000000
00000000
,
00003003
00000000
00000000
00000000
,
00000000
00000000
00000000
00000000
,
00000001
00000100
00001000
00010000
,
01000000
10000000
01100000
00000000
,
00100000
00010000
01000000
00010000
,
00100000
00000000
00000000
00001000
00000000
00010000
00000000
00000000
00000000
00011000
00000000
00000000
,
00000010
00001000
00000100
00001000
,
00000010
00000000
00000000
00001000
00000000
00000100
00000000
00000000
00000000
00010100
00000000
00000000
,
00001000
00100000
01000000
10000000
,
00100000
00000000
00000000
00010000
00000000
00001000
00000000
00000000
00000000
00011000
00000000
00000000
,
00001000
00000100
00000001
00000010
,
00000110
00010100
00011000
00000000
,
00010000
00010000
00001000
00001000
,
00010000
00000000
00000000
01000000
00000000
00100000
00000000
00000000
01000000
00100000
00000000
00000000
,
00010000
00010000
10000000
10000000
,
00100000
00000000
00000000
00010000
00000000
00001000
00000000
00000000
00010000
00001000
00000000
00000000
,
00010000
00010000
00001000
00001000
,
00000100
00000000
00000000
00000010
00000000
00000100
00000000
00000000
00000010
00000100
00000000
00000000
,
00000001
00000001
00000010
00000010
,
00000100
00001000
00011000
00010000
,
00001000
00010000
00001000
00000100
,
00000010
00000000
00000000
00001000
00000000
00000100
00000000
00000000
00000000
00010000
00000000
00000000
,
00001000
00010000
00001000
00100000
,
00010000
00000000
00000000
01000000
00000000
00010000
00000000
00000000
00000000
00000000
00000000
00000000
,
00000000
00000000
10000000
01000000
00000000
10000000
01000000
00000000
00000000
01000000
00000000
00000000
,
01000000
00100000
00100000
00010000
,
00020000
00130000
00002000
00013000
,
00000200
00001300
00000002
00000013
,
00000011
00000011
00000010
00000010
,
00000100
00000100
00001000
00001000
,
00011000
00011000
00010000
00010000
,
01000000
01000000
00100000
00100000
,
00110000
00110000
00010000
00010000
,
10000000
10000000
00100000
00100000
,
01000000
00100000
00010000
00000100
,
00000010
00000000
00000001
00000100
00000000
00000010
00002000
00000000
00000000
00000000
00000000
00000000
,
00003100
00010000
01000000
10000000
,
00100000
00000000
00000000
01000000
00000000
00010000
00000000
00000000
00000000
00100000
00000000
00000000
,
00010000
00001000
00000100
00010000
,
00000010
00000000
00000000
00000100
00000000
00000001
00000000
00000000
00000000
00000000
00000000
00000000
,
00000010
00000100
00001001
00000000
,
00010000
00000100
00011000
00000000
,
00100000
01000000
10100000
01010000
,
10010000
00000000
01100000
10000000
,
00100000
00010000
00001000
00000100
,
00000001
00000000
00000000
00000010
00000000
00000100
00000000
00000000
00000000
00000001
00000000
00000000
,
00000010
00001000
00010000
01000000
,
10000000
00000000
00000000
00100000
00000000
01000000
00000000
00000000
00000000
00000000
00000000
00000000
,
00100000
00010000
00001000
00000100
00000000
00000000
,
00000010
00000100
00001000
00100000
00000000
00000000
,
00010000
10100000
00000000
01000000
,
00101000
00000000
00002200
00003300
,
00000000
00000001
00000010
00000100
,
00010000
00000000
00000000
00000000
00000000
00000000
00000000
00000000
00000000
00000000
00000000
00000000
00001000
00000000
00000000
00000000
00000000
00000000
00000000
00000000
00020000
00000000
00000000
00000000
00000000
00000000
00000000
00000000
00000000
00000000
00000000
00000000
00000000
00000000
00000000
00000000
00000000
00030000
00000000
00000000
00000000
00000000
00000000
00000000
00000000
00000000
00000000
00000000
,
00000000
00001000
00100000
01000000
,
00010000
00000000
00000000
00001000
00000000
00020000
00000000
00000000
00000000
00030000
00000000
00000000
,
00000000
00010000
00010000
00000010
,
00001000
00000100
00010000
00001000
,
00011000
00000000
00110000
00000000
,
00011000
00000000
00001100
00000000
,
00000000
00000001
00000010
00000100
,
00001000
00000000
00000000
00000100
00000000
00020000
00000000
00000000
00000000
00000000
00000000
00000000
,
00031000
00100000
01000000
10000000
,
01000000
00000000
00000000
00100000
00000000
00002000
00000000
00000000
00000000
00000000
00000000
00000000
,
00013000
01000000
10000000
00100000
00000000
00000000
,
00010000
00001000
00000100
00000001
00000000
00000000
,
00000011
00000101
00000000
00001010
,
00001100
00000000
00022000
00000000
,
00033000
00000000
00000000
00000000
,
00000000
00000000
00000000
00000000
;
#NOTES:
     dance-double:
     :
     Hard:
     12:
     :
00000000
00000000
00000000
00000000
,
00000000
00000000
00000000
00000000
,
00000000
00000000
00000000
00000000
,
00000000
00000000
00000000
00000000
,
00000000
00000000
00000000
00000000
,
00000012
00000000
00000000
00001000
00000000
00000000
00000100
00000000
,
00000000
00001003
00022000
00033000
,
00200000
00000000
00000000
00010000
00000000
00000000
00301000
00000000
,
02020000
00000000
00000000
03030000
,
10010000
00000000
00000000
01000000
00000000
00000000
00100000
00000000
,
00010000
00001000
00000110
00000000
,
00000012
00000000
00000000
00000100
00000000
00000000
00001003
00000000
,
00000100
00010000
00001000
01000000
,
10200000
00000000
00000000
00010000
00000000
00000000
10300000
00000000
,
00100000
01000000
00001000
00010000
,
00012000
00000000
00000000
00010000
00000000
00000000
00003100
00000000
,
00000220
00000000
00000000
00000000
,
00000330
00000000
00000000
00000000
,
00000000
00000000
00000000
00000000
,
00000100
00000001
00000010
00000100
,
00010000
00000000
00001000
00010000
00001000
00010000
00002000
00000000
00000000
00013000
00000000
00000000
,
00100000
01000000
00100000
00010000
,
00001000
00000000
00000000
00010000
00000000
00001000
00000000
00000000
00010000
00001000
00000000
00000000
,
00001000
00000100
00000010
00000100
,
00001000
00000000
00000000
00010000
00000000
00001000
00000000
00000000
00010000
00001000
00000000
00000000
,
00100000
00010000
10000000
00100000
,
00010000
00000000
00000000
00001000
00000000
00010000
00000000
00000000
00010000
00002000
00000000
00000000
,
00000000
00000000
00003100
00000010
00000000
00000100
00000010
00000000
00001000
00000000
00000001
00000000
,
00000001
00000100
00000010
00010000
00000000
00000000
00022000
00000000
00000000
00033000
00000000
00000000
,
00010000
00100000
01100000
10000000
,
10100000
00000000
00000000
00100000
00000000
00010000
00000000
00000000
00001000
00010000
00000000
00000000
,
00011000
00000100
00000110
00000001
,
00000101
00000000
00000000
00000010
00000000
00000100
00000000
00000000
00001000
00010000
00000000
00000000
,
00011000
00100000
10100000
01000000
,
01100000
00000000
00000000
00010000
00000000
00001000
00000000
00000000
00010000
00100000
00000000
00000000
,
00110000
00010000
00011000
00001000
,
00001010
00000000
00000000
00000010
00000000
00000000
00000002
00000000
00000000
00001003
00000000
00000010
,
00000100
00000000
00000000
00000010
00000000
00000100
00001000
00000000
00000000
00010000
00000000
00001000
,
00010000
00000000
00000000
00010000
00000000
02000000
00000000
00000000
00000000
03100000
00000000
00010000
,
10000000
00000000
00000000
00100000
00000000
01000000
00100000
00000000
00000000
00010000
00000000
00001000
,
00010000
00000000
00000000
00010000
00000000
00002000
00000000
00000000
00000000
00013000
00000000
00000000
,
00001000
00000000
00010000
00000100
00000000
00001000
00000010
00000000
00000000
00000010
00000000
00000100
,
00001000
00010000
00001000
00000100
,
00021000
01030000
00012000
00003100
,
00000010
00000000
00000000
00001000
00000000
00000010
00000100
00000000
00000001
00000100
00000000
00000000
,
00000001
00000010
00001000
00010000
,
00100000
10000000
11000000
01010000
,
10000000
00100000
00010000
00001000
,
00000010
00000001
00001100
00000101
,
00001000
00010000
01000000
10000000
,
00100000
00000000
00000000
00010000
00000000
00000000
00001000
00000000
00010000
00001000
00000000
00001000
,
00010000
00001100
00000101
00000011
,
00001001
00000000
00000010
00000100
00000010
00000100
00000001
00000000
00000000
00000010
00000000
00000000
,
00000110
00000000
00000000
00010000
00000000
00000000
00011000
00000000
00000000
00001000
00000000
00010000
,
00001000
00000000
00000000
01000000
00000000
01000000
00000000
00000000
00000000
00100000
00000000
00000000
,
01100000
00000000
00000000
00010000
00000000
00000000
00011000
00000000
00000000
00010000
00000000
00001000
,
00010000
00000000
00000000
00000100
00000000
00000100
00000000
00000000
00000000
00000000
00000000
00000000
,
00000110
00011000
00020200
00030300
,
00011000
00110000
20200000
30300000
,
00100000
00010000
00001000
00000010
,
00000220
00000330
00001001
00001001
,
00000011
00000000
00000000
00000100
00000000
00000000
00001000
00000000
00000000
00000010
00000000
00000100
,
00001000
00000000
00000000
00010000
00000000
00002000
00000000
00000000
00000000
00003100
00000000
00001000
,
00010000
00000000
00000000
01000000
00000000
10000000
00100000
00000000
00000000
01000000
00000000
00000000
,
00100000
00000000
00000000
10000000
00000000
00020000
00000000
00000000
00000000
00030000
00000000
00000000
,
00100000
00000000
00010000
00000000
01000000
00000000
00022000
00000000
00000000
00033000
00000000
00000000
,
00000010
00000000
00001000
00000000
00000100
00000000
00022000
00000000
00000000
00033000
00000000
00000000
,
00011000
00101000
00000000
00011000
,
00010100
00000000
00000220
00000000
,
00000330
00000001
00000001
00000010
,
00000010
00000000
00000000
00000100
00000000
00000100
00000000
00000000
00010000
00001000
00000000
00001000
,
00010000
00001000
00001000
00010000
,
00010000
00000000
00000000
00100000
00000000
00200000
00000000
00000000
01000000
00000000
00000000
01000000
,
00300000
01100000
01010000
00110000
,
00001000
00010000
00001100
00001010
,
00000110
00001000
00001001
00000010
,
00000110
00000000
00000000
00000100
00000000
00001000
00010000
00000000
00010000
00001000
00000000
00000000
,
00011000
00000000
00000000
00010000
00000000
01000000
10000000
00000000
00000000
00100000
00000000
01000000
,
00010000
00000000
00000000
00100000
00000000
00001000
00000000
00000000
00010000
00000000
00000000
00001000
,
00010000
00000000
00000000
00000000
00000000
00000000
00000000
00000000
00000000
00000000
00000000
00000000
00001000
00000000
00000000
00000000
00000000
00000000
00000000
00000000
00000100
00000000
00000000
00000000
00000001
00000000
00000000
00000000
00000000
00000000
00000000
00000000
00000000
00000000
00000000
00000000
00000010
00000000
00000000
00000000
00000000
00000000
00000000
00000100
00000000
00000000
00000000
00000000
,
00001000
00000000
00000000
00010000
00000000
01000000
00000000
00000000
00000000
01100000
00000000
00000000
,
10000000
00000000
01000000
00000000
00100000
00000000
00220000
00000000
00000000
00330000
00000000
00000000
,
00100000
00000000
00001000
00000000
00000100
00000000
00000220
00000000
00000000
00000330
00000000
00000000
,
00000011
00001100
00000000
00011000
,
00110000
00000000
20020000
00000000
,
30030000
00000000
00000000
00000000
,
00000000
00000000
00000000
00000000
;
