
//----- song id: yaoy
#TITLE:8000000;
#ARTIST:kors k;
#BANNER:8000000.png;
#BACKGROUND:8000000-bg.png;
#CDTITLE:./CDTitles/DDR (2014).png;
#MUSIC:8000000.ogg;
#SAMPLESTART:78;
#SAMPLELENGTH:15;
#BPMS:0=200,164=100,192=200;
#NOTES:
     dance-single:
     :
     Beginner:
     4:
     :
0000
0000
0000
0000
,
0000
0000
0000
0000
,
0000
0000
0000
0000
,
0000
0000
0000
0000
,
0000
0000
0000
0000
,
0100
0000
0000
0000
,
0100
0000
0000
0000
,
0010
0000
0010
0000
,
0010
0000
0000
0000
,
1000
0000
0000
0000
,
0001
0000
0000
0000
,
1000
0000
0000
0000
,
0010
0000
0100
0000
,
0001
0000
0000
0000
,
1000
0000
0000
0000
,
0001
0000
0000
0000
,
0010
0000
0010
0000
,
0001
0000
0000
0000
,
1000
0000
0000
0000
,
0001
0000
0000
0000
,
0010
0000
0100
0000
,
1000
0000
0000
0000
,
0001
0000
0000
0000
,
1000
0000
0000
0000
,
0010
0000
0010
0000
,
0001
0000
0001
0000
,
0001
0000
0000
0000
,
1000
0000
1000
0000
,
1000
0000
0000
0000
,
0010
0000
0010
0000
,
0010
0000
0000
0000
,
0001
0000
0001
0000
,
0100
0000
0000
0000
,
1000
0000
1000
0000
,
1000
0000
0000
0000
,
0001
0000
0001
0000
,
0001
0000
0000
0000
,
0010
0000
0010
0000
,
0010
0000
0000
0000
,
1000
0000
1000
0000
,
0100
0000
0000
0000
,
0001
0000
0000
0000
,
0000
0000
0000
0000
,
0000
0000
0000
0000
,
0000
0000
0000
0000
,
0010
0000
0000
0000
,
0000
0000
0000
0000
,
0100
0000
0100
0000
,
0000
0000
0000
0000
,
0000
0000
0000
0000
,
1000
0000
0000
0000
,
1000
0000
0000
0000
,
0001
0000
0000
0000
,
0001
0000
0000
0000
,
0010
0000
0000
0000
,
0010
0000
0000
0000
,
0100
0000
0000
0000
,
0100
0000
0000
0000
,
0001
0000
1000
0000
,
0001
0000
0001
0000
,
1000
0000
0001
0000
,
1000
0000
0000
0000
,
1000
0000
0001
0000
,
1000
0000
1000
0000
,
0001
0000
1000
0000
,
0001
0000
0000
0000
,
1000
1000
1000
0000
,
0000
0000
0000
0000
,
0001
0001
0001
0000
,
0000
0000
0000
0000
,
1000
0000
0000
0000
,
0001
0000
0000
0000
,
1000
0000
0000
0000
,
0001
0000
0000
0000
,
1000
0000
0001
0000
,
1000
0000
0010
0000
,
0001
0000
0000
0000
,
1000
0000
1000
0000
,
0001
0000
1000
0000
,
0001
0000
0010
0000
,
1000
0000
0000
0000
,
0001
0000
0001
0000
,
0001
0000
1000
0000
,
0001
0000
0100
0000
,
1000
0000
0000
0000
,
0001
0000
0001
0000
,
1000
0000
0001
0000
,
1000
0000
0100
0000
,
0001
0000
0000
0000
,
1000
0000
0000
0000
,
1001
0000
0000
0000
,
0000
0000
0000
0000
;
#NOTES:
     dance-single:
     :
     Easy:
     7:
     :
0000
0000
0000
0000
,
0000
0000
0000
0000
,
0000
0000
0000
0000
,
0000
0000
0000
0000
,
0000
0000
0000
0000
,
0001
0000
0010
0000
,
0100
1000
0100
0000
,
1000
0000
0100
0000
,
1001
0000
0000
0000
,
0010
0000
1000
0000
,
0100
0001
1000
0000
,
0100
0000
1000
0000
,
0100
0001
1000
0000
,
0010
0000
0100
0000
,
0100
0001
1000
0000
,
0100
0100
0010
0000
,
0001
0000
0001
0000
,
0010
0000
0001
0000
,
0100
1000
0001
0000
,
0100
0000
0001
0000
,
0100
1000
0001
0000
,
0010
0000
0100
0000
,
0100
1000
0001
0000
,
0100
0100
0010
0000
,
1000
0000
0001
0000
,
1000
0000
0001
0000
,
0100
0001
0100
0001
,
0001
0000
1000
0000
,
0010
1000
0100
1000
,
1000
0000
0001
0000
,
0100
0001
0010
1000
,
0001
0000
1000
0000
,
0010
1000
0100
0010
,
0001
1000
0001
1000
,
0001
1000
0001
0000
,
0001
1000
0001
1000
,
0001
1000
0001
1000
,
0001
0000
1000
0000
,
0100
0000
0001
0000
,
0220
0330
0000
0000
,
2002
3003
0000
0000
,
0001
0000
0000
0000
,
1000
0000
0000
0000
,
0001
0000
0000
0000
,
1000
0000
0000
0000
,
1001
0000
0100
0000
,
0010
0000
0100
0000
,
0001
0000
1000
0000
,
0001
0000
1000
0000
,
0001
0000
1000
0000
,
0010
0000
0000
0000
,
0001
0000
0000
0000
,
0010
0000
0000
0000
,
1000
0000
1000
1001
,
0010
0000
0000
0000
,
1000
0000
0000
0000
,
0010
1000
0010
1000
,
0001
0000
0110
1001
,
1000
0000
0100
0000
,
0001
1000
0001
1001
,
1000
0000
0001
0000
,
0001
1000
1001
0110
,
0001
0000
0100
0000
,
1000
0001
1000
1001
,
0001
0000
1000
0000
,
1000
0001
1001
0110
,
0001
1000
0001
0100
,
0001
0000
0001
0000
,
0001
1000
0001
0100
,
0010
0000
0100
0000
,
1000
0001
1000
0100
,
1000
0000
1000
0000
,
1000
0001
1000
0100
,
0010
0000
0100
0000
,
1000
0000
1000
0000
,
0001
0010
0001
0000
,
1000
0000
0100
0000
,
1000
0001
0100
0110
,
0001
0000
0001
0000
,
1000
0010
1000
0000
,
0001
0000
0100
0000
,
0001
1000
0100
0110
,
0010
0000
0001
0000
,
0100
0000
1001
0000
,
0001
1000
0001
1000
,
0100
0000
0110
0110
,
0001
0000
0100
0000
,
1000
0000
0100
0000
,
1000
0001
1000
0001
,
1000
0001
1000
0001
,
2002
0000
0000
0000
,
0000
0000
0000
3003
,
0000
0000
0000
0000
;
#NOTES:
     dance-single:
     :
     Medium:
     10:
     :
0000
0000
0000
0000
,
0000
0000
0000
0000
,
0000
0000
0000
0000
,
0000
0000
0000
0000
,
0000
0000
0000
0000
,
0001
0000
0000
1000
0000
0000
0010
0000
0000
1000
0000
0100
,
0000
0000
1000
0001
0000
0000
0100
0000
0000
1001
0000
0000
,
1000
0001
0100
0001
,
1000
0110
0110
1001
,
0010
0000
0000
0011
0000
0000
0100
0000
0000
1000
0000
0001
,
0100
0001
0001
0000
,
0100
0110
0010
0001
,
0100
0000
0000
0001
0000
1000
0001
0000
0000
1001
0000
0000
,
0010
1000
0100
1000
,
0100
0000
0000
1000
0000
0001
1000
0000
0000
0000
0000
0000
,
0100
1000
0100
0001
,
0100
1000
0001
1001
,
0010
0000
0000
1010
0000
0000
0100
0000
0000
0001
0000
1000
,
0100
1000
1000
0000
,
0100
0110
0010
1000
,
0100
0000
0000
1000
0000
0001
1000
0000
0000
1001
0000
0000
,
0010
0001
0100
0001
,
0100
0000
0000
0001
0000
1000
0001
0000
0000
0000
0000
0000
,
0100
0001
0100
1000
,
0100
0001
1000
1001
,
1000
1100
0001
0011
,
0100
0001
0010
1000
,
0001
0011
1000
1100
,
0010
1000
0100
0001
,
1000
1100
0001
0011
,
0100
0001
0010
1000
,
0001
0001
1000
1000
,
0010
1000
0100
0010
,
0001
0101
1000
1010
,
0100
1000
0010
0001
,
1000
1010
0001
0101
,
0010
0001
0100
1000
,
0001
0101
1000
1010
,
0100
1000
0010
0001
,
1000
1000
0001
0001
,
0010
0001
0100
0010
,
1000
0001
0100
0001
0100
0001
0100
0001
,
0100
1000
0010
0001
0010
0001
0010
0001
,
0010
1000
0100
0001
0100
0001
0100
0001
,
0100
1000
0010
0001
0010
0001
0010
0001
,
1100
0000
0000
0001
0100
0000
0000
1000
,
0100
0000
0000
0001
0100
0000
0010
1000
,
0001
0010
0001
1000
0001
0000
1000
0000
,
0001
1000
1000
0010
,
1000
0010
1000
0001
,
1000
0000
0000
0000
,
0010
0000
0000
0000
,
0001
0000
0000
0000
,
1001
0100
0100
1001
,
0001
0000
0000
0000
,
0010
0001
1000
0001
,
0001
1000
0010
1000
,
0001
1001
1100
0101
,
1000
1100
0100
1000
,
0001
1000
0100
1001
,
0100
1000
0100
1000
,
0001
1010
1001
1100
,
0010
0100
1000
0010
,
0001
1000
0001
0001
,
0001
1000
1000
0010
,
1000
0011
1100
1001
,
0001
0010
1000
0100
,
0010
0001
1000
1001
,
0001
1000
0100
1000
,
0010
1010
0110
1001
,
1000
0010
0100
1000
,
0010
1000
0001
1001
,
1000
0001
0010
0001
,
1000
0011
0110
1001
,
1000
0000
0000
0001
0000
0000
1000
0000
0000
0001
0000
1000
,
0001
0100
0100
0000
,
0100
0001
0100
1000
,
1000
0001
1000
1100
,
0001
0000
0000
1000
0000
0000
0001
0000
0000
1000
0000
0001
,
1000
0100
0100
0000
,
0100
0001
0100
0001
,
0001
1000
0001
0101
,
0101
1010
0001
1000
,
0001
0000
0000
0100
0000
0001
0100
0000
0000
0000
0000
0000
,
0100
1000
0100
0001
,
0001
1000
0001
0101
,
1000
0010
1000
0001
,
1000
0100
0010
1000
,
0001
1000
0001
1000
,
1000
0000
0001
1000
0000
0001
1000
0000
0000
1100
0000
0000
,
2002
0000
0000
0000
,
0000
0000
0000
3003
,
0000
0000
0000
0000
;
#NOTES:
     dance-single:
     :
     Hard:
     14:
     :
0000
0000
0000
0000
,
0000
0000
0000
0000
,
0000
0000
0000
0000
,
0000
0000
0000
0000
,
0000
0000
0000
0000
,
0001
0000
0000
1000
0000
0000
0010
0000
0000
1000
0000
0100
,
0000
0000
1000
0001
0000
0000
0100
0000
0000
1001
0000
0000
,
1000
0000
1000
0001
0000
0001
0100
0000
0100
0001
0000
0001
,
1000
0000
0010
1001
,
0010
0000
0010
0001
0000
0001
0100
0000
0100
1000
0000
0000
,
0100
0000
0100
0001
0000
0100
0001
0000
0000
0000
0000
0000
,
0100
0000
1000
0010
0000
1000
0010
0000
0100
0001
0000
0000
,
0100
0010
1000
0001
0000
0100
0001
0000
0000
0000
0000
0000
,
0010
0000
0010
1000
0000
1000
0100
0000
0100
0001
0000
0000
,
0100
0000
0100
1000
0000
0100
1000
0000
0000
0000
0000
0000
,
0100
0000
0001
0010
0000
0001
0010
0000
0100
1000
0000
0000
,
0100
0000
0010
1001
,
0010
0000
0010
1000
0000
1000
0100
0000
0100
0001
0000
0001
,
0100
0000
0100
1000
0000
0100
1000
0000
0000
0000
0000
0000
,
0100
0000
0001
0010
0000
0001
0010
0000
0100
1000
0000
1000
,
0100
0010
0001
1000
0000
0100
1000
0000
0000
0000
0000
0000
,
0010
0000
0010
0001
0000
0001
0100
0000
0100
1000
0000
0000
,
0100
0000
0100
0001
0000
0100
0001
0000
0000
0000
0000
0000
,
0100
0000
1000
0010
0000
1000
0010
0000
0100
0001
0000
0000
,
0100
0001
1000
1001
,
1000
1000
0001
0001
,
0100
0000
0000
0001
0000
0001
0010
0000
0010
1000
0000
1000
,
0001
0001
1000
1000
,
0010
0000
0010
1000
0000
1000
0100
0000
0100
0001
0000
0000
,
0001
0001
1000
1000
,
0100
0000
0000
1000
0000
1000
0010
0000
0010
0001
0000
0001
,
1000
1000
0001
0001
,
0010
0000
0010
0001
0000
0001
0100
0000
0100
1000
0000
1000
,
0001
0000
0000
0001
0000
0000
1000
0000
0000
1000
0001
0010
,
0100
0000
0100
1000
0000
1000
0010
0000
0010
0001
0000
0001
,
1000
0000
0000
1000
0000
0000
0001
0000
0000
0001
1000
0100
,
0010
0000
0010
0001
0000
0001
0100
0000
0100
1000
0000
0000
,
0001
0001
1000
1000
,
0100
0000
0100
1000
0000
1000
0010
0000
0010
0001
0000
0001
,
1000
0000
0001
1000
0010
0100
0001
0000
0000
1000
0000
0000
,
0110
0000
0000
0000
,
0001
0000
0000
0000
0000
0000
0100
0000
0000
0001
0000
0010
0100
0000
1000
0001
0000
1000
0100
0000
0000
0000
0000
0000
,
0100
0000
0000
0000
0000
0000
0010
0000
0100
0001
0000
0100
0010
0000
1000
0001
0000
1000
0010
0000
0000
0000
0000
0000
,
0010
0000
0000
0000
0000
0000
1000
0000
0000
0001
0000
0010
0100
0000
1000
0001
0000
1000
0100
0000
0000
0000
0000
0000
,
0100
0000
0000
0000
0000
0000
0010
0000
0100
0001
0000
0100
0010
0000
1000
0001
0000
1000
0010
0000
0000
0000
0000
0000
,
0100
0000
0000
0000
0000
0000
0000
0000
0000
0001
0000
0000
0100
0000
0000
0000
0000
0001
0000
0000
0000
1000
0000
0000
,
0100
0000
0000
0000
0000
0010
0000
0000
0000
0001
0000
0000
0100
0000
0000
0000
0000
0000
0010
0000
0000
1000
0000
0000
,
0001
0000
0100
0010
0000
1000
0001
0000
0100
1000
0000
0100
0001
0000
0000
0000
0000
0000
1000
0000
0000
0000
0000
0000
,
0001
0000
0000
1000
0000
0000
1000
0000
0100
1000
0000
0100
,
1000
0000
0100
0010
0000
0100
1000
0000
0000
0001
0000
0000
,
1000
0010
0100
1000
,
0010
1000
0001
1001
,
0100
0001
0100
0001
,
1000
0011
0110
1001
,
0001
0000
0100
0010
0000
1000
0100
0000
0000
1000
0000
0000
,
0010
0100
0001
1000
0000
0000
1000
0000
0000
0001
0000
0000
,
0001
0010
0100
1000
0000
0000
0010
1000
0100
1000
0010
1000
,
0001
1000
0100
1000
,
1000
0000
0100
1000
0000
1000
0100
0000
0100
1000
0000
0000
,
0001
0010
0001
1000
0100
0010
0100
0000
0000
0000
0000
0000
,
0100
0000
0010
1000
0000
0010
0100
0000
0001
1000
0010
0100
,
0001
1000
0001
1000
,
0010
0000
0001
0100
0000
0001
1000
0000
0100
0010
0000
0000
,
0001
0010
0001
1000
0100
0010
0001
0000
0000
0000
0000
0000
,
0001
0010
0100
1000
0000
0001
1000
0000
0100
0010
0000
0001
,
1000
0001
1000
1001
,
0001
0000
0000
0010
0000
0000
1000
0000
0000
0100
0000
0001
,
0010
0100
1000
0001
0100
0001
1000
0000
0000
0000
0000
0000
,
0001
0010
0100
1000
0000
0010
0100
0000
0001
1000
0000
0100
,
0010
0000
0110
1001
,
1000
0000
0100
0010
0000
0001
0100
0000
0010
1000
0000
1000
,
0010
0100
0001
1000
0100
1000
0001
0000
0000
0000
0000
0000
,
1000
0010
0100
0001
0100
0001
0010
0001
0100
0001
0010
0001
,
1000
0000
0001
1000
,
1000
0000
0000
0001
0000
0000
1000
0000
0000
0001
0000
0100
,
0001
0000
1000
0100
0000
0010
0100
0000
0000
0000
0000
0000
,
0100
0000
0010
0001
0000
0010
0100
0000
0000
1000
0000
0100
,
1000
0000
0010
0001
0000
0010
1000
0000
0000
0001
0000
0000
,
0001
0000
0000
1000
0000
0000
0001
0000
0000
1000
0000
0100
,
1000
0000
0001
0100
0000
0010
0100
0000
0000
0000
0000
0000
,
0100
0000
0010
0001
0000
0010
0100
0000
1000
0001
0000
0100
,
0001
0000
0010
1000
0000
0010
0001
0000
0000
0100
0000
0000
,
0001
0000
0000
1000
0000
0000
0001
0000
0000
1000
0000
0100
,
1000
0000
0001
0100
0000
0010
0100
0000
0000
0000
0000
0000
,
0100
0000
0010
1000
0000
0010
0100
0000
0000
0001
0000
0100
,
0001
0000
0010
1000
0000
0010
0001
0000
0000
0000
0000
0000
,
1000
0000
0100
0010
0000
0001
1000
0000
0100
1000
0000
0100
,
1000
0000
0001
0100
0000
1000
0010
0000
0000
0010
0000
0000
,
0100
0000
0010
1000
0000
0010
0100
0000
0001
1000
0000
0100
,
1000
0000
0010
0001
0000
0010
1000
0000
0000
1100
0000
0000
,
2002
0000
0000
0000
,
0000
0000
0000
3003
,
0000
0000
0000
0000
;
#NOTES:
     dance-double:
     :
     Easy:
     7:
     :
00000000
00000000
00000000
00000000
,
00000000
00000000
00000000
00000000
,
00000000
00000000
00000000
00000000
,
00000000
00000000
00000000
00000000
,
00000000
00000000
00000000
00000000
,
00000001
00000001
00000001
00000000
,
00001000
00001000
00001000
00000000
,
00000010
00000010
00000100
00000100
,
00001001
00000000
00000000
00000000
,
00000001
00001000
00000001
00001000
,
00000010
00000010
00000100
00000000
,
00001000
00001000
00010000
00010000
,
00100000
01000000
00100000
00000000
,
10000000
00010000
10000000
00010000
,
00100000
00100000
00100000
00000000
,
00001000
00001000
00010000
00010000
,
00000010
00000010
00001001
00000000
,
00000010
00000010
00000100
00000100
,
00001000
00010000
00001000
00000000
,
00100000
00100000
01000000
01000000
,
10000000
00010000
10000000
00000000
,
01000000
01000000
00010000
00010000
,
00001000
00010000
00001000
00000000
,
00000010
00000010
00000001
00000001
,
00001000
00000001
00001001
00000000
,
00000002
00000103
00000200
00001300
,
00010000
00000000
00010000
00000000
,
00200000
10300000
20000000
30010000
,
00100000
00000000
00100000
00000000
,
20000000
31000000
02000000
03010000
,
00001000
00000000
00001000
00000000
,
00000020
00000031
00000002
00000013
,
00000100
00000000
00001001
00000000
,
00000010
00000010
00000100
00000000
,
00001000
00010000
00001000
00000000
,
00100000
01000000
10000000
00000000
,
00010000
01000000
00010000
00000000
,
10000000
10000000
01000000
00000000
,
00010000
00001000
00010000
00000000
,
00001000
00000010
00001000
00000010
,
00000001
00000100
00000001
00000000
,
00001001
00000000
00000000
00000000
,
00000000
00000000
00000000
00000000
,
00000000
00000000
00000000
00000000
,
00000000
00000000
00000000
00000000
,
00000001
00000000
00000100
00000000
00001000
00001000
00001000
00000000
,
00010000
00000000
00100000
00000000
10000000
10000000
10000000
00000000
,
01000000
01000000
00010000
00010000
,
00002000
00000000
00003000
00000000
,
00000020
00000000
00000030
00000000
,
00000002
00000000
00000103
00000000
,
00000020
00000000
00001030
00000000
,
00020000
00000000
00031000
00000000
,
00100000
00100000
01000000
00000000
,
20000000
00000000
30010000
00000000
,
00200000
00000000
01300000
00000000
,
00010000
00010000
00001000
00001000
,
00010000
00001000
00000000
00000000
,
00000010
00000010
00000001
00000000
,
00001000
00000001
00001001
00000000
,
00000001
00000001
00000100
00000100
,
00001000
00010000
00001000
00000000
,
00010000
00010000
00100000
00000000
,
10000000
00010000
10010000
00000000
,
10000000
10000000
01000000
01000000
,
00010000
00001000
00010000
00000000
,
00001000
00001000
00000010
00000010
,
00000001
00000100
00001000
00000000
,
00010000
00010000
00100000
00100000
,
10000000
01000000
00010000
00000000
,
01000000
00010000
00001000
00010000
,
00001000
00000010
00000001
00000000
,
00000100
00000100
00001000
00001000
,
00010000
00001000
00011000
00000000
,
00100000
10000000
00010000
01000000
,
00001000
00010000
00001000
00000000
,
00000010
00000001
00001000
00000100
,
00010000
00001000
00010000
00000000
,
01000000
01000000
10000000
01000000
,
00010000
00001000
00010000
00000000
,
00000100
00000100
00000001
00000100
,
00010000
00001000
00010000
00000000
,
00100000
10000000
01000000
00010000
,
00001000
00000010
00000001
00000000
,
00000001
00000100
00001000
00010000
,
00100000
10000000
00010000
00000000
,
00010000
10000000
01000000
00010000
,
00001000
00000010
00000001
00000000
,
00000010
00001000
00010000
00100000
,
00010000
00001000
00000100
00000000
,
00002002
00000000
00000000
00003003
,
00000000
00000000
00000000
00000000
;
#NOTES:
     dance-double:
     :
     Medium:
     11:
     :
00000000
00000000
00000000
00000000
,
00000000
00000000
00000000
00000000
,
00000000
00000000
00000000
00000000
,
00000000
00000000
00000000
00000000
,
00000000
00000000
00000000
00000000
,
00000001
00001000
00000010
00010000
,
00001000
00100000
00010000
10000000
,
01000000
00010000
00001000
00000010
,
00001001
00000000
00000000
00000000
,
00000010
00000000
00000001
00000010
00000000
00000000
00000001
00000000
00001000
00000001
00000000
00000000
,
00000100
00000010
00000100
00000000
,
00001000
00000000
00010000
00001000
00000000
00000000
00010000
00000000
00001000
00010000
00000000
00000000
,
00100000
01000000
01100000
00000000
,
10000000
00000000
00010000
10000000
00000000
00000000
01000000
00000000
00100000
01000000
00000000
00000000
,
00010000
00001000
00000010
00000000
,
00000001
00000000
00000010
00000100
00000000
00000000
00000010
00000000
00000100
00001000
00000000
00000000
,
00001001
00011000
10010000
00000000
,
00100000
00000000
10000000
00100000
00000000
00000000
10000000
00000000
00010000
10000000
00000000
00000000
,
01000000
00100000
01000000
00000000
,
00010000
00000000
00001000
00010000
00000000
00000000
00001000
00000000
00010000
00001000
00000000
00000000
,
00000010
00000100
00000110
00000000
,
00000001
00000000
00001000
00000001
00000000
00000000
00000100
00000000
00000010
00000100
00000000
00000000
,
00001000
00010000
00100000
00000000
,
10000000
00000000
00100000
01000000
00000000
00000000
00100000
00000000
01000000
00010000
00000000
00000000
,
10010000
00011000
00001001
00000000
,
00000001
00000100
00001000
00010000
,
00110000
01100000
10100000
00000000
,
10000000
01000000
00010000
00001000
,
00001010
00000110
00000011
00000000
,
00000001
00000000
00000100
00000001
00000000
00000000
00001000
00000000
00000010
00001000
00000000
00000000
,
00000010
00010000
00001000
01000000
,
00010000
00000000
00100000
00010000
00000000
00000000
10000000
00000000
01000000
10000000
00000000
00000000
,
00010000
00100000
00001000
00010000
,
00001000
00000000
00000100
00000001
00000000
00000000
00001000
00000000
00000010
00000001
00000000
00000000
,
00000010
00001000
00010000
00001000
,
00010000
00000000
01000000
10000000
00000000
00000000
00010000
00000000
00100000
10000000
00000000
00000000
,
00100000
00010000
00001000
00010000
,
00001000
00000000
00001000
00000010
00000000
00000010
00000001
00000000
00000000
00000010
00000000
00000000
,
00000001
00000000
00000001
00000100
00000000
00000100
00001000
00000000
00000000
00000100
00000000
00000000
,
00001000
00000000
00010000
00001000
00000000
00000000
00010000
00000000
01000000
00010000
00000000
00000000
,
01000000
00000000
01000000
00100000
00000000
00100000
00010000
00000000
00010000
10000000
00000000
00000000
,
01000000
00100000
00020000
00130000
,
00100000
00001000
00020000
00031000
,
00001000
00000000
00000010
00000000
00000001
00000100
00000001
00000000
,
00000100
00000000
00001000
00000000
00010000
00001000
00010000
00000000
,
00200000
10000000
01000000
01300000
,
00010000
00100000
01000000
00000000
00010000
00001000
00010000
00000000
,
00000020
00000100
00000001
00000130
,
00001000
00000000
00000000
00010000
00000000
00001000
00000000
00000000
00001000
00010000
00000000
00000000
,
00100000
00000000
00000000
01000000
00000000
00100000
01000000
00000000
00100000
01000000
00000000
00000000
,
00010000
10000000
01000000
00010000
,
00001000
00000010
00000001
00001001
,
00000001
00000100
00001000
00010000
,
01100000
01100000
10010000
10010000
,
00010000
10000000
00100000
00010000
,
00001000
00000100
00000001
00001001
,
00000002
00000023
00002030
00023000
,
02030000
13000000
00000000
00000000
,
10000000
00000000
10000000
01000000
00000000
01000000
00010000
00000000
00010000
00001000
00000000
00000000
,
00010000
00001000
00000010
00001001
,
00000001
00000000
00000001
00000100
00000000
00000100
00001000
00000000
00001000
00010000
00000000
00000000
,
01100000
01100000
10010000
00000000
,
10000000
00000000
10000000
00010000
00000000
00010000
00100000
00000000
00100000
00001000
00000000
00000000
,
00010000
00000100
00000010
00001001
,
00000001
00000000
00000001
00000100
00000000
00000100
00000010
00000000
00000010
00001000
00000000
00001000
,
00010000
01000000
00100000
10010000
,
00010000
00000000
10000000
00010000
00000000
00000000
00100000
00000000
00010000
00100000
00000000
00000000
,
00001000
00000000
00010000
00001000
00000000
00000000
00000010
00000000
00000000
00000010
00000000
00000000
,
00000001
00000000
00000100
00000001
00000000
00000000
00001000
00000000
00000010
00001000
00000000
00000000
,
00000010
00010000
00001000
00100000
,
01000000
00000000
01000000
10000000
00000000
10000000
00010000
00000000
00000000
01000000
00000000
00000000
,
00001000
00000000
00001000
00010000
00000000
00010000
00001000
00000000
00000000
00010000
00000000
00000000
,
00001000
00000000
00001000
00000010
00000000
00000010
00000001
00000000
00000001
00000010
00000000
00000010
,
00000100
00001000
00000001
00001001
,
00000010
00000010
00000100
00000100
,
00001000
00000000
00010000
00001000
00000000
00010000
00001000
00000000
00000000
00000000
00000000
00000000
,
00100000
00100000
01000000
01000000
,
10000000
00000000
00010000
10000000
00000000
00010000
10000000
00000000
00000000
00000000
00000000
00000000
,
01000000
01000000
00010000
00010000
,
00001000
00000000
00010000
00001000
00000000
00010000
00001000
00000000
00000000
00000000
00000000
00000000
,
00000010
00000010
00000100
00000100
,
00001000
00000000
00000001
00001000
00000000
00000001
00001000
00000000
00000000
00000000
00000000
00000000
,
00000001
00000000
00000001
00000100
00000000
00000000
00001000
00000000
00001000
00010000
00000000
00000000
,
00110000
01100000
10100000
00000000
,
10000000
00000000
10000000
01000000
00000000
00000000
00010000
00000000
00010000
00001000
00000000
00000000
,
00001010
00000110
00000011
00000000
,
00000001
00000000
00000100
00000001
00000000
00000000
00000100
00000000
00001000
00000100
00000000
00000000
,
00001000
00000000
00010000
00001000
00000000
00010000
00100000
00000000
00000000
00000000
00000000
00000000
,
10000000
00000000
01000000
10000000
00000000
00000000
01000000
00000000
00010000
01000000
00000000
00000000
,
00010000
00000000
00001000
00000010
00000000
00000001
00000100
00000000
00000000
00000000
00000000
00000000
,
00002002
00000000
00000000
00000000
,
00000000
00000000
00000000
00003003
,
00000000
00000000
00000000
00000000
;
#NOTES:
     dance-double:
     :
     Hard:
     14:
     :
00000000
00000000
00000000
00000000
,
00000000
00000000
00000000
00000000
,
00000000
00000000
00000000
00000000
,
00000000
00000000
00000000
00000000
,
00000000
00000000
00000000
00000000
,
10100000
10010000
01100000
01001000
,
00011000
00010010
00000110
00000101
,
00000010
00000000
00000010
00001000
00000000
00001000
00010000
00000000
00010000
01000000
00000000
01000000
,
20000000
00000000
00010000
30010000
,
10000000
00000000
01000000
00010000
00000000
00001000
00010000
00000000
01000000
00100000
00000000
00001000
,
00010000
00000000
00000100
00000010
00000000
00000001
00001000
00000000
00000000
00000000
00000000
00000000
,
00000001
00000000
00000001
00000100
00000000
00000100
00001000
00000000
00001000
00010000
00000000
00010000
,
00200000
20300000
31000000
00000000
,
01000000
00000000
00010000
00001000
00000000
00000010
00000001
00000000
00000010
00001000
00000000
00010000
,
00000100
00000000
00000010
00000001
00000000
00001000
00000010
00000000
00000000
00000000
00000000
00000000
,
00010000
00000000
00010000
00000100
00000000
00000100
00100000
00000000
00100000
00001000
00000000
00000000
,
01001000
01100000
10010000
00000000
,
10000000
00000000
10000000
00100000
00000000
00100000
00010000
00000000
00010000
00001000
00000000
00001000
,
00000100
00000000
00000100
00000001
00000000
00000001
00000010
00000000
00000000
00000000
00000000
00000000
,
00000100
00000000
00001000
00000100
00000000
00000001
00000100
00000000
00010000
00001000
00000000
00010000
,
02000000
23000000
30010000
00000000
,
10000000
00000000
10000000
01000000
00000000
01000000
00010000
00000000
00010000
00001000
00000000
00001000
,
00000100
00000000
00000100
00000001
00000000
00000001
00000010
00000000
00000000
00000000
00000000
00000000
,
00000001
00000000
00000010
00001000
00000000
00010000
00001000
00000000
00010000
00100000
00000000
00000000
,
10010000
01100000
10010000
00000000
,
10000000
00000000
00100000
10000000
00000000
01000000
00100000
00000000
00001000
00010000
00000000
00000010
,
00000200
00000302
00000023
00000130
,
00001000
00000000
00000001
00000010
00000000
00000100
00000010
00000000
00001000
00010000
00000000
01000000
,
10000000
00110000
11000000
01100000
,
00010000
00000000
10000000
01000000
00000000
00100000
00010000
00000000
00001000
00000100
00000000
00000001
,
00000200
00000320
00000230
00001300
,
00000001
00000000
00000100
00001000
00000000
00010000
00001000
00000000
00010000
00100000
00000000
10000000
,
00010000
00000000
00000000
01100000
00000000
00000000
11000000
00000000
00000000
00110000
00000000
01000000
,
00100000
10000000
01000000
00010000
,
01000000
00000000
01000000
00010000
00000000
00010000
00001000
00000000
00001000
00000010
00000000
00000000
,
00000001
00000100
00010000
00000100
,
00000010
00000000
00000010
00010000
00000000
00010000
00001000
00000000
00001000
01000000
00000000
00000000
,
00100000
00000000
10000000
00100000
00000000
10000000
00010000
00000000
01000000
00010000
00000000
01000000
,
00001000
00000000
00010000
00001000
00000000
00010000
00000100
00000000
00000010
00000100
00000000
00000010
,
00000001
00000010
00000100
00001000
00000000
00000001
00000100
00001000
00010000
00001000
00000000
00010000
,
00200000
00000000
01000000
01000000
,
20300000
00000000
00000000
00000000
,
00000000
00000000
00000000
00000000
,
00020000
00000000
00000000
00000000
,
00000000
00000000
00000000
30030000
,
01010000
00000000
00000000
00000000
00000000
00000000
00000000
00000000
00000000
00001000
00000000
00000000
01000000
00000000
00000000
00000000
00000000
10000000
00000000
00000000
00000000
01000000
00000000
00000000
,
00010000
00000000
00000000
00000000
00000000
00100000
00000000
00000000
00000000
00001000
00000000
00000000
00000010
00000000
00000000
00000000
00000000
00000001
00000000
00000000
00000000
00000010
00000000
00000000
,
00000110
00000000
00000000
00000000
00000000
00000100
00000000
00000000
00000000
00000100
00000000
00000000
00010000
00000000
00000000
00000000
00000000
00001000
00000000
00000000
00001000
00010000
00000000
00000000
,
00100000
00000000
00000000
10000000
00000000
00100000
00000000
00000000
00100000
10000000
00000000
10000000
,
01000000
00000000
00000000
00100000
00000000
00010000
00100000
00000000
00010000
00100000
00000000
00010000
,
00002000
00000100
00000001
00000010
,
00023000
01000000
10000000
00100000
,
00032000
00000100
00000001
00003010
,
00011000
01010000
10010000
00110000
,
00001000
00000000
00000000
00000100
00000000
00000000
00000001
00000000
00000000
00000010
00000000
00001000
,
00010000
00000000
00000000
01000000
00000000
00000000
10000000
00000000
00000000
00100000
00000000
00010000
,
00001000
00000100
00001000
00000100
00000000
00000010
00000001
00000010
00000100
00000010
00000000
00001000
,
00010000
00001000
00010000
01000000
10000000
00010000
00000000
00000000
00000000
00000000
00000000
00000000
,
10000000
01000000
00100000
00010000
00000000
00100000
01000000
00000000
10000000
01000000
00000000
00010000
,
00001000
00000000
00000010
00000001
00000000
00000010
00000100
00001000
00000001
00001000
00000000
00000000
,
00000001
00000100
00001000
00000100
00000000
00000001
00000010
00000000
00001000
00010000
00000000
01000000
,
20000000
30010000
01100000
10010000
,
10000000
01000000
00010000
01000000
00000000
00100000
00001000
00000000
00010000
00001000
00000000
00000100
,
00000010
00000000
00001000
00000010
00000000
00000100
00000001
00000100
00000010
00001000
00000000
00000000
,
00000001
00000010
00000100
00001000
00000000
00000100
00000010
00000000
00001000
00010000
00000000
00010000
,
02000000
03200000
00320000
10030000
,
00100000
00100000
01000000
01000000
,
10000000
00000000
00000000
10000000
00000000
00000000
01000000
00000000
00100000
00010000
00000000
00100000
,
00010000
00010000
00001000
00001000
,
00000010
00000010
00001001
00001001
,
00000001
00000000
00000100
00000001
00000000
00000100
00000010
00000000
00001000
00000010
00000000
00001000
,
00000100
00000000
00010000
00000100
00000000
00010000
00001000
00000000
00100000
00001000
00000000
00100000
,
01000000
00000000
01000000
10000000
00000000
10000000
00010000
00000000
00010000
01000000
00000000
01000000
,
00200000
20300000
31000000
01010000
,
00011000
00000000
00000000
00011000
00000000
00000000
00001010
00000000
00000000
00000001
00000000
00000001
,
00000100
00000000
00000100
00001000
00000000
00001000
00020000
00000000
00002000
00033000
00000000
00000000
,
00100000
00000000
00010000
00100000
00000000
01000000
10000000
00000000
01000000
00010000
00000000
00001000
,
00000100
00000000
00000001
00000010
00000000
00001000
00020000
00000000
00000000
00031000
00000000
00000000
,
01100000
00000000
00000000
01100000
00000000
00000000
10100000
00000000
00000000
00010000
00000000
10000000
,
01000000
00000000
01000000
00010000
00000000
00010000
00002000
00000000
00020000
00033000
00000000
00000000
,
00001000
00000000
00000010
00000001
00000000
00000010
00000100
00000000
00001000
00000001
00000000
00000100
,
00001000
00000000
00010000
00001000
00000000
00010000
00200000
00000000
00000000
10300000
00000000
00000000
,
11000000
00000000
00000000
11000000
00000000
00000000
01010000
00000000
00000000
00001000
00000000
00010000
,
00001000
00000000
00001000
00000010
00000000
00000010
00000002
00000000
00002000
00003003
00000000
00000000
,
00000001
00000000
00000100
00001000
00000000
00000100
00000001
00000000
00000010
00001000
00000000
00000010
,
00000001
00000000
00000100
00001000
00000000
00010000
00002000
00000000
00000000
00013000
00000000
00000000
,
00100000
00000000
01000000
00100000
00000000
01000000
00010000
00000000
10000000
00010000
00000000
10000000
,
01000000
00000000
00010000
01000000
00000000
00010000
00001000
00000000
00010000
00001000
00000000
00010000
,
00001000
00000100
00001000
00000100
00000000
00000001
00000010
00000100
00000010
00000100
00000000
00010000
,
00001000
00010000
00001000
00100000
00010000
00100000
02000000
00000000
00000000
13000000
00000000
00000000
,
20020000
00000000
00000000
00000000
,
00000000
00000000
00000000
30030000
,
00000000
00000000
00000000
00000000
;
