#TITLE:printemps;
#ARTIST:Qrispy Joybox;
#BANNER:printemps.png;
#BACKGROUND:printemps-bg.png;
#CDTITLE:./CDTitles/REFLEC BEAT colette.png;
#MUSIC:printemps.ogg;
#SAMPLESTART:12.857;
#SAMPLELENGTH:15;
#BPMS:0=168;
#STOPS:226=0.357;
#STAGE:3;

//---------------dance-single - ----------------
#NOTES:
     dance-single:
     :
     Beginner:
     3:
     :
0000
0000
0000
0000
,
0000
0000
0000
0000
,
0000
0000
0000
0000
,
0000
0000
0000
0000
,
0000
0000
0000
0000
,
0000
0000
0000
0000
,
0000
0000
0000
0000
,
0000
0000
0000
0000
,
0000
0000
0000
0000
,
1000
1000
0000
1000
,
0000
1000
1000
0000
,
0100
0000
0100
0000
,
0010
0000
0000
0000
,
0001
0001
0000
0001
,
0000
0001
0001
0000
,
0100
0000
0100
0000
,
0010
0000
0000
0000
,
1000
1000
0000
1000
,
0000
1000
1000
0000
,
0100
0000
0100
0000
,
0010
0000
0010
0000
,
0001
0000
0000
1000
,
0000
0000
0000
0000
,
0001
0000
0001
0000
,
1000
1000
1000
0000
,
0100
0000
0100
0000
,
0100
0000
0100
0000
,
1000
0000
0000
0001
,
0000
0000
1000
0000
,
0100
0000
0100
0000
,
0100
0000
0100
0000
,
0001
0000
0000
1000
,
0000
0000
0001
0000
,
1000
0000
1000
0000
,
1000
1000
1000
0000
,
0100
0000
0100
0000
,
0010
0000
0010
0000
,
0001
0000
0001
0000
,
0001
0001
0001
0000
,
0100
0000
0100
0000
,
0010
0000
0000
0000
,
1000
0000
0000
0000
,
0000
0000
0000
0000
,
0100
0000
0000
0000
,
0000
0000
0000
0000
,
0001
0000
0000
0000
,
0000
0000
0000
0000
,
0010
0000
0000
0000
,
0000
0000
0000
0000
,
1000
0000
1000
0000
,
1000
1000
1000
0000
,
0100
0000
0100
0000
,
0100
0100
0100
0000
,
0001
0000
0001
0000
,
0001
0001
0001
0000
,
0010
0000
0010
0000
,
0010
0010
0000
1000
,
1000
1000
1000
0000
,
1000
1000
0000
0100
,
0000
0100
0000
0010
,
0000
0010
0000
0001
,
0001
0001
0001
0000
,
0001
0001
0000
0100
,
0000
0100
0000
0010
,
0000
0010
0000
0100
,
0100
0100
0100
0000
,
0100
0100
0000
0001
,
0000
0001
0000
1000
,
0000
1000
0000
0001
,
0000
0000
1000
0000
,
0000
0000
0000
0001
,
0000
0001
0000
1000
,
0000
1000
0000
1001
,
0000
0000
0000
0000
;

//---------------dance-single - ----------------
#NOTES:
     dance-single:
     :
     Easy:
     6:
     :
0000
0000
0000
0000
,
0000
0000
0000
0000
,
0000
0000
0000
0000
,
0000
0000
0000
0000
,
0000
0000
0000
0000
,
0000
0000
0000
0000
,
0000
0000
0000
0000
,
0000
0000
0000
0000
,
0000
0000
0000
0000
,
0001
0001
0100
0001
,
0100
0001
0100
0000
,
0010
0010
1000
0000
,
0100
0100
0001
0000
,
1000
1000
0100
1000
,
0100
1000
0100
0000
,
1000
1000
0100
0000
,
0001
0001
0010
0000
,
0001
0001
1000
0001
,
1000
0001
1000
0000
,
0001
0010
0001
0000
,
1000
0010
1000
0000
,
1000
0000
0000
0001
0000
0000
1000
0000
,
0000
0002
0000
0000
0000
0000
0003
0000
,
1000
0100
0010
0001
,
0020
0000
0000
0030
,
0100
0000
1000
0001
,
1000
0001
0010
0000
,
0001
0000
0000
0001
0000
0000
0001
0000
,
0000
0001
0000
0000
0001
0000
0000
0000
,
0100
0000
0001
1000
,
0001
1000
0010
0000
,
1000
0000
0000
1000
0000
0000
1000
0000
,
0000
1000
0000
0000
1000
0000
0000
0000
,
0002
0000
1003
0000
,
0001
1000
0010
1000
,
0001
0100
1000
0100
,
0010
0010
0010
0000
,
2000
0000
3001
0000
,
1000
0001
0010
0001
,
1000
1000
0001
0001
,
0020
0000
0000
0030
,
0001
0000
0000
0000
,
0000
0000
0100
0000
,
1000
0000
0000
0000
,
0000
0000
0000
0000
,
0010
0000
0000
0000
,
0000
0000
0001
0000
,
0100
0000
0000
0000
,
0000
0000
0000
0000
,
1000
0000
1001
0000
,
0010
0010
0100
0000
,
0001
0000
1001
0000
,
0100
0100
0010
0000
,
1000
0000
0110
0000
,
0001
0100
1000
0000
,
0001
0000
0110
0000
,
1000
0001
0000
1000
,
1000
0100
1000
0001
,
1000
0010
0000
0100
,
0001
0100
0010
0100
,
1000
0100
0000
0001
,
0001
0100
0001
1000
,
0001
0010
0000
0100
,
1000
0001
0100
0001
,
1000
0100
0000
0010
,
0010
0100
1000
0001
,
0010
0100
0000
1000
,
0001
1000
0001
1000
,
0001
0100
0000
0010
,
0000
0100
0000
0000
0010
0000
0000
0200
,
0000
0000
0300
1000
,
0100
0010
0001
1000
,
0001
1000
0000
1001
,
0000
0000
0000
0000
;

//---------------dance-single - ----------------
#NOTES:
     dance-single:
     :
     Medium:
     10:
     :
0000
0000
0000
0000
,
0000
0000
0000
0000
,
0000
0000
0000
0000
,
0000
0000
0000
0000
,
0000
0000
0000
0000
,
0000
0000
0000
0000
,
0000
0000
0000
0000
,
0000
0000
0000
0000
,
0000
0000
0000
0000
,
0100
0000
1000
0100
0000
0001
0100
0000
,
1000
0100
0000
0001
0100
0000
0010
0000
,
1000
0001
0010
0100
,
1000
0000
0010
0000
0000
0100
0020
0000
,
0130
0000
0001
0100
0000
1000
0100
0000
,
0001
0100
0000
1000
0100
0000
0001
0000
,
1000
0100
0010
0001
,
0100
0010
1000
0000
,
0001
0100
0001
1000
0100
1000
0001
0100
,
0001
1000
0100
1000
0001
0100
0001
0000
,
1000
0010
0000
0001
0010
0000
1000
0010
,
0000
0001
0010
0000
1000
0001
1000
0000
,
1001
0000
0000
1100
0000
0000
0101
0000
,
0000
2002
0000
0000
0000
0000
3003
0000
,
0001
0100
0010
1000
,
0020
0100
0200
0330
,
1000
0000
0000
0001
0000
0100
0000
0001
,
0000
1000
0000
0100
0000
1000
0001
0000
,
1000
0000
0100
0010
0000
0001
1000
0000
,
0010
0100
0000
0001
0010
0100
1000
0000
,
0001
0000
0000
1000
0000
0010
0000
1000
,
0000
0001
0000
0010
0000
0001
1000
0000
,
0001
0000
0001
0100
0000
0100
0010
0000
,
0010
1000
0000
1000
0002
0000
0000
0000
,
0103
1000
0100
0001
,
1000
0100
0001
0100
,
1000
0000
0100
1000
0000
0010
0100
0000
,
0001
0010
0000
0100
2000
0000
0000
0000
,
3100
0001
0100
1000
,
0001
0100
1000
0100
,
0001
0000
0010
0100
0000
1000
0100
0010
,
0002
0000
0000
0003
,
0100
0000
0000
0000
,
0000
0000
1000
0010
,
0001
0000
0000
0000
,
0000
0000
0000
0000
,
0100
0000
0000
0000
,
0000
0000
0001
0010
,
1000
0000
0000
0000
,
0000
0000
0000
0000
,
0100
0001
0101
0001
,
1000
0100
1000
2100
,
3001
0010
0011
0010
,
1000
0010
1000
1020
,
0130
0010
0110
0010
,
1000
0001
1000
1002
,
0103
0010
0110
1000
,
1001
0000
1001
0000
0000
0000
0001
0100
,
0001
1000
0100
1000
0001
0100
0001
1000
,
0100
1000
0001
0100
0001
0000
1000
0000
,
0010
0100
0001
1000
,
0001
0000
0000
0010
0200
0000
1300
0100
,
1000
0001
0100
0001
1000
0100
1000
0001
,
0100
0001
1000
0100
1000
0000
0001
0000
,
0010
0100
1000
0010
,
0100
0000
0001
0000
0000
0000
1000
0010
,
1000
0001
0010
0001
1000
0010
1000
0001
,
0010
0001
1000
0010
1000
0000
0001
0100
,
0010
1000
0100
0010
0001
0100
0010
1000
,
0100
0010
0001
0100
0010
0000
1010
0000
,
0000
1100
0000
0000
0101
0000
0000
0022
,
0000
0000
0033
0010
,
0001
0100
1000
0020
,
0100
0100
0130
1001
,
0000
0000
0000
0000
;

//---------------dance-single - ----------------
#NOTES:
     dance-single:
     :
     Hard:
     13:
     :
0000
0000
0000
0000
,
0000
0000
0000
0000
,
0000
0000
0000
0000
,
0000
0000
0000
0000
,
0000
0000
0000
0000
,
0000
0000
0000
0000
,
0000
0000
0000
0000
,
0000
0000
0000
0000
,
0000
0000
0000
0000
,
0001
0100
0001
0100
0001
0000
0100
0001
0100
0001
0100
0000
0001
0100
0001
0100
,
0001
0100
0001
1000
0100
1000
0001
0100
,
0010
1000
0100
0001
,
0010
0000
0000
0000
1000
0000
0000
0000
0000
0000
0001
1000
0001
0000
0000
0000
,
1000
0100
1000
0100
1000
0000
0100
1000
0100
1000
0100
0000
1000
0100
1000
0100
,
1000
0100
1000
0001
0100
0001
1000
0100
,
0010
0000
0010
0001
0000
0001
0100
0000
,
0100
0000
0010
0000
1000
0000
0001
0000
1000
0100
1000
0100
1000
0000
0001
0000
,
1000
0001
1000
0001
1000
0000
0001
1000
0001
1000
0001
0000
1000
0001
1000
0001
,
1000
0001
0100
0010
1000
0001
0100
0001
,
1000
0100
0010
0001
0100
0010
1000
0100
,
0010
0001
0100
0010
1000
0100
0010
0000
,
0110
0000
0000
1001
0000
0000
0110
0000
,
0000
2002
0000
0000
0000
0000
3003
0000
,
0001
0100
1000
0010
,
0001
0000
1000
0000
0001
0000
1000
0000
0001
1000
0001
1000
0001
1000
0001
0000
,
1000
0000
0010
0100
0000
0001
0000
1000
,
0000
0000
0001
0000
0000
0000
1000
0000
0000
0000
0001
1000
0001
0000
0000
0000
,
1000
0100
0001
0001
0100
1000
1000
0100
,
0001
0000
0001
0000
0100
0000
1000
0000
1000
0000
0100
1000
0100
0000
0000
0000
,
0001
0000
0010
0100
0000
1000
0000
0101
,
0000
0000
1000
0000
0000
0000
0101
0000
0000
0000
1000
0001
1000
0000
0000
0000
,
0001
0100
1000
1000
0100
0001
0001
0100
,
1000
1000
0100
0001
0002
0000
0000
0000
,
1003
0000
0001
0100
0010
0100
0001
0000
,
1000
0100
0010
0001
,
0100
0001
0010
0010
0001
0100
0010
1000
,
0100
0100
1000
0010
0100
0001
0020
0000
,
0031
0000
1000
0001
0100
0001
1000
0000
,
0010
0001
0100
1000
,
0010
1000
0100
0100
1000
0010
0010
0100
,
0002
0000
0000
0003
,
0010
0000
0000
0000
0000
0000
0100
0010
,
0000
0010
0000
0010
0001
0000
0010
0000
,
1000
0000
0000
0000
0000
0000
0001
0010
,
0000
0010
0000
0010
0000
0000
0000
0000
,
0100
0000
0000
0000
0000
0000
0001
0010
,
0000
0010
0000
0010
1000
0000
0010
0000
,
0001
0000
0000
0000
0000
0000
0100
0010
,
0000
0010
0000
0010
0000
0000
0000
0000
,
1000
1000
0011
1000
,
0100
0000
0000
0100
0000
0000
0011
0000
0000
1000
0100
0010
,
0001
0001
1001
0001
,
0100
0000
0000
0100
0000
0000
0110
0000
0000
0010
0100
0001
,
1000
1000
0101
1000
,
0010
0000
0000
0010
0000
0000
0101
0000
0000
0001
0100
0010
,
1000
0000
0101
0000
,
1100
0000
0000
0000
1001
0000
0000
0000
0000
0000
0000
0000
1000
0100
1000
0100
,
1000
0000
0100
0010
0100
0010
0100
0000
0010
0001
0010
0001
0010
0000
0001
0000
,
1000
0001
0100
0001
0010
0001
0100
0000
,
0010
1000
0100
0001
,
0010
0000
0000
0000
1000
0000
0001
1000
0001
0000
0000
0000
0001
0100
0001
0100
,
0001
0000
0100
0010
0100
0010
0100
0000
0010
1000
0010
1000
0010
0000
1000
0000
,
0001
1000
0100
1000
0010
1000
0100
0000
,
0100
0010
0000
0010
0001
0000
0001
0100
,
0010
0000
1000
0000
0001
1000
0001
1000
0001
0000
1000
0000
0001
0100
0001
0100
,
0001
0000
1000
0100
1000
0100
1000
0000
0001
0100
0001
0100
0001
0000
1000
0000
,
0100
0000
0010
0000
0001
0000
0100
0000
0010
0000
1000
0000
0001
0000
0100
0010
,
0100
0000
1000
0000
0100
0010
0100
0000
0001
0000
0100
0010
0100
0000
1000
0000
,
0100
0010
0100
0000
0001
0000
0100
0010
0100
0000
0000
0000
0110
0000
0000
0000
,
0000
1001
0000
0000
0110
0000
0000
2002
,
0000
0000
3003
1000
,
0100
0001
0010
2002
,
0000
0000
3003
0110
,
0000
0000
0000
0000
;

//---------------dance-double - ----------------
#NOTES:
     dance-double:
     :
     Easy:
     5:
     :
00000000
00000000
00000000
00000000
,
00000000
00000000
00000000
00000000
,
00000000
00000000
00000000
00000000
,
00000000
00000000
00000000
00000000
,
00000000
00000000
00000000
00000000
,
00000000
00000000
00000000
00000000
,
00000000
00000000
00000000
00000000
,
00000000
00000000
00000000
00000000
,
00000000
00000000
00000000
00000000
,
01000000
00000000
00010000
00000000
,
00001000
00000000
00000010
00000000
,
00000001
00000001
00000001
00000000
,
00000100
00001000
00010000
00000000
,
00000100
00000000
00001000
00000000
,
00010000
00000000
00100000
00000000
,
10000000
00010000
10000000
00000000
,
00100000
01000000
00100000
00000000
,
10000000
00000000
01000000
00000000
,
00010000
00000000
00001000
00000000
,
00000100
00000100
00000100
00000000
,
00000010
00000010
00000010
00000000
,
00000001
00000100
00000010
00001000
,
00000100
00020000
00000000
00030000
,
00001000
00001000
00100000
00010000
,
02000000
00000000
00000000
03000000
,
00100000
10000000
00000000
01000000
,
00000000
01000000
00000000
00010000
,
01000000
01000000
00010000
00000000
,
00001000
00001000
00010000
00000000
,
00000100
00001000
00000000
00000010
,
00000000
00000100
00000000
00000001
,
00000100
00000100
00001000
00000000
,
00010000
00010000
00001000
00000000
,
00100000
00000000
00010000
00000000
,
10000000
01000000
00100000
00000000
,
01000000
00000000
00010000
00000000
,
00001000
00000000
00000010
00000000
,
00000100
00000000
00001000
00000000
,
00000001
00000100
00000010
00000000
,
00000100
00000000
00001000
00000000
,
00022000
00000000
00000000
00033000
,
00001000
00000000
00000000
00000000
,
00000000
00000000
00000000
00000000
,
01000000
00000000
00000000
00000000
,
00000000
00000000
00000000
00000000
,
00010000
00000000
00000000
00000000
,
00000000
00000000
00000000
00000000
,
00000010
00000000
00000000
00000000
,
00000000
00000000
00000000
00000000
,
00000001
00000001
00000001
00000000
,
00000100
00001000
00010000
00000000
,
00100000
00100000
00100000
00000000
,
10000000
01000000
00010000
00000000
,
00001000
00001000
00001000
00000000
,
00000010
00000001
00000100
00000000
,
00001000
00001000
00001000
00000000
,
00010000
00011000
00000000
00000100
,
00000000
00001000
00000000
00010000
,
00000000
00100000
00000000
10000000
,
00010000
10000000
00000000
01000000
,
00100000
01100000
00000000
01000000
,
00000000
00010000
00000000
00001000
,
00000000
00000010
00000000
00000001
,
00001000
00000001
00000000
00000100
,
00000010
00000100
00000000
00000001
,
00000000
00000100
00000000
00001000
,
00000000
00010000
00000000
01000000
,
01000000
01000000
01000000
00100000
,
00100000
00100000
00000000
10000000
,
01000000
00010000
00001000
00000100
,
00000020
00000000
00000000
00000130
,
00000001
00000100
00001000
00020000
,
00000000
00000000
00030000
00011000
,
00000000
00000000
00000000
00000000
;

//---------------dance-double - ----------------
#NOTES:
     dance-double:
     :
     Medium:
     10:
     :
00000000
00000000
00000000
00000000
,
00000000
00000000
00000000
00000000
,
00000000
00000000
00000000
00000000
,
00000000
00000000
00000000
00000000
,
00000000
00000000
00000000
00000000
,
00000000
00000000
00000000
00000000
,
00000000
00000000
00000000
00000000
,
00000000
00000000
00000000
00000000
,
00000000
00000000
00000000
00000000
,
00010000
00000100
00000000
00001000
00000001
00000000
00000001
00000100
,
00000000
00001000
00010000
00000000
00001000
00000000
01000000
00000000
,
01100000
00010000
10000000
01000000
,
00010000
00000000
00001000
00000000
00010000
00001000
00010000
00000000
,
00001000
01000000
00000000
00010000
10000000
00000000
10000000
01000000
,
00000000
00010000
00001000
00000000
00010000
00000000
00000100
00000000
,
00000110
00000010
00000001
00001000
,
00000010
00000100
00000010
00000000
00001000
00000000
00000001
00000000
,
00000001
00000100
00000000
00001000
00010000
00000000
00001000
00010000
,
00000000
01000000
10000000
00000000
10000000
00000000
00010000
00000000
,
01000000
00010000
01000000
00001000
00100000
00001000
00010000
00000100
,
00010000
00000010
00001000
00000010
00000100
00000001
00000100
00000000
,
00000001
00000000
00000000
00000110
00000000
00000000
00001000
00000000
,
00000000
00022000
00000000
00000000
00000000
00000000
00033000
00000000
,
00010000
01000000
10000000
00100000
,
00010000
00000000
00001000
00000000
00010000
00001000
00010000
00000000
,
00000100
00000000
00000010
00000002
00000000
00000100
00000000
00000010
,
00000000
00000100
00000000
00000010
00000000
00000103
00001000
00000000
,
00001100
00000000
00001000
00010000
00000000
00010000
00100000
00000000
,
00100000
10000000
00000000
10000000
00010000
10000000
00010000
00000000
,
01000000
00000000
00100000
20000000
00000000
01000000
00000000
00100000
,
00000000
01000000
00000000
00100000
00000000
31000000
00010000
00000000
,
01010000
00000000
00010000
00001000
00000000
00001000
00000010
00000000
,
00000010
00000001
00000000
00000001
00002000
00000000
00000000
00000000
,
00003001
00000000
00000010
00000000
00000100
00001000
00000100
00000000
,
00010000
00001000
00100000
00010000
,
10000000
00100000
00000000
00100000
00010000
00000000
00010000
00001000
,
00000000
00001000
00010000
00000000
00010000
00001000
00000020
00000000
,
00000031
00000000
00000100
00000000
00000010
00001000
00000010
00000000
,
00010000
00001000
01000000
00010000
,
10000000
01000000
00000000
01000000
00010000
00000000
00010000
00001000
,
00000020
00000000
00000000
00000000
,
00000130
00000000
00000000
00000000
,
00000000
00000000
00000001
00000100
,
00001000
00000000
00000000
00000000
,
00000000
00000000
00000000
00000000
,
01000000
00000000
00000000
00000000
,
00000000
00000000
10000000
01000000
,
00010000
00000000
00000000
00000000
,
00000000
00000000
00000000
00000000
,
00011000
00000010
00000100
00000010
,
00000110
00000100
00001000
00010000
,
00011000
00100000
01000000
00100000
,
01100000
01000000
00010000
00001000
,
00011000
00001000
00000100
00000001
,
00001001
00000100
00001000
00010000
,
00011000
00010000
01000000
10000000
,
10010000
00000000
10010000
00000000
00000000
00000000
00100000
01000000
,
00000000
00010000
00001000
00000000
00000010
00000100
00000000
00001000
,
00000001
00000100
00000010
00000110
,
00001000
00010000
00001000
00000100
,
00000001
00000000
00001000
00000001
00001000
00000000
00000010
00000100
,
00000000
00001000
00010000
00000000
00100000
01000000
00000000
00010000
,
10000000
01000000
00100000
01100000
,
00010000
00000000
00001000
00000000
00010000
00000000
00010000
01000000
,
10000000
00000000
10000000
00010000
10000000
00000000
10000000
01000000
,
00000000
00010000
00001000
00000000
00000010
00000001
00000000
00000100
,
00001000
00000000
00010000
00000000
00001000
00000000
00010000
00000100
,
00010000
00001000
00100000
00001000
01000000
00010000
01000000
00100000
,
10000000
00100000
10000000
00010000
10000000
00000000
11000000
00000000
,
00000000
00110000
00000000
00000000
00011000
00000000
00000000
00002200
,
00000000
00000000
00003300
00000010
,
00000001
00000000
00000100
00000000
00001000
00000000
00010000
00001000
,
00010000
00001000
00010000
00001000
00010000
00000000
00011000
00000000
,
00000000
00000000
00000000
00000000
;

//---------------dance-double - ----------------
#NOTES:
     dance-double:
     :
     Hard:
     14:
     :
00000000
00000000
00000000
00000000
,
00000000
00000000
00000000
00000000
,
00000000
00000000
00000000
00000000
,
00000000
00000000
00000000
00000000
,
00000000
00000000
00000000
00000000
,
00000000
00000000
00000000
00000000
,
00000000
00000000
00000000
00000000
,
00000000
00000000
00000000
00000000
,
00000000
00000000
00000000
00000000
,
00000100
00010000
00000100
00010000
00000100
00000000
00010000
00001000
00010000
00001000
00010000
00000000
00001000
01000000
00001000
01000000
,
00001000
00010000
00001000
00010000
00000100
00000010
00000001
00001000
,
00000010
00000100
00001000
00100000
,
01000000
00000000
00000000
00000000
10000000
00000000
00000000
00000000
00000000
00000000
00010000
10000000
00010000
00000000
00000000
00000000
,
01000000
00001000
01000000
00001000
01000000
00000000
00001000
00010000
00001000
00010000
00001000
00000000
00010000
00000100
00010000
00000100
,
00010000
00001000
00010000
00001000
00100000
01000000
10000000
00010000
,
01000000
00000000
00100000
00010000
00000000
00010000
00001000
00000000
,
00001000
00000100
00000001
00001000
00000100
00000010
00000001
00001000
,
00000010
00010000
00000010
00010000
00000010
00000000
00010000
00001000
00010000
00001000
00010000
00000000
00001000
00100000
00001000
00100000
,
00001000
00010000
00001000
00010000
01000000
10000000
00010000
10000000
,
01000000
01000000
00100000
00010000
00010000
00100000
00001000
00001000
,
00010000
00000010
00000010
00001000
00000010
00000010
00000100
00000001
,
00000101
00000000
00000000
00010100
00000000
00000000
01001000
00000000
,
00000000
22000000
00000000
00000000
00000000
00000000
33000000
00000000
,
10000000
00100000
00010000
00001000
,
00000100
00000000
00000000
00000000
00000001
00000000
00000000
00000000
00001000
00000001
00001000
00000001
00001000
00000000
00000000
00000000
,
00000001
00000010
00000100
00002000
00000000
00000010
00000000
00010000
,
00000000
00000010
00000000
00010000
00000000
00003010
00000100
00000000
,
00001000
00000100
00000001
00000001
00000100
00001000
00010000
01000000
,
10000000
10000000
01000000
00010000
00001000
00000100
00000010
00000000
,
00000010
00000100
00001000
00020000
00000000
00100000
00000000
00001000
,
00000000
00100000
00000000
00001000
00000000
00130000
10000000
00000000
,
01000000
00010000
00001000
00001000
00010000
01000000
10000000
01000000
,
00010000
00010000
01000000
10000000
00020000
00000000
00000000
00000000
,
10030000
01000000
00010000
00000100
,
00000010
00001001
00000100
00001001
,
00000001
00000100
00000000
00000100
00000010
00000000
00000010
00001000
00000000
00001000
00000100
00000000
00000100
00010000
00000000
00010000
,
00001000
00000000
00001000
00100000
00000000
00100000
00010000
00000000
00010000
01000000
00100000
01000000
00100000
00000000
00000000
00000000
,
10000000
01000000
00010000
00001000
,
00000100
00001000
00021000
01030000
,
10000000
01000000
00000000
01000000
00010000
00000000
00010000
00001000
00000000
00001000
00000100
00000000
00000100
00000001
00001000
00000001
,
00002000
00000000
00000000
00000000
,
00003001
00000000
00000000
00000000
00000000
00000000
00000100
00000010
,
00000000
00000010
00000000
00000010
00001000
00000000
00010000
00000000
,
00100000
00000000
00000000
00000000
00000000
00000000
01000000
00100000
,
00000000
00100000
00000000
00100000
00000000
00000000
00000000
00000000
,
10000000
00000000
00000000
00000000
00000000
00000000
01000000
00100000
,
00000000
00100000
00000000
00100000
00010000
00000000
00001000
00000000
,
00000100
00000000
00000000
00000000
00000000
00000000
00001000
00000010
,
00000000
00000010
00000000
00000010
00000000
00000000
00000000
00000000
,
00000101
00000100
00001100
00000100
,
00000101
00000000
00000000
00000101
00000000
00000000
00001100
00000000
00000000
00000010
00000100
00001000
,
00010000
00010000
00011000
00010000
,
01010000
00000000
00000000
00010000
00000000
00000000
00011000
00000000
00000000
00001000
00010000
01000000
,
10000000
01000000
01010000
01000000
,
11000000
00000000
00000000
11000000
00000000
00000000
01010000
00000000
00000000
00100000
01000000
00010000
,
00002000
00000000
00013000
00000000
,
00000110
00000000
00000000
00000000
00001001
00000000
00000000
00000000
00000000
00000000
00000000
00000000
00000001
00000100
00000001
00000100
,
00000001
00000000
00000100
00001000
00000100
00001000
00000100
00000000
00001000
00010000
00001000
00010000
00001000
00000000
00010000
00000000
,
01000000
10000000
01000000
00010000
00001000
00000100
00000001
00000000
,
00000010
00001000
00010000
00100000
,
10000000
00000000
00000000
00000000
00000000
00000000
00010000
10000000
00010000
00000000
00000000
00000000
10000000
01000000
10000000
01000000
,
10000000
00000000
01000000
00010000
01000000
00010000
01000000
00000000
00010000
00001000
00010000
00001000
00010000
00000000
00001000
00000000
,
00000100
00000001
00000100
00001000
00010000
00100000
10000000
00000000
,
10000000
01000000
00000000
00100000
00010000
00000000
00001000
00000100
,
00000010
00000000
00000001
00000000
00001000
00000001
00001000
00000001
00001000
00000000
00000001
00000000
00000100
00000010
00000100
00000010
,
00000100
00000000
00001000
00010000
00001000
00010000
00001000
00000000
00100000
01000000
00100000
01000000
00100000
00000000
01000000
00000000
,
10000000
00000000
01000000
00000000
00100000
00000000
00010000
00000000
01000000
00000000
00100000
00000000
10000000
00010000
10000000
00010000
,
00100000
00000000
00010000
00100000
00010000
00100000
00001000
00000000
00100000
00001000
00100000
00001000
00010000
00000000
00001000
00010000
,
00001000
00010000
00000010
00000000
00010000
00000010
00010000
00000010
00001000
00000000
00000000
00000000
00001010
00000000
00000000
00000000
,
00000000
00000101
00000000
00000000
00010100
00000000
00000000
00022000
,
00000000
00000000
00033000
00010000
,
00100000
00000000
10000000
00000000
01000000
00000000
00010000
00001000
,
00000100
00000000
00000010
00000000
00001000
00000001
00001000
00000001
00001000
00000001
00001000
00000000
00000100
00000000
00000000
00000000
,
00000000
00000000
00000000
00000000
;
