#TITLE:heron;
#ARTIST:S-C-U;
#BANNER:heron.png;
#BACKGROUND:heron-bg.png;
#CDTITLE:./CDTitles/DanceDanceRevolution 2013.png;
#MUSIC:heron.ogg;
#SAMPLESTART:55.38;
#SAMPLELENGTH:15;
#BPMS:0=182;
#STAGE:15;

//---------------dance-single - ----------------
#NOTES:
     dance-single:
     :
     Beginner:
     3:
     :
0000
0000
0000
0000
,
0000
0000
0000
0000
,
0000
0000
0000
0000
,
0000
0000
0000
0000
,
0000
0000
0000
0000
,
0000
0000
0000
0000
,
0100
0000
0000
0000
,
0100
0000
0000
0000
,
0001
0000
0000
0000
,
0100
0000
0000
0000
,
1000
0000
1000
0000
,
1000
0000
0000
0000
,
0001
0000
0001
0000
,
0001
0000
0000
0000
,
1000
0000
0000
0000
,
0100
0000
0000
0000
,
0001
0000
0000
0000
,
0100
0000
0000
0000
,
0001
0000
0001
0000
,
1000
0000
0000
0000
,
1000
0000
1000
0000
,
0001
0000
0000
0000
,
0010
0000
0010
0000
,
0010
0000
0000
0000
,
0001
0000
0000
0000
,
1001
0000
0000
0000
,
0001
0000
0001
0000
,
0100
0000
0100
0000
,
1000
0000
1000
0000
,
1000
0000
0000
0000
,
0100
0000
0000
0000
,
0100
0000
0100
0000
,
0001
0000
1000
0000
,
0001
0000
0000
0000
,
0001
0000
0001
0000
,
0100
0000
0100
0000
,
1000
0000
1000
0000
,
0010
0000
0000
0000
,
0001
0000
0001
0000
,
1000
0000
1000
0000
,
0200
0000
0000
0300
,
0000
0000
0000
0000
,
0001
0000
0001
0000
,
0100
0000
0100
0000
,
0010
0000
0000
0000
,
0100
0000
0000
0000
,
1000
0000
1000
0000
,
0100
0000
0100
0000
,
0001
0000
0001
0000
,
0100
0000
0000
0000
,
0001
0000
0001
0000
,
1000
0000
1000
0000
,
0010
0000
0000
0000
,
0100
0000
0000
0000
,
1000
0000
1000
0000
,
0010
0000
0010
0000
,
0001
0000
0001
0000
,
0100
0000
0000
0000
,
0001
0001
0001
0000
,
0001
0001
0001
0000
,
1000
1000
1000
0000
,
0001
0000
1000
0000
,
0001
0001
0001
0000
,
1000
1000
1000
0000
,
0200
0000
0000
0000
0000
0000
0000
0300
,
0000
0000
0000
0000
;

//---------------dance-single - ----------------
#NOTES:
     dance-single:
     :
     Easy:
     6:
     :
0000
0000
0000
0000
,
0000
0000
0000
0000
,
0000
0000
0000
0000
,
0000
0000
0000
0000
,
0000
0000
0000
0000
,
0000
0000
0000
0000
,
0001
0000
1000
0000
,
0001
0000
0100
0000
,
0001
1000
0001
1000
,
0020
0000
0000
0030
,
1000
0000
0001
0000
,
0010
0001
0100
0010
,
1000
0000
0100
0000
,
0010
0001
0100
0010
,
1000
0000
0010
0000
,
0001
0000
1000
0100
,
0001
0000
0010
0000
,
0001
0010
0100
1000
,
0010
0010
0100
0000
,
0010
0100
0001
0000
,
0010
0010
0100
0000
,
0010
1000
0100
0010
,
0001
0000
0010
0000
,
0100
0000
1000
0010
,
0100
0000
0010
0000
,
2002
0000
0000
3003
,
0001
0001
1000
0100
,
0010
0010
0001
0100
,
0010
0010
0100
0100
,
0002
0000
0003
0000
,
0200
0000
0300
0000
,
1000
0001
1000
0001
,
1001
0000
0110
0000
,
1001
0000
0110
0000
,
0010
0010
1000
0100
,
0001
0001
0010
1000
,
0100
0100
0001
0010
,
1000
0001
1000
0000
,
0010
1000
0001
0100
,
1000
0100
0010
1000
,
0020
0000
0000
0000
,
0030
0000
0000
0000
,
0001
1000
0010
0100
,
0010
1000
0001
0010
,
0001
0000
0000
1000
0000
0000
0000
0002
,
0000
0000
0103
0000
,
1000
0001
0100
0010
,
1000
0100
0010
0001
,
0100
0100
0100
0100
,
0000
0010
1000
0000
,
0010
0100
0001
1000
,
0010
0100
0001
1000
,
0010
0000
0000
0100
0000
0000
0000
0020
,
0000
0000
0130
0000
,
0100
0010
1000
0001
,
0100
0010
0001
0010
,
1000
1000
0100
0100
,
0000
0001
1001
0000
,
0010
2000
0001
3001
,
0100
0002
1000
1003
,
0010
0020
0100
0130
,
0001
0010
0100
1000
,
0010
0200
0010
0301
,
0100
0020
0100
1030
,
0000
0001
0000
0000
1000
0000
0000
0100
,
0000
0000
0000
0000
;

//---------------dance-single - ----------------
#NOTES:
     dance-single:
     :
     Medium:
     9:
     :
0000
0000
0000
0000
,
0000
0000
0000
0000
,
0000
0000
0000
0000
,
0000
0000
0000
0000
,
0000
0000
0000
0000
,
0000
0000
0000
0000
,
0001
0100
0001
0010
,
0100
1000
0010
1000
,
0010
1000
0010
1000
0001
0010
0001
0000
,
0200
0000
0000
0300
,
1000
0010
1000
0100
,
1000
1010
0010
1100
,
0001
0010
0001
0100
,
0001
0011
0010
0101
,
0010
1000
0100
0001
,
0010
0000
0000
0000
0001
1000
0001
0000
,
0010
0001
0100
1000
,
0010
0001
1000
0001
0100
0000
0000
0000
,
0100
1000
0100
0010
,
0100
1010
1000
0110
,
0100
0001
0100
0010
,
0100
0011
0001
0110
,
1000
1000
0100
0100
,
0010
0000
0010
0100
,
0001
0000
0010
0100
0001
0000
0010
0000
,
0101
0000
0001
0100
0010
1000
0100
0000
,
0010
0100
0012
0103
,
0010
0100
2010
3100
,
0001
0100
1000
0100
,
1002
0000
0100
0000
0013
0000
0100
1000
,
0020
0000
1000
0000
0130
0000
0001
0100
,
0020
1000
0130
0010
,
1001
0100
1001
0010
,
1001
0100
1001
0010
,
0100
0011
0102
0013
,
0100
1010
2100
3010
,
0100
1010
0100
0011
,
0201
0010
1300
0000
,
0100
0000
0001
0000
0100
0010
0001
0000
,
0100
0000
0010
0000
0100
0010
1000
0000
,
0001
0000
0000
0001
0000
0000
0001
0000
0000
0010
0000
0000
0010
0000
0000
0020
,
0000
0000
0000
0030
,
0001
1001
0100
1001
,
0100
0000
0010
0000
0001
0000
0100
0010
,
0100
0000
0001
0001
0000
1010
0000
2001
,
0000
0000
3100
0000
0010
0000
0100
0100
,
0001
1001
0010
1001
,
0100
0010
1000
0100
,
0001
0100
0000
0010
1000
0000
0010
0001
,
0000
0010
1000
0000
0100
0010
0100
0010
,
0001
1001
0100
1001
,
0100
0000
0010
0000
0001
0000
0100
0010
,
0100
0000
1000
1000
0000
0011
0000
1002
,
0000
0000
0103
0000
0010
0000
0100
0100
,
0001
1001
0100
1001
,
0010
0101
0010
1100
,
1000
0100
0000
0100
0010
0000
0010
0001
,
0000
0001
0010
0000
0010
0100
1000
0000
,
1010
1100
1001
0101
,
0011
1001
1010
1100
,
0110
0011
1001
0101
,
2000
3020
0230
0302
,
1003
1100
0011
0101
,
1010
0110
0011
1001
,
0000
0000
0010
0000
0000
0010
0000
0000
0010
0000
0000
0010
0000
0000
0100
0000
,
0000
0000
0000
0000
;

//---------------dance-single - ----------------
#NOTES:
     dance-single:
     :
     Hard:
     12:
     :
0000
0000
0000
0000
,
0000
0000
0000
0000
,
0000
0000
0000
0000
,
0000
0000
0000
0000
,
0000
0000
0000
0000
,
0000
0000
0000
0000
,
1100
0000
0001
0010
0100
0010
0001
0000
,
0101
0000
1000
0010
0100
0010
1000
0000
,
1000
0100
1000
0010
0100
0001
0010
0001
,
2000
0000
0002
3003
,
0001
0000
0100
0001
0100
0000
0100
0010
,
1000
0100
1100
0101
,
0100
0000
0100
0010
0100
0000
0100
0001
,
0010
0100
0101
1100
,
0110
0000
1000
0100
1000
0000
0001
0000
,
0100
0000
0100
1000
0100
0001
0100
0000
,
0010
0000
1000
0010
1000
0000
0010
0000
,
0001
0010
0100
1000
0010
1000
0100
0010
,
0001
0000
0010
1000
0010
0000
0010
0001
,
0100
0010
1010
0011
,
0010
0000
0010
0001
0010
0000
0010
0100
,
1000
0010
0011
1010
,
1001
0000
0010
0001
0100
1000
0010
1000
,
0100
0000
0010
0000
0010
0100
0010
0000
,
0110
0010
1001
1010
,
0011
0000
1000
0010
0001
0100
0010
1000
,
0001
0000
0000
0001
0000
0000
1000
0000
0010
0000
0100
0000
0001
0000
0100
0000
,
0010
0000
0000
0010
0000
0000
1000
0000
0001
0000
0100
0000
1000
0000
0100
0000
,
0001
0000
0000
0001
0000
0000
0010
0000
0010
0000
0000
0100
0000
0000
0100
0000
,
1000
0000
0001
0000
0100
0000
0010
0001
,
1001
0000
0100
0000
0010
0000
1000
0001
,
1000
0100
0010
0100
1000
0001
0010
0000
,
1010
0000
0100
0010
0011
0000
0100
0010
,
1010
0011
0110
1001
,
0010
0000
0000
0010
0100
0000
0010
0000
0001
0000
1000
0000
0100
0000
0001
0000
,
0100
0000
0000
0100
1000
0000
0100
0000
0010
0000
1000
0000
0010
0000
0001
0000
,
0010
0000
0000
0010
0001
0000
0100
0000
0010
0000
1000
0000
0010
0000
0001
0000
,
0010
0000
0000
0010
1000
0000
0001
0000
0100
0000
0000
0000
1001
0000
0000
0000
,
0010
0001
0100
0001
0010
0100
1000
0001
,
1000
0100
1000
0010
0100
0001
0010
0000
,
0001
0000
0000
0101
0000
0000
1000
0000
0000
1010
0000
0000
0110
0000
0000
2002
,
0000
0000
0000
3003
,
1001
0000
0100
0010
0001
1000
0100
0000
,
0011
0000
0100
1000
0010
0100
0001
0000
,
1001
0000
0100
0100
0000
1010
0000
0202
,
0000
0303
0010
1000
0100
0001
0100
0000
,
1001
0000
0100
0010
1000
0001
0010
0000
,
1100
0000
0010
0001
0100
0010
0001
0000
,
0001
0010
1000
0100
0010
0100
1000
0001
,
0000
0001
0010
0100
0100
1000
0001
0000
,
1000
0100
0010
0100
1000
0001
0100
0000
,
1000
0100
0001
1000
0001
0100
0010
0000
,
1001
0000
0100
0110
0000
0011
0000
2020
,
0000
3030
0001
0010
0100
0000
0010
0010
,
0001
0010
0100
0010
0001
1000
0010
0000
,
0001
1000
0001
0010
0100
0010
1000
0000
,
0001
0010
0100
1000
0010
0100
0001
0010
,
0100
1000
0100
0010
0001
1000
1001
0000
,
0001
0000
1000
0000
0010
1000
0000
0000
1000
0000
0001
0000
0100
0000
0010
0000
,
1000
0000
0001
0000
0010
0001
0000
0000
0001
0000
1000
0000
0100
0000
0010
0000
,
0001
0000
0010
0000
0100
0010
0000
0000
0010
0000
0001
0000
0100
0000
0010
0000
,
1010
0101
0011
1100
,
0001
0100
0001
1000
0010
0100
0010
1000
,
0100
0001
0100
0010
0001
1000
1001
0001
,
0000
0000
0010
0000
0000
1100
0000
0000
0010
0000
0000
0101
0000
0000
1001
0000
,
0000
0000
0000
0000
;

//---------------dance-single - ----------------
#NOTES:
     dance-single:
     :
     Challenge:
     13:
     :
0000
0000
0000
0000
,
0000
0000
0000
0000
,
0000
0000
0000
0000
,
0000
0000
0000
0000
,
0000
0000
0000
0000
,
0000
0000
0000
0000
,
0010
0000
0010
0100
0000
0010
0000
0000
,
0001
0000
0001
0100
0000
0001
0000
0000
,
1000
0000
1000
0100
0000
1000
0000
0000
,
0200
0000
0000
0300
,
MMMM
0000
0100
0001
0000
0100
0000
0010
,
0000
0010
0100
0000
0100
0000
0010
0000
,
0010
0100
0001
0100
0000
0100
0000
0010
,
0000
0010
0100
0000
0001
0000
0010
0000
,
MMMM
0000
0010
0100
0000
1000
0000
0100
,
0000
0000
0000
0010
0000
1000
0100
0000
,
1000
0000
1000
0010
0000
0010
1000
0100
,
1000
0010
0100
0010
1000
0100
0010
0000
,
MMMM
0000
0001
1000
0000
0001
0000
0010
,
0000
0010
0001
0000
1000
0000
0001
0000
,
0010
1000
0001
0010
0000
0001
0000
0010
,
0000
0010
0001
0000
1000
0000
1001
0000
,
MMMM
0000
1000
0001
0000
1000
0000
0100
,
0000
0000
0000
1000
0000
1000
0100
0000
,
1100
0000
0000
0101
0000
0000
1001
0000
,
MMMM
0000
1000
0100
0010
0001
MMMM
0000
,
0001
0000
0000
0010
0000
0000
0200
0000
0000
0000
0310
0000
0001
0000
0100
0000
,
0001
0000
0000
0010
0000
0000
0200
0000
0000
0000
0301
0000
0100
0000
0010
0000
,
0001
0000
0000
0001
0000
0000
0001
0000
0010
0000
0000
0010
0000
0000
0010
0000
,
0200
0000
0000
0300
MMMM
0000
0000
1000
,
0002
0000
0000
0000
0000
0000
1003
0100
1000
0000
0000
0000
0000
0000
0001
0000
,
1000
0100
0001
0100
1000
0001
0100
0001
,
1000
0100
1000
0001
0100
0001
1000
0001
,
0200
0000
0300
MMMM
,
1000
0000
0000
0100
0000
0000
0020
0000
0000
0000
0130
0000
1000
0000
0010
0000
,
1000
0000
0000
0100
0000
0000
0020
0000
0000
0000
1030
0000
0010
0000
0100
0000
,
1000
0000
0000
0010
0000
0000
0200
0000
0000
0000
1300
0000
0100
0000
0010
0000
,
1000
0000
0000
1000
0000
0000
0010
0000
0100
0000
0000
0000
MMMM
0000
0010
0000
,
0001
1000
0010
0001
0010
1000
0010
MMMM
,
1000
0100
1000
0001
1000
0100
0001
0100
,
1000
0000
0000
0001
0000
0000
0100
0000
0000
0001
0000
0000
1000
0000
0000
2002
,
0000
0000
0000
0000
0000
3003
MMMM
0000
,
0010
0000
0100
0010
0000
0100
0000
0020
,
0000
0000
0130
0000
0010
0000
0000
0000
0100
0000
0010
0000
MMMM
0000
1000
0001
,
1000
0000
1000
0001
MMMM
0110
MMMM
1001
,
0000
1000
0001
0000
1000
0001
1000
MMMM
,
1000
0000
0100
1000
0000
0100
0000
2000
,
0000
3100
1000
0000
1000
0100
MMMM
0001
,
0010
0001
MMMM
0010
0100
0010
MMMM
0001
,
0000
0010
0001
0000
0010
0010
MMMM
0000
,
0100
0000
0010
0100
0000
0010
0000
0200
,
0000
0000
0310
0000
0100
0000
0000
0000
0100
0000
0010
0000
MMMM
0000
0010
1000
,
0010
0000
1000
0010
MMMM
0011
MMMM
0110
,
0000
0100
0010
0000
0010
0100
0010
MMMM
,
0001
0000
0100
0001
0000
0100
0000
0002
,
0000
0103
0001
0000
0001
0100
MMMM
1000
,
0010
1000
MMMM
0100
0001
0100
MMMM
0010
,
0000
0010
0100
0000
0100
0100
MMMM
0000
,
0001
0010
0100
0010
0001
0100
0010
MMMM
,
0010
1000
0100
0010
0100
1000
0010
MMMM
,
0001
0100
1000
0100
0001
0010
0001
1000
,
1010
MMMM
1100
MMMM
0011
MMMM
0101
MMMM
,
0001
1000
0100
0001
0100
1000
0001
MMMM
,
0001
1000
0010
0001
0010
1000
0001
1000
,
MMMM
0000
0100
0010
0000
0010
0100
0000
0100
0010
0000
0010
0100
0000
0110
0000
,
0000
0000
0000
0000
;

//---------------dance-double - ----------------
#NOTES:
     dance-double:
     :
     Easy:
     6:
     :
00000000
00000000
00000000
00000000
,
00000000
00000000
00000000
00000000
,
00000000
00000000
00000000
00000000
,
00000000
00000000
00000000
00000000
,
00000000
00000000
00000000
00000000
,
00000000
00000000
00000000
00000000
,
00000100
00000000
00000000
00000000
,
00100000
00000000
00000000
00000000
,
00001000
00000000
00010000
00000000
,
00022000
00000000
00000000
00033000
,
01000000
00000000
10000000
00000000
,
00010000
00100000
01000000
00000000
,
00010000
00000000
00001000
00000000
,
00010000
00001000
00000100
00000000
,
00000001
00000000
00001000
00000000
,
00010000
00000000
00000000
00000000
,
00000001
00000000
00000100
00000000
,
00000010
00000100
00001000
00010000
,
00001000
00000000
01000000
00000000
,
00100000
10000000
01000000
00000000
,
00100000
00000000
00001000
00000000
,
00010000
00001000
00010000
00100000
,
01000000
00000000
00010000
00000000
,
00001000
00000000
00000000
00000000
,
00000010
00000000
00000100
00000000
,
00002002
00000000
00000000
00003003
,
00000001
00000100
00000010
00001000
,
00000001
00000100
00001000
00000000
,
00001000
00011000
00010000
00000000
,
02000000
00000000
03000000
00000000
,
00200000
00000000
00300000
00000000
,
00001000
00010000
00100000
00000000
,
01100000
00000000
10010000
00000000
,
02200000
00000000
00000000
03300000
,
10000000
01000000
00100000
00010000
,
10000000
01000000
00010000
00000000
,
00010000
00011000
00001000
00000000
,
00010000
00000010
00000100
00000000
,
00000001
00000001
00001000
00001000
,
00000001
00000100
00001000
00010000
,
00022000
00000000
00000000
00000000
,
00033000
00000000
00000000
00000000
,
00100000
01000000
10000000
01000000
,
00100000
01000000
00010000
00001000
,
00000100
00000000
00000000
00000010
00000000
00000000
00000000
00000220
,
00000000
00000000
00000000
00000330
,
00000001
00001000
00000010
00000100
,
00000001
00000100
00001000
00010000
,
00002000
00003000
00020000
00030000
,
02000000
03000000
00100000
01100000
,
00010000
01000000
00010000
00100000
,
10000000
00100000
01000000
00010000
,
00001000
00000000
00000000
00000100
00000000
00000000
00000000
00000220
,
00000000
00000000
00000000
00000330
,
00000001
00001000
00000001
00000100
,
00001000
00000100
00000010
00001000
,
00000100
00010000
00001000
00000100
,
00000000
00001000
00011000
00000000
,
00100000
00002000
00013000
00001000
,
01000000
00020000
00130000
00010000
,
10000000
02000000
03100000
01000000
,
10000000
01000000
00010000
00001000
,
00000010
00000200
00001300
00000001
,
00000100
00000020
00001030
00000001
,
00000000
00000100
00000000
00000000
00001000
00000000
00000000
00010000
,
00000000
00000000
00000000
00000000
;

//---------------dance-double - ----------------
#NOTES:
     dance-double:
     :
     Medium:
     9:
     :
00000000
00000000
00000000
00000000
,
00000000
00000000
00000000
00000000
,
00000000
00000000
00000000
00000000
,
00000000
00000000
00000000
00000000
,
00000000
00000000
00000000
00000000
,
00000000
00000000
00000000
00000000
,
00010000
00000000
00001000
00000000
00000100
00000010
00000000
00000000
,
00001000
00000000
00010000
00000000
01000000
00100000
00000000
00000000
,
00010000
00000000
10000000
00000000
00100000
01000000
00100000
00000000
,
20020000
00000000
00000000
30030000
,
01000000
00010000
00001000
00100000
,
00001000
00000100
00000010
00000101
,
00000010
00001000
00010000
00000100
,
00010000
00000010
00000100
00001100
,
00010000
00001000
00010000
01000000
,
00200000
00000000
00000000
00000000
01300000
10000000
01000000
00000000
,
10000000
00010000
00100000
01000000
,
00010000
00001000
00000100
00000010
00000100
00000000
00000000
00000000
,
00000001
00001000
00000100
00000010
,
00001000
00010000
00001000
00011000
,
00100000
00010000
10000000
01000000
,
00100000
00010000
10000000
11000000
,
00100000
10000000
01000000
00010000
,
00002000
00000000
00000000
00000000
00013000
00001000
00010000
00000000
,
00000100
00000000
00000010
00000100
00000010
00000000
00000001
00000000
,
00001001
00000000
00000001
00000100
00000010
00001000
00000100
00000000
,
00000010
00000001
00000100
00001100
,
00001000
00010000
01000000
01100000
,
10000000
01000000
00010000
00001000
,
02000000
00000000
00010000
00000000
03100000
00000000
00100000
10000000
,
02000000
00000000
00100000
00000000
03010000
00000000
00001000
00010000
,
00002000
00010000
00000100
00013000
,
00011000
00001000
00000110
00000010
,
00001001
00000000
00000001
00000100
00000010
00001000
00000100
00000000
,
00000011
00000100
00001000
00011000
,
00000100
00010000
00001000
00101000
,
00010000
00000000
01000000
00000000
10000000
00010000
10000000
00000000
,
10020000
00100000
00001000
00030000
,
00100000
00000000
00010000
00000000
10000000
01000000
00010000
00000000
,
00001000
00000000
00010000
00000000
00001000
00000010
00000001
00000000
,
00000010
00000000
00000000
00000010
00000000
00000000
00000010
00000000
00000000
00000010
00000000
00000000
00000010
00000000
00000000
00000020
,
00000000
00000000
00000000
00000030
,
00000001
00000100
00000010
00001000
,
00010000
00000000
01000000
00000000
00100000
00000000
10000000
01000000
,
00010000
00000000
00001000
00001000
00000000
00010100
00000000
00201000
,
00000000
00000000
00310000
00000000
01000000
00000000
00100000
00010000
,
00001000
00010000
00000100
00001000
,
00000010
00000001
00000010
00000100
,
00000001
00000100
00000000
00000010
00001000
00000000
00001000
00010000
,
00000000
00001000
00010000
00000000
00100000
10000000
01000000
00000000
,
10000000
00100000
01000000
00010000
,
00001000
00000000
00000100
00000000
00000010
00000000
00000001
00000100
,
00001000
00000000
00010000
00010000
00000000
01001000
00000000
00010020
,
00000000
00000000
00001030
00000000
00000100
00000000
00000100
00001000
,
00010000
00001000
00100000
00010000
,
01000000
10000000
01000000
00100000
,
10000000
00100000
00000000
01000000
00010000
00000000
00010000
00001000
,
00000000
00010000
00001000
00000000
00000100
00000001
00000010
00000000
,
00000012
00000100
00001003
00001100
,
00000120
00001000
00010030
00011000
,
00201000
00010000
01300000
11000000
,
20000000
30200000
00320000
00032000
,
00013000
00010100
00011000
00010010
,
00001010
00000110
00000101
00001001
,
00000000
00000000
00000100
00000000
00000000
00000100
00000000
00000000
00000100
00000000
00000000
00000100
00000000
00000000
00001001
00000000
,
00000000
00000000
00000000
00000000
;

//---------------dance-double - ----------------
#NOTES:
     dance-double:
     :
     Hard:
     12:
     :
00000000
00000000
00000000
00000000
,
00000000
00000000
00000000
00000000
,
00000000
00000000
00000000
00000000
,
00000000
00000000
00000000
00000000
,
00000000
00000000
00000000
00000000
,
00000000
00000000
00000000
00000000
,
00001010
00000000
00000001
00000100
00000010
00001000
00000100
00000000
,
00001010
00000000
00000100
00001000
00010000
01000000
00100000
00000000
,
00110000
00000000
00010000
01000000
00010000
10000000
00100000
00010000
,
00002000
00000000
00020000
00033000
,
00001000
00000000
00010000
00000100
00010000
00000000
00010000
00001000
,
00000100
00000010
00010010
00011000
,
00010000
00000000
00001000
01000000
00001000
00000000
00001000
00010000
,
01000000
00100000
00101000
00011000
,
00000100
00000000
00000010
00000001
00000100
00000000
00000010
00000000
,
00000110
00000000
00000010
00000001
00000100
00000010
00000100
00000000
,
00001000
00000000
00010000
00000100
00001000
00000000
00000100
00000000
,
00000010
00000001
00000100
00000010
00001000
00000100
00010000
00000000
,
00001000
00000000
00100000
00001000
00100000
00000000
00010000
00001000
,
00100000
00001000
01100000
00101000
,
00010000
00000000
00000010
00010000
00000010
00000000
00001000
00010000
,
00000010
00010000
00000110
00010010
,
00001000
00000000
00000001
00000100
00001000
00000000
00000100
00000000
,
00000110
00000000
00000100
00000010
00001000
00000100
00010000
00000000
,
00001000
00000000
00010000
01000000
10000000
00000000
00100000
00000000
,
10010000
00000000
10000000
01000000
00100000
00010000
00001000
00000000
,
00000100
00000000
00000000
00000010
00000000
00000000
00000001
00000000
00000100
00000000
00000001
00000000
00000010
00000000
00001000
00000000
,
00000010
00000000
00000000
00000001
00000000
00000000
00000100
00000000
00001000
00000000
00000100
00000000
00000001
00000000
00000010
00000000
,
00000001
00000000
00000000
00000100
00000000
00000000
00001000
00000000
00010000
00000000
00000000
00100000
00000000
00000000
01000000
00000000
,
00020000
00000000
01000000
00000000
10000000
00000000
00130000
00001000
,
00011000
00000000
01000000
00000000
10000000
00000000
00100000
10000000
,
01000000
10000000
00100000
00010000
00100000
01000000
00001000
00010000
,
01000000
10000000
00100000
10000000
01000000
00010000
00001000
00000010
,
00000200
00000001
00000010
00001300
,
00000010
00000000
00000000
00001000
00000000
00000000
00010000
00000000
00100000
00000000
00010000
00000000
00001000
00000000
00000010
00000000
,
00001000
00000000
00000000
00010000
00000000
00000000
00100000
00000000
10000000
00000000
00100000
00000000
00010000
00000000
00001000
00000000
,
00010000
00000000
00000000
00100000
00000000
00000000
10000000
00000000
01000000
00000000
10000000
00000000
00100000
00000000
00010000
00000000
,
00001000
00000000
00000000
00000010
00000000
00000000
00000001
00000000
00001000
00000000
00000000
00000000
00001001
00000000
00000000
00000000
,
00001000
00000100
00000001
00000100
00000010
00001000
00010000
00000100
,
00010000
01000000
10000000
01000000
00100000
00001000
00010000
00001000
,
00000100
00000000
00000000
00000001
00000000
00000000
00000100
00000000
00000000
00001000
00000000
00000000
00100000
00000000
00000000
20020000
,
00000000
00000000
00000000
30030000
,
01100000
00000000
00010000
00100000
01000000
10000000
01000000
00100000
,
00000000
00100000
00010000
00001000
00010000
00100000
00001000
00000000
,
00101000
00000000
00010000
00010000
00000000
00010100
00000000
00002020
,
00000000
00003030
00000001
00000100
00000010
00001000
00000010
00000000
,
00000110
00000000
00000001
00000100
00000010
00001000
00000100
00000010
,
00000000
00000010
00000100
00010000
00001000
00000100
00001000
00000000
,
00010000
00001000
01000000
00010000
00100000
01000000
10000000
00100000
,
00000000
00100000
00010000
00000000
00001000
00000100
00000010
00000000
,
00000110
00000000
00001000
00000010
00000001
00000010
00000100
00000010
,
00000000
00000010
00001000
00010000
00001000
00000010
00010000
00000000
,
00010010
00000000
00001000
00001000
00000000
01001000
00000000
00220000
,
00000000
00330000
10000000
01000000
00010000
01000000
10000000
00000000
,
10010000
00000000
10000000
00100000
00010000
00100000
01000000
00010000
,
00000000
00010000
00100000
01000000
00100000
00010000
00000000
01000000
,
00001000
00010000
00000100
00001000
00000010
00000100
00000001
00000010
,
00000000
00000010
00000100
00000000
00001000
00000010
00000001
00000000
,
00000010
00000000
00000000
00001000
00000000
00000000
00000001
00000000
00000100
00000000
00001000
00000000
00010000
00000000
00001000
00000000
,
00100000
00000000
00000000
00010000
00000000
00000000
00100000
00000000
01000000
00000000
10000000
00000000
01000000
00000000
00100000
00000000
,
00001000
00000000
00000000
00010000
00000000
00000000
01000000
00000000
10000000
00000000
00100000
00000000
01000000
00000000
00010000
00000000
,
01010000
00101000
00010100
00001010
,
00000010
00000100
00000001
00001000
00000100
00001000
00000001
00000100
,
00001000
00010000
00001000
00100000
00010000
10000000
10010000
00000000
,
00020000
00000000
01000000
00000000
00000000
10000000
00000000
00000000
00100000
00000000
00000000
00031000
00000000
00000000
00011000
00000000
,
00000000
00000000
00000000
00000000
;

//---------------dance-double - ----------------
#NOTES:
     dance-double:
     :
     Challenge:
     13:
     :
00000000
00000000
00000000
00000000
,
00000000
00000000
00000000
00000000
,
00000000
00000000
00000000
00000000
,
00000000
00000000
00000000
00000000
,
00000000
00000000
00000000
00000000
,
00000000
00000000
00000000
00000000
,
00001000
00000000
00010000
00001000
00000000
00100000
00000000
00000000
,
00001000
00000000
00010000
00001000
00000000
00000010
00000000
00000000
,
00010000
00000000
00001000
00010000
00000000
00001000
00000000
00000000
,
00022000
00000000
00000000
00033000
,
MMMMMMMM
00000000
01000000
00010000
00000000
01000000
00000000
00100000
,
00000000
00100000
10000000
00000000
01000000
00000000
00100000
00000000
,
00100000
01000000
10000000
00100000
00000000
01000000
00000000
00100000
,
00000000
00100000
10000000
00000000
01000000
00000000
00010000
00000000
,
MMMMMMMM
00000000
00100000
00010000
00000000
00001000
00000000
00011000
,
00000000
MMMMMMMM
00000000
00000010
00000000
00000010
00000100
00000000
,
00000001
00000000
00000001
00000010
00000000
00000010
00000001
00000100
,
00000010
00001000
00000001
00000100
00000010
00000100
00001000
00000000
,
MMMMMMMM
00000000
00100000
00010000
00000000
00100000
00000000
00010000
,
00000000
00010000
10000000
00000000
01000000
00000000
10000000
00000000
,
00100000
01000000
00010000
00100000
00000000
01000000
00000000
10000000
,
00000000
10000000
00100000
00000000
01000000
00000000
00010000
00000000
,
MMMMMMMM
00000000
00000010
00010000
00000000
00011000
00000000
00000100
,
00000000
MMMMMMMM
00000000
00000001
00000000
00000001
00000100
00000000
,
00001010
00000000
MMMMMMMM
00101000
00000000
MMMMMMMM
01010000
00000000
,
10100000
10000000
00010000
MMMMMMMM
,
00100000
00000000
00000000
00010000
00000000
00000000
00002000
00000000
00000000
00000000
00013000
00000000
00000100
00000000
MMMMMMMM
00000000
,
00000010
00000000
00000000
00000001
00000000
00000000
00000200
00000000
00000000
00000000
00000310
00000000
00001000
00000000
00000001
00000000
,
00000100
00000000
00000000
00000100
00000000
00000000
00000010
00000000
00001000
00000000
00000000
00001000
00000000
00000000
00000100
00000000
,
00002000
00000000
00000000
00003000
MMMMMMMM
00000000
00000000
00001000
,
00020000
00000000
00000000
00000000
00030000
00000000
00001000
00100000
00001000
00000000
00000000
00000000
MMMMMMMM
00000000
00010000
00000000
,
10000000
01000000
00100000
01000000
10000000
00010000
00100000
MMMMMMMM
,
00100000
00010000
00100000
00001000
00010000
00001000
00000100
00000010
,
00002000
00000000
00003000
MMMMMMMM
,
00000010
00000000
00000000
00000001
00000000
00000000
00002000
00000000
00000000
00000000
00003001
00000000
00000100
00000000
MMMMMMMM
00000000
,
00001000
00000000
00000000
00000010
00000000
00000000
00020000
00000000
00000000
00000000
00031000
00000000
00010000
00000000
MMMMMMMM
00000000
,
00100000
00000000
00000000
00010000
00000000
00000000
20000000
00000000
00000000
00000000
30010000
00000000
01000000
00000000
00100000
00000000
,
10000000
00000000
00000000
00010000
00000000
00000000
10000000
00000000
10010000
00000000
00000000
00000000
MMMMMMMM
00000000
00001000
00000000
,
00010000
00100000
00010000
00001000
00000100
00001000
MMMMMMMM
00001000
,
00000100
00000010
00000100
00000001
00001000
00000010
00000100
MMMMMMMM
,
00000010
00000000
00000000
00000001
00000000
00000000
00000100
00000000
00000000
00001000
00000000
00000000
00010000
00000000
00000000
00022000
,
00000000
00000000
00033000
MMMMMMMM
,
00100000
00000000
00010000
00100000
00000000
01000000
00000000
20000000
,
00000000
00000000
31000000
00000000
00010000
00000000
00000000
00000000
01000000
00000000
00100000
00000000
00010000
00000000
10000000
00010000
,
10000000
00000000
01000000
01100000
00000000
MMMMMMMM
00000000
00000120
,
00000000
00001030
00000100
00000001
00000100
00001000
00000001
00000000
,
00000010
00000000
00001000
00000010
00000000
00000100
00000000
00000002
,
00000000
00000103
00001000
00000000
00000100
00000010
00000000
00000100
,
00000001
00000010
00000001
00000100
00000010
00000001
00000010
00000100
,
MMMMMMMM
00001000
00010000
00000000
00010000
00001000
MMMMMMMM
00000000
,
00100000
00000000
00010000
00100000
00000000
01000000
00000000
20000000
,
00000000
00000000
31000000
00000000
00100000
00000000
00000000
00000000
00100000
00000000
00010000
00000000
10000000
00000000
00100000
01000000
,
00100000
00000000
01000000
01100000
MMMMMMMM
00011000
MMMMMMMM
00000120
,
00000000
00001030
00000100
00000001
00000100
00001000
00000001
00000000
,
00000010
00000000
00001000
00000010
00000000
00000100
00000000
00000002
,
00000000
00000103
00000010
00000000
00000010
00001000
00000000
00000100
,
00000001
00000010
00000001
00000100
00000010
00001000
00000100
00001000
,
MMMMMMMM
00010000
00001000
00100000
00001000
00010000
MMMMMMMM
00000000
,
00010000
01000000
00100000
10000000
01000000
00100000
00010000
MMMMMMMM
,
00000100
00001000
00000100
00000010
00000001
00000100
00001000
MMMMMMMM
,
00010000
01000000
10000000
01000000
00100000
10000000
00010000
00100000
,
00110000
MMMMMMMM
00001010
00000000
00001100
MMMMMMMM
01010000
00000000
,
01000000
00010000
00100000
01000000
10000000
01000000
00010000
MMMMMMMM
,
00001000
00000100
00000010
00000001
00000100
00000010
00000100
00001000
,
MMMMMMMM
00000000
01100000
00000000
00000000
MMMMMMMM
00000000
00000000
00000110
00000000
00000000
MMMMMMMM
00000000
00000000
00011000
00000000
,
00000000
00000000
00000000
00000000
;
