#TITLE:escape;
#ARTIST:U1 & Krystal B;
#BANNER:escape.png;
#BACKGROUND:escape-bg.png;
#CDTITLE:./CDTITLES/DanceDanceRevolution HOTTEST PARTY 2.png;
#MUSIC:escape.ogg;
#SAMPLESTART:51.39;
#SAMPLELENGTH:15;
#DISPLAYBPM:140;
#BPMS:0=140.7,4=140;
#STAGE:2;

//---------------dance-single - ----------------
#NOTES:
     dance-single:
     :
     Beginner:
     3:
     :
0000
0000
0000
0000
,
0000
0000
0000
0000
,
0000
0000
0000
0000
,
0000
0000
0000
0000
,
0000
0000
0000
0000
,
1000
0000
1000
0000
,
0001
0000
0001
0000
,
0010
0000
1000
0000
,
0100
0000
0001
0000
,
1000
0000
1000
0000
,
0001
0000
0001
0000
,
0010
0000
0001
0000
,
0000
0000
0000
0000
,
1000
0000
0001
0000
,
1000
1000
1000
0000
,
0001
0000
1000
0000
,
0001
0001
0001
0000
,
0100
0000
0010
0000
,
0010
0010
0010
0010
,
0000
1000
0000
0001
,
0000
1000
1000
0000
,
0001
0000
1000
0000
,
0001
0001
0001
0000
,
0001
0000
1000
0000
,
0010
0000
0001
0000
,
0100
0000
1000
0000
,
0010
0010
0010
0000
,
0000
0100
0000
0100
,
0100
0100
0100
0000
,
0000
0000
0000
0000
,
1000
0000
1000
0000
,
0001
0000
0001
0000
,
1000
1000
1000
0000
,
0001
0001
0001
0000
,
1000
0000
1000
0000
,
0001
0000
0001
0000
,
1000
1000
1000
0000
,
0001
0001
0001
0000
,
0000
1000
0000
0001
,
0000
1000
0000
0001
,
0001
0001
0001
0000
,
1000
1000
1000
0000
,
1000
0000
0001
0000
,
1000
0000
0001
0000
,
1000
0000
0001
0000
,
0000
0010
0000
0010
,
0010
0000
0000
0000
,
0001
0000
0000
0000
,
0100
0000
0000
0000
,
1000
0000
0000
0010
,
0010
0010
0010
0000
,
0001
0001
0001
0000
,
0100
0100
0100
0000
,
1000
1000
1000
0000
,
1001
0000
0000
0000
,
0000
0000
0000
0000
;

//---------------dance-single - ----------------
#NOTES:
     dance-single:
     :
     Easy:
     5:
     :
0000
0000
0000
0000
,
0000
0000
0000
0000
,
0000
0000
0000
0000
,
0000
0002
0000
0003
,
0000
2000
0000
3000
,
1000
0010
1000
0000
,
0000
0000
0000
0000
,
1000
0100
0001
0100
,
1000
0100
0001
0100
,
0001
0010
0001
0000
,
0000
0000
0000
0000
,
0001
0100
1000
0100
,
0000
0000
0000
0000
,
0010
0001
0100
0000
,
1000
0001
0001
1000
,
1000
0100
1000
0001
,
0001
0000
1000
0000
,
0001
0000
1000
0000
,
1001
0000
0000
0000
,
0010
1000
0100
0001
,
0001
0001
0001
0000
,
0010
1000
0100
0100
,
0001
1000
1000
0001
,
0001
0100
0001
1000
,
1000
0100
0001
0100
,
1000
0100
0001
0100
,
1001
0000
0000
0000
,
0010
1000
0100
0001
,
0001
1000
2000
0000
,
0000
0000
0000
3000
,
1000
0010
1000
0000
,
1000
0010
0100
0001
,
1000
0100
0001
0100
,
1000
0100
0001
0100
,
0001
0010
0001
0000
,
0001
0010
0100
1001
,
0001
0100
1000
0100
,
0001
0100
1000
0100
,
0000
0010
0000
0100
,
0000
0010
0000
0001
,
0000
0100
0000
0100
,
0000
0100
0000
0100
,
0010
0001
0010
1000
,
0010
0001
0010
1000
,
0010
0001
0010
1000
,
0110
0000
1001
0000
,
1000
1000
0001
0001
,
1000
0001
1000
0001
,
0100
1000
0100
0001
,
0100
1000
0100
0001
,
0001
0001
1000
1000
,
0001
1000
0001
1000
,
0100
0001
0100
1000
,
0100
0001
0100
1000
,
1001
0000
0000
0000
,
0000
0000
0000
0000
;

//---------------dance-single - ----------------
#NOTES:
     dance-single:
     :
     Medium:
     8:
     :
0000
0000
0000
0000
,
0000
0000
0000
0000
,
0000
0000
0000
0000
,
0000
0002
0000
0003
,
0000
2000
0000
3000
,
1000
0000
0010
0000
1000
0001
0100
0000
,
1000
0010
0100
0001
,
1000
0100
0001
0100
,
1000
0000
0001
0100
1000
0000
0100
0000
,
0001
0000
0010
0000
0001
1000
0100
0000
,
0001
0010
0100
1000
,
0001
0100
1000
0100
,
0002
0000
1000
1003
,
0010
0001
0100
1100
,
1000
0100
0001
0000
0001
0100
1000
0000
,
1000
0100
1000
0101
,
0001
1000
0100
0000
1000
0001
0100
0000
,
1000
0110
1000
0001
,
1001
0010
1001
0100
,
0000
0010
0000
0001
0000
0100
0000
1000
,
1000
0000
0000
0001
0000
0000
1000
0000
0100
0000
0000
0000
0000
0000
0000
0000
,
0010
1000
0100
0101
,
0001
0100
1000
0000
1000
0100
0001
0000
,
0001
0100
0001
1100
,
1000
0001
0100
0000
0001
1000
0100
0000
,
0001
0110
0001
1000
,
1001
0010
1001
0100
,
0000
0010
0000
1000
0000
0100
0000
0001
,
0001
0000
0000
1000
0000
0000
0001
0000
2000
0000
0000
0000
0000
0000
0000
0000
,
0000
0000
0100
3100
,
1000
0000
0010
0000
1000
0001
0100
0000
,
1010
0110
0101
1001
,
1000
0100
0001
0100
,
1000
0000
0001
0100
1000
0000
0100
0000
,
0001
0000
0010
0000
0001
1000
0100
0000
,
0011
0110
1100
1001
,
0001
0100
1000
0100
,
0001
0000
1000
0100
0001
0000
0100
0000
,
0000
1000
0000
0010
0000
1000
0000
0001
,
0000
1010
0000
0110
0000
0101
0000
1001
,
0000
1000
0000
0100
0000
0001
0000
0100
,
0000
1000
0000
0001
0000
1000
0000
0100
,
0010
0000
0001
0000
0010
0000
1000
0010
,
0010
0000
0001
0000
0010
0000
1000
0010
,
0010
0000
0001
0000
0010
0000
1000
0010
,
0010
1001
0110
1001
,
1000
0000
0101
0000
0001
0000
0100
0001
,
0010
0100
1100
0001
,
1000
1100
0100
0001
,
0001
1000
0110
1001
,
0001
0000
1100
0000
1000
0000
0100
1000
,
0010
0100
0101
1000
,
0001
0101
0100
1000
,
1000
0000
0001
0000
1000
0001
1000
0001
,
0200
0000
0000
0300
,
0000
0000
0000
0000
;

//---------------dance-single - ----------------
#NOTES:
     dance-single:
     :
     Hard:
     10:
     :
0000
0000
0000
0000
,
0000
0000
0000
0000
,
0000
0000
0000
0000
,
0000
0000
2000
0100
0100
0000
3100
0000
,
0100
0000
0002
0100
0100
0000
0103
0000
,
1000
0100
0001
0000
0100
0000
1100
0000
,
1000
0000
0010
0100
0001
0100
0001
0000
,
0101
0000
0100
0000
1000
0100
0001
0000
,
1100
0011
1100
0011
,
0001
0100
1000
0000
0100
0000
0101
0000
,
0001
0000
0010
0100
1000
0100
1000
0000
,
0101
0000
0100
0000
1000
0100
0001
0000
,
0002
0000
0000
0103
,
1000
0100
1000
0000
0001
0100
0001
0000
,
0010
0100
0101
0000
1000
0010
0101
0000
,
1000
0100
1000
0000
0001
0100
0001
0000
,
0110
0000
1001
0000
0010
1000
0100
0000
,
0010
0001
0010
0001
0100
0000
1100
0000
,
1000
0010
0001
0010
1000
0000
1100
0000
,
0001
1100
0000
0101
0000
0011
0000
1010
,
1000
0000
0000
0001
0000
0000
1000
0000
0101
0000
0001
0000
0100
0000
0000
0000
,
0001
0010
0100
1000
0001
0100
0010
0000
,
0010
0100
1100
0000
0001
0010
1100
0000
,
0001
0100
0001
0000
1000
0100
1000
0000
,
0101
0000
0100
0000
1000
0100
0001
0010
,
1000
0010
1000
0100
,
0001
0010
0100
1000
0001
0000
0101
0000
,
1000
0101
0000
1100
0000
1010
0000
0011
,
0001
0000
0000
1000
0000
0000
0001
0000
2000
0000
0000
0000
0000
0000
0000
0000
,
0000
0100
0100
3100
,
1000
0100
0001
0000
0100
0000
1100
0000
,
1000
0000
0010
0100
0001
0100
0001
0000
,
0101
0000
0100
0000
1000
0100
0001
0010
,
1000
0010
1000
0100
,
0001
0100
1000
0000
0100
0000
0101
0000
,
0001
0000
0010
0100
1000
0100
1000
0000
,
1100
0000
0100
0000
0001
0100
1000
0010
,
0001
0010
0001
0100
,
0000
1000
0100
1000
0000
0010
1000
0010
,
0000
0001
0010
0001
0000
0100
0001
0100
,
0000
0101
0000
0100
0000
1000
0100
0001
,
0010
1000
0000
0010
0000
1000
0000
0100
,
1000
0010
0100
0001
1000
0001
0100
0001
,
1000
0010
0100
0001
1000
0001
0100
0001
,
1000
0010
0100
0001
1000
0001
0100
0001
,
0011
1001
0110
1001
,
0010
0001
0100
0001
1000
0100
1100
0000
,
1001
0000
0010
0100
0001
0010
0100
1000
,
1100
0000
0100
0000
0001
0100
1000
0010
,
0001
0010
0001
0100
,
0010
1000
0100
1000
0001
0100
0101
0000
,
1001
0000
0010
0100
1000
0010
0100
0001
,
0101
0000
0100
0000
1000
0100
0001
0010
,
1000
0010
1000
0100
,
2200
0000
0000
3300
,
0000
0000
0000
0000
;

//---------------dance-single - ----------------
#NOTES:
     dance-single:
     :
     Challenge:
     13:
     :
0000
0000
0000
0000
,
0000
0000
0000
0000
,
0000
0000
0000
0000
,
0000
0000
0100
0002
0010
0000
0100
0000
,
0013
0000
0100
2000
0010
0000
0100
0000
,
3001
0000
MMMM
0000
1010
0000
0100
0000
0001
0000
0010
0001
0000
0100
0001
0000
,
0100
0000
0000
0000
0011
0000
0100
0000
1000
0000
0010
1000
0000
1000
0100
0000
,
0010
0000
0000
0000
0101
0000
0010
0000
1000
0000
0010
1000
0000
0100
1000
0000
,
0100
0000
0000
0000
0011
0000
0001
0000
0100
0000
0010
1000
0000
0001
0100
0000
,
0001
0000
0010
0000
0100
0000
0010
0000
0001
0000
1000
0100
0000
1000
0010
0000
,
0100
0000
0001
0000
0010
0000
0001
0000
0100
0000
0010
0100
0000
0100
0001
0000
,
1001
0000
MMMM
0000
0010
0000
0100
0000
0001
0000
0010
0001
0000
1000
0100
0000
,
0020
0000
0000
0000
0000
0030
MMMM
0000
,
0001
0010
0001
0100
1000
0100
0010
1000
,
0001
0010
0110
MMMM
0001
0100
1010
MMMM
,
1000
0010
1000
0100
0001
0100
0010
0001
,
1000
0100
1001
MMMM
0100
1000
0011
MMMM
,
0100
1000
0100
1000
0010
0100
1010
0100
,
0001
0100
0010
1000
0001
0010
0011
0100
,
MMMM
0011
MMMM
1010
MMMM
1100
MMMM
0101
,
1001
0000
0000
0010
0000
0000
0100
0000
1001
0000
1000
0000
0001
0000
0000
0000
,
1000
0100
0010
0001
1000
0010
0100
0001
,
0100
0010
0011
MMMM
1000
0100
0011
MMMM
,
1000
0010
0001
0100
0001
0010
0100
1000
,
0100
0001
0101
MMMM
0001
0010
1100
MMMM
,
0010
0100
1000
0010
1000
0100
0010
0001
,
1000
0010
0100
0001
1000
0001
1001
MMMM
,
0011
0001
0010
0010
1000
1000
0010
0010
,
1001
0000
0000
0010
0000
0000
1000
0000
0200
0000
0000
0000
0000
0000
0000
0000
,
0000
0010
0310
MMMM
,
1001
0000
0000
0000
1100
0000
0010
0000
0001
0000
0100
0001
0000
0010
0001
0000
,
0010
0000
0000
0000
0101
0000
0010
0000
1000
0000
0100
1000
0000
1000
0010
0000
,
0100
0000
0000
0000
0011
0000
0100
0000
1000
0000
0100
1000
0000
0010
1000
0000
,
1010
0000
0000
0000
0101
0000
0001
0000
0010
0000
0100
1000
0000
0001
0010
0000
,
0011
0000
MMMM
0000
0010
0000
0100
0000
0001
0000
1000
0010
0000
1000
0100
0000
,
1100
0000
MMMM
0000
0100
0000
0001
0000
0010
0000
0100
0010
0000
0010
0001
0000
,
1001
0000
MMMM
0000
0100
0000
0010
0000
0001
0000
0100
0001
0000
1000
0010
0000
,
1010
0000
MMMM
0000
0101
0000
0001
0000
0010
0000
0100
1000
0000
0001
0010
0000
,
0000
0110
0100
1000
MMMM
1010
1000
0101
,
MMMM
0011
0001
0100
MMMM
0110
1000
1100
,
MMMM
1001
0001
0010
MMMM
0110
0010
0101
,
MMMM
1010
0010
0100
MMMM
1100
0001
0010
,
1001
0100
0001
0010
1000
0100
1000
0010
,
1001
0100
0010
0001
0100
0001
0010
1000
,
1100
0100
0010
0001
0101
0100
0010
1000
,
1100
MMMM
1001
MMMM
0110
MMMM
1001
0100
,
0210
0000
0301
0010
1000
0010
0001
0100
,
2001
0000
3100
0010
0001
0010
0100
1000
,
1020
0000
0031
1000
0100
0001
0100
0010
,
1002
0000
0103
MMMM
2001
0000
3100
MMMM
,
0100
0001
0010
0100
1000
0010
1010
1000
,
1001
0100
0010
0001
0100
0010
0110
MMMM
,
1001
0100
0001
0010
1000
0010
0011
0001
,
0101
0010
1000
0100
0011
0100
1000
MMMM
,
0220
0000
0000
0330
,
0000
0000
0000
0000
;

//---------------dance-double - ----------------
#NOTES:
     dance-double:
     :
     Easy:
     5:
     :
00000000
00000000
00000000
00000000
,
00000000
00000000
00000000
00000000
,
00000000
00000000
00000000
00000000
,
00000000
00020000
00000000
00030000
,
00000000
00002000
00000000
00003000
,
00000010
00001000
00000010
00000000
,
00000000
00000200
00000000
00000300
,
00000001
00001000
00000001
00000100
,
00001000
00001000
00010000
00000000
,
00100000
00010000
00100000
00000000
,
00000000
02000000
00000000
03000000
,
10000000
00010000
10000000
01000000
,
00000000
00000000
00000000
00000000
,
00010000
00001000
00010000
00000000
,
00000100
00001000
00001000
00000001
,
00000001
00000100
00000010
00001000
,
00001000
00000000
00010000
00000000
,
00001000
00000000
00100000
00000000
,
01100000
00000000
00000000
00000000
,
10000000
01000000
00010000
00010000
,
00001000
00001000
00001000
00000000
,
00000010
00000100
00001000
00001000
,
00000001
00000100
00000100
00000000
,
00000010
00000100
00001000
00010000
,
00010000
00001000
00010000
00000000
,
00001000
00010000
01000000
00010000
,
00011000
00000000
00000000
00000000
,
00100000
10000000
01000000
10000000
,
00100000
01000000
00020000
00000000
,
00000000
00000000
00000000
00030000
,
00001000
00010000
00001000
00000000
,
00001000
00000010
00000100
00000001
,
00001000
00000010
00000001
00000000
,
00000001
00000010
00001000
00010000
,
00001000
00010000
00001000
00000000
,
00100000
00010000
01000000
00100000
,
00100000
10000000
01000000
00010000
,
01000000
10000000
01000000
00010000
,
00000000
00001000
00000000
00000100
,
00000000
00000001
00000000
00000010
,
00000000
00001000
00000000
00010000
,
00000000
01000000
00000000
10000000
,
00100000
00010000
00100000
10000000
,
00100000
00010000
00001000
00010000
,
00001000
00000010
00000001
00000010
,
00000110
00000000
00001001
00000000
,
00000001
00000001
00001000
00001000
,
00000001
00000010
00000100
00000000
,
00001000
00000100
00010000
00000100
,
00010000
00001000
00010000
00001000
,
00100000
00100000
00010000
00010000
,
00100000
00010000
10000000
00010000
,
10000000
01000000
00010000
01000000
,
10000000
01000000
00010000
00001000
,
00011000
00000000
00000000
00000000
,
00000000
00000000
00000000
00000000
;

//---------------dance-double - ----------------
#NOTES:
     dance-double:
     :
     Medium:
     8:
     :
00000000
00000000
00000000
00000000
,
00000000
00000000
00000000
00000000
,
00000000
00000000
00000000
00000000
,
00000000
00002000
00000000
00003000
,
00000000
00020000
00000000
00030000
,
00100000
00000000
00010000
00000000
10000000
00010000
01000000
00000000
,
10000000
01000000
00010000
00100000
,
00001000
01000000
00001000
00010000
,
00000100
00000000
00000010
00000001
00001000
00000000
00001000
00000000
,
00000100
00000000
00001000
00000000
00000001
00001000
00000010
00000000
,
00000001
00000010
00001000
00000100
,
00010000
00000010
00010000
00001000
,
00020000
00000000
00001000
00031000
,
00100000
00010000
01000000
01010000
,
10000000
01000000
00010000
00000000
00010000
01000000
10000000
00000000
,
10000000
01000000
00010000
00110000
,
00001000
00010000
01000000
00000000
01000000
00010000
00001000
00000000
,
00010000
00010100
00001000
00000010
,
00001001
00000100
00001001
00000010
,
00000000
00000001
00000000
00000100
00000000
00001000
00000000
00010000
,
00010000
00000000
00000000
00001000
00000000
00000000
00010000
00000000
01000000
00000000
00000000
00000000
00000000
00000000
00000000
00000000
,
00100000
00010000
01000000
01010000
,
00010000
00100000
10000000
00000000
10000000
00100000
00010000
00000000
,
00001000
00010000
00000100
00001100
,
00010000
00001000
00000100
00000000
00000100
00001000
00010000
00000000
,
00001000
00011000
00000010
00000100
,
00000110
00000001
00000110
00001000
,
00010000
00010000
00000000
00001000
00000000
00010000
00000000
00100000
,
00100000
00000000
00000000
10000000
00000000
00000000
00010000
00000000
20000000
00000000
00000000
00000000
00000000
00000000
00000000
00000000
,
00000000
00000000
01000000
31000000
,
10000000
00000000
00100000
00000000
10000000
00010000
01000000
00000000
,
01010000
00110000
01000000
00011000
,
00010000
00001000
00000100
00000001
,
00001000
00000000
00000001
00000100
00001000
00000000
00000100
00000000
,
00000001
00000000
00000010
00000000
00000001
00001000
00000100
00000000
,
00001100
00001010
00000100
00011000
,
00001000
00010000
01000000
10000000
,
00010000
00000000
10000000
01000000
00010000
00000000
01000000
00000000
,
00000000
10010000
00000000
00100000
00000000
00010000
00000000
00001000
,
00000000
00011000
00000000
00000010
00000000
00000001
00000000
00001001
,
00000000
00000100
00000000
00001000
00000000
00010000
00000000
00011000
,
00000000
00100000
00000000
10000000
00000000
10010000
00000000
01000000
,
10000000
00000000
00100000
00000000
00010000
00000000
00100000
10000000
,
10000000
00000000
00100000
00000000
00010000
00000000
00001000
00010000
,
00010000
00000000
00001000
00000000
00000010
00000000
00000001
00000010
,
00000010
00000110
00001001
00000110
,
00001000
00000000
00010100
00000000
00010000
00000000
00001000
00010000
,
00100000
01000000
01100000
10000000
,
01000000
11000000
00100000
00010000
,
00100000
00001000
00110000
00011000
,
00010000
00000000
01001000
00000000
00001000
00000000
00010000
00001000
,
00000010
00000100
00000110
00000001
,
00000100
00000101
00000010
00001000
,
00000010
00000000
00010000
00000000
00001000
00010000
00001000
00010000
,
02000000
00000000
00000000
03000000
,
00000000
00000000
00000000
00000000
;

//---------------dance-double - ----------------
#NOTES:
     dance-double:
     :
     Hard:
     10:
     :
00000000
00000000
00000000
00000000
,
00000000
00000000
00000000
00000000
,
00000000
00000000
00000000
00000000
,
00000000
00000000
00200000
01000000
01000000
00000000
00310000
00000000
,
00001000
00000000
00000020
00000100
00000100
00000000
00001030
00000000
,
00000001
00000100
00001000
00000000
00010000
00000000
00011000
00000000
,
00000100
00000000
00000010
00000001
00000100
00000001
00000100
00000000
,
00001010
00000000
00000100
00000000
00001000
00010000
01000000
00000000
,
11000000
00110000
11000000
00110000
,
10000000
01000000
00010000
00000000
00001000
00000000
00011000
00000000
,
00000010
00000000
00000100
00000001
00000010
00000001
00000010
00000000
,
00001100
00000000
00000010
00000000
00001000
00010000
00100000
00000000
,
02000000
00000000
00000000
03010000
,
10000000
00100000
10000000
00000000
00100000
00010000
00100000
00000000
,
00010000
00001000
00010000
00000000
00010000
00001000
00000100
00000000
,
00000001
00000010
00000001
00000000
00000010
00001000
00000010
00000000
,
00001010
00000000
00011000
00000000
00010000
01000000
10000000
00000000
,
00100000
10000000
00100000
10000000
01000000
00000000
11000000
00000000
,
00100000
10000000
01000000
00010000
00001000
00000000
00011000
00000000
,
00010000
00010100
00000000
00001010
00000000
00000101
00000000
00000011
,
00000001
00000000
00000000
00000100
00000000
00000000
00000010
00000000
00001010
00000000
00000100
00000000
00001000
00000000
00000000
00000000
,
00010000
00001000
01000000
00010000
00100000
01000000
10000000
00000000
,
00100000
01000000
01010000
00000000
00100000
01000000
11000000
00000000
,
01000000
10000000
00010000
01000000
00010000
00100000
00001000
00000000
,
00011000
00000000
00000010
00000000
00000001
00000100
00001000
00000000
,
00000100
00000001
00001000
00000010
,
00000001
00000010
00000100
00001000
00010000
00000000
00011000
00000000
,
00001000
00101000
00000000
01010000
00000000
10100000
00000000
11000000
,
10000000
00000000
00000000
01000000
00000000
00000000
00010000
00000000
00002000
00000000
00000000
00000000
00000000
00000000
00000000
00000000
,
00000000
00000100
00000100
00003100
,
00000001
00000100
00001000
00000100
00000010
00000000
00000101
00000000
,
00001000
00000000
00010000
00001000
00100000
00001000
00010000
00000000
,
01001000
00000000
00100000
00000000
00010000
00100000
10000000
01000000
,
00100000
10000000
01000000
00010000
,
10000000
00100000
00010000
00100000
01000000
00000000
10100000
00000000
,
00010000
00000000
00001000
00010000
00000100
00010000
00001000
00000000
,
00010010
00000000
00000100
00000000
00001000
00000100
00000001
00000010
,
00000100
00001000
00000010
00000100
,
00000000
00000001
00000100
00000001
00000000
00001000
00000010
00001000
,
00000000
00000100
00010000
00000100
00000000
00010000
00001000
00010000
,
00000000
00011000
00000000
01000000
00000000
10000000
01000000
00100000
,
00010000
10000000
00000000
00100000
00000000
01000000
00000000
00010000
,
10000000
00100000
01000000
00010000
00100000
00001000
00010000
00001000
,
00100000
01000000
00010000
00001000
00010000
00000100
00001000
00000100
,
00000010
00000001
00000100
00000010
00001000
00000001
00000100
00000010
,
00001010
00001100
00011000
01010000
,
00110000
00000000
01000000
10000000
00100000
10000000
01000000
00000000
,
00110000
00000000
00100000
01000000
00010000
01000000
00100000
00010000
,
00110000
00000000
01000000
00000000
00010000
00001000
00000100
00000001
,
00000010
00001000
00000100
00000001
,
00000010
00000000
00000100
00001000
00000100
00010000
00010100
00000000
,
00011000
00000000
00010000
00001000
00010000
01000000
10000000
01000000
,
00100000
00000000
00010000
00000000
10000000
00100000
00010000
00001000
,
00010000
00001000
00000100
00000001
,
00000202
00000000
00000000
00000303
,
00000000
00000000
00000000
00000000
;

//---------------dance-double - ----------------
#NOTES:
     dance-double:
     :
     Challenge:
     14:
     :
00000000
00000000
00000000
00000000
,
00000000
00000000
00000000
00000000
,
00000000
00000000
00000000
00000000
,
00000000
00000000
10000000
02000000
00010000
00000000
10000000
00000000
,
03010000
00000000
00001000
00000200
00000001
00000000
00001000
00000000
,
00000301
00000000
MMMMMMMM
00000000
00000011
00000000
00000100
00000000
00000010
00000000
00000100
00000001
00000000
00000010
00000001
00000000
,
00000100
00000000
00000000
00000000
00001100
00000000
00010000
00000000
00000100
00000000
00001000
00000100
00000000
00010000
00001000
00000000
,
00100000
00000000
00000000
00000000
00011000
00000000
00010000
00000000
00001000
00000000
00100000
00001000
00000000
00010000
00001000
00000000
,
00100000
00000000
00000000
00000000
01100000
00000000
00010000
00000000
01000000
00000000
00010000
00100000
00000000
00010000
01000000
00000000
,
00100000
00000000
10000000
00000000
01000000
00000000
10000000
00000000
00100000
00000000
10000000
01000000
00000000
00100000
01000000
00000000
,
00100000
00000000
00010000
00000000
00100000
00000000
00001000
00000000
00100000
00000000
00010000
00100000
00000000
00001000
00010000
00000000
,
00000100
00000000
00010000
00000000
00000100
00000000
00001000
00000000
00000100
00000000
00010000
00000100
00000000
00001000
00000100
00000000
,
00000020
00000000
00000000
00000000
00000000
00000030
MMMMMMMM
00000000
,
00000001
00000100
00000010
00001000
00000010
00010000
00001000
00100000
,
00010000
01000000
01010000
MMMMMMMM
00001000
00010000
00011000
MMMMMMMM
,
00100000
01000000
10000000
00010000
00100000
00001000
00010000
00000010
,
00000100
00001000
00011000
MMMMMMMM
00001000
00000100
00000110
MMMMMMMM
,
00000001
00000010
00001000
00000100
00010000
00001000
00000100
00000001
,
00000010
00000100
00010000
00001000
00100000
01000000
01100000
MMMMMMMM
,
00010000
11000000
MMMMMMMM
00101000
MMMMMMMM
00010100
MMMMMMMM
00000011
,
00001001
00000000
00000000
00000010
00000000
00000000
00001000
00000000
00011000
00000000
00100000
00000000
00010000
00000000
00000000
00000000
,
10000000
00100000
01000000
00010000
01000000
00001000
00010000
00000100
,
00000010
00000001
00000101
MMMMMMMM
00001000
00010000
00011000
MMMMMMMM
,
00000100
00000010
00000001
00001000
00000100
00010000
00001000
01000000
,
00100000
00010000
00011000
MMMMMMMM
00010000
00100000
01100000
MMMMMMMM
,
10000000
01000000
00010000
00100000
00001000
00010000
00100000
10000000
,
01000000
00100000
00001000
00010000
00000100
00000010
00000110
MMMMMMMM
,
00000101
00000001
00000100
00001000
00011000
00010000
00100000
10000000
,
10010000
00000000
00000000
00100000
00000000
00000000
00010000
00000000
00002000
00000000
00000000
00000000
00000000
00000000
00000000
00000000
,
00000000
00000010
00003010
MMMMMMMM
,
00001001
00000000
00000000
00000000
00000001
00000000
00000010
00000000
00000100
00000000
00000010
00000001
00000000
00000100
00000001
00000000
,
00001000
00000000
00000000
00000000
00001010
00000000
00010000
00000000
00000010
00000000
00001000
00000010
00000000
00010000
00001000
00000000
,
01000000
00000000
00000000
00000000
00011000
00000000
01000000
00000000
00001000
00000000
00010000
01000000
00000000
00010000
00001000
00000000
,
00010000
00000000
00000000
00000000
01100000
00000000
00010000
00000000
00100000
00000000
00010000
01000000
00000000
00010000
00100000
00000000
,
00110000
00000000
MMMMMMMM
00000000
10000000
00000000
01000000
00000000
00100000
00000000
01000000
10000000
00000000
00100000
10000000
00000000
,
01000000
00000000
MMMMMMMM
00000000
01010000
00000000
00001000
00000000
01000000
00000000
00010000
01000000
00000000
00001000
00010000
00000000
,
00001000
00000000
MMMMMMMM
00000000
00011000
00000000
00000010
00000000
00010000
00000000
00001000
00010000
00000000
00000010
00010000
00000000
,
00011000
00000000
MMMMMMMM
00000000
01001000
00000000
00010000
00000000
00100000
00000000
01000000
10000000
00000000
00010000
00100000
00000000
,
00000000
10100000
10000000
01000000
MMMMMMMM
00110000
00100000
01001000
,
MMMMMMMM
00110000
00010000
00001000
MMMMMMMM
00001100
00000100
00011000
,
MMMMMMMM
00001010
00001000
00000100
MMMMMMMM
00000011
00000001
00000110
,
MMMMMMMM
00001001
00000001
00000100
MMMMMMMM
00000110
00000010
00001000
,
00010000
01000000
10000000
00100000
10000000
00010000
01010000
00100000
,
00010000
00001000
00100000
00010000
00001000
00000100
00001100
MMMMMMMM
,
00000011
00000100
00001000
00000010
00000100
00001000
00011000
00000000
,
00011000
MMMMMMMM
01100000
MMMMMMMM
11000000
MMMMMMMM
10010000
01000000
,
00210000
00000000
01300000
10000000
00010000
00100000
00001000
00000100
,
00000002
00000000
00000013
00000100
00000010
00000001
00001000
00000010
,
00001200
00000000
00000310
00000001
00001000
00000100
00010000
00100000
,
20000000
00000000
31000000
00100000
01000000
10000000
10010000
MMMMMMMM
,
00100000
10000000
01000000
00100000
00001000
00010000
00011000
00001000
,
00010100
00001000
00000100
00000010
00000001
00000100
00000101
MMMMMMMM
,
00000110
00000001
00000100
00000010
00010000
00001000
00011000
00010000
,
01001000
00010000
01000000
00100000
10000000
01000000
11000000
MMMMMMMM
,
20020000
00000000
00000000
30030000
,
00000000
00000000
00000000
00000000
;
