#TITLE:ずっとみつめていて (Ryu☆Remix);
#ARTIST:DJ UTO vs. Starving Trancer feat. Mayumi Morinaga;
#TITLETRANSLIT:Zutto Mitsu Meteite (Ryu☆Remix);
#BANNER:Zutto Mitsu Meteite (Ryu Remix).png;
#BACKGROUND:Zutto Mitsu Meteite (Ryu Remix)-bg.png;
#CDTITLE:./CDTitles/DanceDanceRevolution 2013.png;
#MUSIC:Zutto Mitsu Meteite (Ryu Remix).ogg;
#SAMPLESTART:59.24;
#SAMPLELENGTH:15;
#BPMS:0=160;
#STAGE:2;

//---------------dance-single - ----------------
#NOTES:
     dance-single:
     :
     Beginner:
     2:
     :
0000
0000
0000
0000
,
0000
0000
0000
0000
,
0000
0000
0000
0000
,
0000
0000
0000
0000
,
0000
0000
0000
0000
,
0000
0000
0000
0000
,
0001
0000
0000
0000
,
1000
0000
0000
0000
,
0001
0000
0000
0000
,
1000
0000
0000
0000
,
0001
0000
0000
0000
,
1000
0000
0000
0000
,
0010
0000
0000
0000
,
0010
0000
0000
0000
,
0010
0000
0000
0000
,
0010
0000
0000
0000
,
0100
0000
0000
0000
,
0100
0000
0100
0000
,
0001
0000
0000
0000
,
0001
0000
0001
0000
,
1000
0000
0000
0000
,
1000
0000
1000
0000
,
0010
0000
0000
0000
,
0010
0000
0010
0000
,
0010
0000
0000
0000
,
1000
0000
0000
0000
,
0001
0000
0000
0000
,
0100
0000
0000
0000
,
0001
0000
0000
0000
,
0010
0000
0000
0000
,
0100
0000
0000
0000
,
1000
0000
1000
0000
,
1000
0000
0000
0000
,
0010
0000
0000
0000
,
0100
0000
0000
0000
,
0001
0000
0001
0000
,
0001
0000
0000
0000
,
0001
0000
0000
0000
,
1000
0000
0000
0000
,
1000
0000
0000
0000
,
0010
0000
0000
0000
,
0010
0000
0000
0000
,
0100
0000
0000
0000
,
0100
0000
0000
0000
,
0010
0000
0000
0000
,
0010
0000
0000
0000
,
0100
0000
0000
0000
,
0100
0000
0000
0000
,
0001
0000
0000
0000
,
0001
0000
0000
0000
,
1000
0000
0000
0000
,
1000
0000
0000
0000
,
0010
0000
0000
0000
,
0100
0000
0000
0000
,
0010
0000
0000
0000
,
0100
0000
0000
0000
,
1000
0000
0000
0000
,
0001
0000
0000
0000
,
0100
0000
0000
0000
,
0000
0000
0000
0000
;

//---------------dance-single - ----------------
#NOTES:
     dance-single:
     :
     Easy:
     7:
     :
0000
0000
0000
0000
,
0000
0000
0000
0000
,
0000
0000
0000
0000
,
0000
0000
0000
0000
,
0000
0000
0000
0000
,
0000
0000
0000
0000
,
0002
0000
0000
0000
,
0023
0000
0000
0000
,
0230
0000
0000
0000
,
2300
0000
0000
0000
,
3001
0010
1000
0100
,
0010
1000
0100
0001
,
0010
0100
1000
0001
,
0100
0010
1000
0001
,
0100
0001
0010
0100
,
1000
0010
0100
1001
,
0001
0010
0100
1000
,
0010
0100
1001
0010
,
1000
1000
0001
0001
,
0010
0100
1000
0110
,
0001
0100
0010
1000
,
0100
0010
0100
1001
,
0010
0010
0100
0100
,
0002
0003
2000
3000
,
0110
0001
0010
0100
,
0110
1000
0010
0100
,
1001
0100
0001
0010
,
1001
0100
1000
0010
,
0001
0001
0001
0010
,
0100
0100
0100
1000
,
0010
0010
0010
0100
,
0001
0100
1000
0100
,
0001
0010
0010
0010
,
0100
1000
1000
1000
,
0100
0010
0010
0010
,
0002
0003
2000
3000
,
1000
1000
0010
0010
,
0100
0100
0001
0001
,
0010
0100
1000
0001
,
2002
0000
0000
3003
,
0001
0100
0010
0110
,
1000
0100
0010
0110
,
0001
0100
1000
0110
,
1000
0100
0001
0110
,
0001
0001
0010
0001
,
1000
1000
0100
1000
,
0110
0000
1001
0000
,
0110
1001
0110
1001
,
0010
0010
0100
0100
,
0001
0001
1000
1000
,
0010
0000
1000
0000
,
0001
0000
0100
0100
,
0001
0010
1000
0010
,
0001
1000
0100
0001
,
0100
1000
0010
0001
,
0100
1000
0010
0001
,
0100
0001
0010
1000
,
0100
0001
0010
0100
,
1001
0000
0000
0000
,
0000
0000
0000
0000
;

//---------------dance-single - ----------------
#NOTES:
     dance-single:
     :
     Medium:
     9:
     :
0000
0000
0000
0000
,
0000
0000
0000
0000
,
0000
0000
0000
0000
,
0000
0000
0000
0000
,
0000
0000
0000
0000
,
0000
0000
0000
0000
,
0012
1000
0100
0013
,
2010
0001
0100
3010
,
0001
0010
0100
0000
1000
0010
0100
0000
,
0001
0010
0100
0000
1000
0010
0100
0000
,
0001
1000
0010
0000
1000
0001
0010
0000
,
0001
1000
0100
0000
1000
0001
0100
0000
,
0010
1000
0010
1010
,
0100
0001
0100
0101
,
0010
0001
0010
0011
,
0100
1000
0100
1001
,
1000
0100
0010
0000
0001
0000
0100
0000
,
0001
0100
0010
0000
1000
0000
0100
0000
,
1000
0010
0100
0010
2000
0000
3000
0000
,
0001
0100
0010
0100
0002
0000
0003
0000
,
0001
0010
0100
0000
1000
0000
0010
0000
,
1000
0010
0100
0000
0001
0000
0010
0000
,
0001
0100
0010
0100
0002
0000
0003
1000
,
0010
0000
0000
0100
0001
0000
0000
0010
,
0100
1000
0010
1100
,
0010
0100
0001
0101
,
0010
0100
0010
0110
,
1000
0001
1000
1001
,
0001
0100
1000
0000
0100
0000
0010
0000
,
1000
0100
0001
0000
0100
0000
0010
0000
,
0001
0100
1000
0100
0002
0000
0003
0000
,
1000
0100
0001
0100
2000
0000
3000
0000
,
1000
0010
0001
0000
0010
0000
0100
0000
,
0001
0010
1000
0000
0010
0000
0100
0000
,
1000
0010
0001
0010
2000
0000
3000
0001
,
0010
0000
0000
1000
0010
0000
0000
0100
,
0010
0010
1000
1000
,
0001
0001
0100
0100
,
0010
1000
0001
0100
,
2002
0000
0000
3003
,
0001
0000
0010
0000
0100
1000
0100
0000
,
1000
0000
0010
0000
0100
0001
0100
0000
,
0001
0000
1000
0000
0010
0100
0010
0000
,
0100
0000
0010
0000
1000
0001
1000
0000
,
0001
0010
0100
0000
1000
0010
0100
0000
,
0001
0100
0010
0000
1000
0100
0010
0000
,
0100
1000
0010
0001
,
0100
1000
0010
0001
,
1000
0000
0100
0000
1000
0100
1000
0000
,
0001
0000
0100
0000
0001
0100
0001
0000
,
0010
0000
0000
0010
0000
0000
0010
0000
0100
0000
0000
0100
0000
0000
0100
0000
,
1000
0000
0000
0000
0010
0010
0010
0000
,
0010
0000
1000
0000
1000
0100
0001
0000
,
0010
0000
0001
0000
0001
0100
1000
0000
,
0010
1000
0001
0000
0010
0001
1000
0000
,
0100
1000
0001
0000
0100
0001
1000
0000
,
0010
1000
0100
0000
0010
0001
0100
0000
,
0010
1000
0100
0000
0010
0001
0100
0000
,
0020
0000
0000
0000
,
0030
0000
0000
0000
,
0000
0000
0000
0000
;

//---------------dance-single - ----------------
#NOTES:
     dance-single:
     :
     Hard:
     12:
     :
0000
0000
0000
0000
,
0000
0000
0000
0000
,
0000
0000
0000
0000
,
0000
0000
0000
0000
,
0000
0000
0000
0000
,
0000
0000
0000
0000
,
1000
0010
0100
0001
,
0001
0010
0100
1000
,
0001
0000
0001
2000
0000
0000
0000
0000
,
0000
0000
0000
0000
,
3001
0000
0000
0010
0000
0000
0010
0000
0001
0000
0000
1000
0000
0000
1000
0000
,
0010
0000
0000
0100
0000
0000
0100
0000
0001
0000
0010
0000
0100
0000
0000
0000
,
1000
0000
0100
0010
0000
0000
0100
0000
1000
0000
0100
0010
0000
0000
0001
0000
,
1000
0000
0001
0010
0000
0000
0001
0000
1000
0000
0001
0010
0000
0000
0001
0000
,
1000
0000
0010
0100
0000
0000
0010
0000
1000
0000
0010
0100
0000
0000
0010
0000
,
0100
0000
0000
0100
0000
0000
0100
0000
0001
0000
0000
0010
0000
0000
0100
0000
,
1000
0001
0010
0100
1000
0100
0010
0001
,
0100
0010
1000
0100
1000
0000
1000
0100
,
0010
0001
1000
0100
1000
0000
1000
0100
,
0010
0001
1000
0100
1000
0000
1000
0100
,
0010
0001
0010
0100
1000
0010
0100
0001
,
1000
0100
0010
0100
1000
0000
1000
0010
,
0100
0001
1000
0010
0100
0000
0100
0010
,
2000
0000
3001
0100
0010
0000
0110
0000
,
0001
0000
1000
0100
0000
0000
0100
0000
0010
0000
0001
0100
0000
0000
0100
0000
,
0010
0000
1000
0100
0000
0000
0100
0000
1000
0000
0010
0100
0000
0000
0100
0000
,
0001
0000
0100
0010
0000
0000
1000
0000
0100
0000
0010
0001
0000
0000
1000
0000
,
0001
0000
0010
0100
0000
0000
1000
0000
0002
0000
0000
0000
0000
0000
0003
0000
,
1000
0100
0010
0001
0010
0100
0010
0001
,
1000
0010
0100
0010
1000
0000
1000
0100
,
0010
0001
0010
0100
1000
0000
1000
0100
,
0010
0001
1000
0100
0010
0000
0010
0001
,
1000
0100
0010
0001
0010
0100
1000
0001
,
1000
0010
0100
0010
1000
0000
1000
0100
,
0010
0001
0100
0010
1000
0000
1000
0100
,
0020
0000
0000
0030
0001
0000
0100
0000
2000
0000
0000
3000
0100
0000
0001
0000
,
1000
0100
0010
0100
1000
0100
0010
1000
,
0010
0100
1000
0010
0100
1000
0100
0010
,
1000
0100
1000
0001
0010
0100
1000
0010
,
2002
0000
0000
3003
,
1000
0100
0010
0001
1000
0100
0010
0100
,
0001
0100
1000
0100
0010
0100
1000
0000
,
1000
0001
0100
0001
0010
0100
1000
0100
,
0010
1000
0010
0001
1000
0010
0100
0000
,
0100
0001
1000
0100
0001
0100
1000
0100
,
0010
0001
1000
0010
0001
0010
0100
0010
,
1000
0100
0001
0000
0001
0100
1000
0000
,
1000
0100
0001
0100
1000
0100
0010
0000
,
0001
0010
0100
1000
0010
0100
1000
0100
,
0001
1000
0100
0010
0001
0100
0010
0100
,
1010
0000
0000
0110
0000
0000
0110
0000
0101
0000
0000
0110
0000
0000
1100
0000
,
0001
0010
0100
0000
0100
1000
0001
0010
,
1000
0010
0001
0010
1000
0010
0001
0100
,
0001
1001
0110
0101
,
1000
0100
0010
0001
1000
0100
0010
0001
,
0100
0010
1000
0001
0100
0010
1000
0100
,
0010
0001
0100
0010
1000
0100
0010
0001
,
1000
0100
1000
0010
0000
0010
1000
0100
,
2002
0000
0000
0000
,
3003
0000
0000
0000
,
0000
0000
0000
0000
;

//---------------dance-single - ----------------
#NOTES:
     dance-single:
     :
     Challenge:
     15:
     :
0000
0000
0000
0000
,
0000
0000
0000
0000
,
0000
0000
0000
0000
,
0000
0000
0000
0000
,
0000
0000
0000
0000
,
0000
0000
0000
0000
,
0001
0000
0000
0001
0000
0000
0001
0000
0010
0000
0000
0010
0000
0000
0010
0000
,
0100
0000
0000
0100
0000
0000
0100
0000
1000
0000
0000
1000
0000
0000
1000
0000
,
0010
0000
0000
1000
0000
0000
0001
0000
0100
0000
0000
0010
0000
0000
1000
0000
,
0001
0000
0000
0010
0000
0000
0100
0000
1000
0000
0000
0010
0000
0000
0001
0000
,
0010
0000
0000
1000
0000
0000
0100
0000
0001
0000
0000
0100
0000
0000
0010
0000
,
0001
0000
0000
1000
0000
0000
0010
0000
0100
0001
0100
0010
1000
0100
0010
0000
,
0001
0000
0100
0001
0000
0100
0001
0000
0010
0000
0001
0010
0000
0001
0010
0000
,
0100
0000
0010
0100
0000
0010
0100
0000
1000
0100
1000
0010
0100
0001
0010
0100
,
0010
0000
0001
0010
0000
0001
0010
0000
0100
0000
0010
0100
0000
0100
0010
0000
,
0001
0000
0000
0010
0000
0000
0011
0000
0100
0000
0000
0100
0000
0000
1100
0000
,
0001
0000
0010
0000
1000
0000
0010
0000
0001
0000
0010
0000
0100
1000
0100
0000
,
0010
0000
0001
0000
0010
0000
1000
0000
0010
0000
0100
0000
1000
0100
1000
0000
,
0001
0000
0100
0000
0010
0000
1000
0000
0010
0000
0001
0000
0010
0100
0010
0000
,
0001
0000
0010
0000
1000
0000
0100
0000
1000
0001
0010
0100
1000
0010
0100
0001
,
0010
0000
0001
0000
1000
0000
0010
0000
1000
0000
0001
0000
1000
0010
0100
0000
,
0010
0000
1000
0000
0100
0000
0001
0000
0100
0000
1000
0000
0001
0100
0010
0000
,
0001
0000
0010
0000
0100
0000
1000
0000
0100
0000
0001
0000
0100
0001
0100
0001
,
2000
0000
0000
3001
0100
0000
0010
0000
2000
0000
0000
3001
0010
0000
0100
0000
,
0020
0000
0000
1000
0000
0000
0230
0000
0010
0000
0000
0001
0000
0000
0320
0000
,
1000
0000
0000
0100
0000
0000
2030
0000
0001
0000
0000
0010
0000
0000
3002
0000
,
0100
0000
0000
1000
0000
0000
0023
0000
0001
0000
0000
1000
0000
0000
0032
0000
,
0010
0000
0000
1000
0000
0000
0203
0000
0001
0000
0000
1000
0000
0000
0301
0000
,
0010
0000
0100
0000
1000
0000
0100
0000
0010
0000
0001
0010
0001
0000
1000
0010
,
0100
0000
0001
0000
0010
0000
1000
0000
0010
0000
0001
1000
0100
0000
1000
0001
,
0100
0000
0010
0000
1000
0000
0010
0000
0100
0000
0001
0010
0100
0000
1000
0010
,
1000
0000
0001
0000
0100
0000
1000
0000
0100
0001
0010
0100
1000
0001
0010
0001
,
0100
0000
0010
0000
1000
0000
0100
0000
0001
0000
0100
0000
1000
0100
0010
0100
,
1000
0000
0010
0000
0100
0000
0001
0000
0010
0000
0100
0000
1000
0100
0001
0100
,
1000
0000
0010
0000
0100
0000
0010
0000
1000
0000
0001
0100
0010
0100
0001
0010
,
0200
0000
0000
1300
0100
0000
0010
0000
0002
0000
0000
0103
0010
0000
1000
0000
,
0100
0000
1000
0000
0010
1000
0000
0000
0010
0000
1000
0000
0010
0001
0000
0000
,
0001
0000
0010
0000
1000
0100
0000
0000
0010
0000
0001
0000
0100
0010
0000
0000
,
1000
0100
0001
0010
0100
1000
0100
0001
,
0200
0000
0000
0300
,
0010
0000
0001
0000
0010
0000
0001
0000
0100
0000
0010
1000
0010
0000
1000
0100
,
1000
0000
0100
0000
0010
0000
0001
0000
0010
0100
0010
0100
1000
0000
0010
0000
,
0100
0000
0001
0000
0010
0000
0100
0000
1000
0100
1000
0000
0001
0100
0001
0000
,
0010
0000
0001
0000
0100
0000
0010
0000
1000
0100
0010
0100
1000
0000
0001
0000
,
1000
0000
0001
0000
0100
0000
0010
0000
1000
0100
0010
0001
0010
0000
0100
0000
,
1000
0000
0010
0000
0100
0000
0001
0000
0010
0001
0010
0100
0010
0000
0001
0000
,
0020
0000
0000
0031
0100
0000
0010
0000
2000
0000
0000
3100
0010
0000
0001
0000
,
0200
0000
0000
0310
1000
0000
0001
0000
0020
0000
0000
0130
0001
0000
0100
0000
,
1000
0000
0001
0000
0100
0000
0010
0000
1000
0100
1000
0001
0100
0000
0010
0000
,
1000
0000
0001
0000
0010
0000
0100
0000
1000
0100
1000
0001
0100
0010
0100
0001
,
0010
0000
0001
0010
0000
0000
0011
0000
1000
0000
1000
0100
0000
0000
1100
0000
,
0001
0000
0100
0000
0010
0000
1000
0000
0001
0100
0010
1000
0001
0100
0010
1000
,
0100
0000
1000
0000
0100
0000
0001
0000
0100
0000
1000
0100
1000
0000
1000
0100
,
0010
0000
0001
0000
0100
0000
1000
0000
0100
0000
0001
0100
0001
0000
0001
0010
,
0100
0000
0000
0200
1000
0000
1300
0000
0001
0000
0000
0200
0010
0000
0310
0000
,
1000
0000
0000
0200
0001
0000
0301
0000
0100
0000
0000
0020
1000
0000
1030
0000
,
0010
0001
0100
1000
0001
0010
1000
0100
,
1000
0010
0100
0010
1000
0001
0010
0100
0010
0001
1000
0010
0100
1000
0100
0002
,
2000
0000
0000
0000
,
3003
0000
0000
0000
,
0000
0000
0000
0000
;

//---------------dance-double - ----------------
#NOTES:
     dance-double:
     :
     Easy:
     7:
     :
00000000
00000000
00000000
00000000
,
00000000
00000000
00000000
00000000
,
00000000
00000000
00000000
00000000
,
00000000
00000000
00000000
00000000
,
00000000
00000000
00000000
00000000
,
00000000
00000000
00000000
00000000
,
20000000
00000000
00000000
00000000
,
30020000
00000000
00000000
00000000
,
00230000
00000000
00000000
00000000
,
00302000
00000000
00000000
00000000
,
00023000
00000000
00000000
00000000
,
00002000
00000000
00000000
00000000
00000000
00033000
00000000
00000000
,
00010000
00001000
00100000
00010000
,
10000000
10000000
00010000
00010000
,
10000000
00010000
01000000
00001000
,
00010000
00000000
00001000
00000000
,
00000010
00000010
00000100
00000100
,
00000001
00000000
00000001
00000100
00001000
00000000
00000000
00000000
,
00100000
00001000
00011000
00000000
,
00000010
00010000
00011000
00000000
,
00100000
00100000
01000000
01000000
,
10000000
00000000
10000000
01000000
00010000
00000000
00000000
00000000
,
00001000
00010000
00011000
00000000
,
00002000
00000000
00023000
00000000
,
00031000
00001000
00000010
00000010
,
00000001
00000001
00000100
00000100
,
00001000
00001000
00010000
00010000
,
00100000
00100000
10000000
10010000
,
01000000
01000000
10000000
10000000
,
00100000
00000000
01000000
00100000
01000000
00000000
00000000
00000000
,
00001000
00010000
00011000
00000000
,
00010000
00001000
00011000
00000000
,
00000100
00000100
00000001
00000001
,
00000010
00000000
00000100
00000010
00000100
00000000
00000000
00000000
,
00010000
00001000
00011000
00000000
,
00020000
00000000
00032000
00000000
,
00013000
00010000
01000000
01000000
,
00100000
00100000
00001000
00001000
,
00010000
00010000
00000100
00000100
,
00022000
00000000
00000000
00033000
,
00010000
00000100
00000010
00000001
,
00000010
00000000
00000000
00000000
00000001
00000100
00001000
00000000
,
00010000
01000000
00100000
00010000
,
00100000
00000000
00000000
00000000
01000000
00010000
01000000
00000000
,
00010000
00100000
00001000
00010000
,
00001000
00000000
00000000
00000000
00010000
00001000
00010000
00000000
,
00002000
00000000
00003020
00000000
,
00000032
00000000
00000103
00000110
,
00010000
00001000
00000100
00000010
,
00000100
00001000
00010000
00001000
,
00010000
00000000
00000010
00000000
,
00010000
00000000
00000000
00000000
00001000
00010000
00001000
00000000
,
00010000
00001000
00000010
00000001
,
00000100
00000010
00000010
00001000
,
00000001
00000001
00000010
00000010
,
00000100
00000100
00001000
00001000
,
00010000
00010000
00100000
00100000
,
01000000
00000000
01000000
00000000
10000000
00010000
10000000
00000000
,
20020000
00000000
00000000
00000000
,
30030000
00000000
00000000
00000000
,
00000000
00000000
00000000
00000000
;

//---------------dance-double - ----------------
#NOTES:
     dance-double:
     :
     Medium:
     10:
     :
00000000
00000000
00000000
00000000
,
00000000
00000000
00000000
00000000
,
00000000
00000000
00000000
00000000
,
00000000
00000000
00000000
00000000
,
00000000
00000000
00000000
00000000
,
00000000
00000000
00000000
00000000
,
00000002
00000000
00001003
00000010
,
00000200
00000000
00010300
00001000
,
00200000
00000000
00301000
01000000
,
00020000
00000000
00130000
01000000
,
20000000
00000000
00000000
00000000
,
00100000
00010000
01000000
30010000
,
10000000
01000000
00010000
00000000
01000000
00000000
00100000
00000000
,
00001000
00100000
00001000
00000000
00000010
00000000
00001000
00000000
,
00000010
00000001
00000100
00000000
00000001
00000100
00000010
00000000
,
00002002
00000000
00003003
00000110
,
00000001
00000010
00000100
00000000
00001000
00000100
00000001
00000000
,
00000100
00001000
00000010
00000000
00000001
00000010
00000100
00000000
,
00000001
00000100
00001000
00010000
02000000
00000000
03000000
00000000
,
10000000
01000000
00010000
01000000
20000000
00000000
30000000
00000000
,
10000000
00100000
01000000
00000000
00010000
01000000
10000000
00000000
,
01000000
00010000
00100000
00000000
10000000
00100000
01000000
00000000
,
10000000
01000000
00010000
00001000
00000200
00000000
00000300
00000100
,
00000001
00000000
00000000
00000100
00001000
00000000
00000000
00000010
,
00000100
00010000
00000100
00010100
,
00010000
00000010
00010000
00010010
,
00001000
00100000
00001000
00101000
,
00001000
01000000
00001000
01001000
,
00010000
01000000
10000000
00000000
00100000
00000000
11000000
00000000
,
10000000
01000000
00010000
00001000
00000200
00000000
00000300
00000000
,
00000001
00000100
00000010
00000100
00000002
00000000
00000003
00000000
,
00001000
00000100
00000010
00000100
00002000
00000000
00003000
00000000
,
00000001
00000100
00001000
00000000
00000010
00000000
00000101
00000000
,
00000001
00000100
00001000
00010000
02000000
00000000
03000000
10000000
,
01000000
00100000
00010000
01000000
00200000
00000000
00300000
10000000
,
01000000
00000000
00000000
00100000
00010000
00000000
00000000
00001000
,
00010000
00001000
00000100
00000010
,
00001000
00010000
01000000
00100000
,
00010000
10000000
01000000
00000000
10000000
00010000
01000000
00000000
,
00200000
00000000
00300000
10010000
,
00100000
10000000
01000000
00010000
,
00100000
10000000
01000000
00100000
00001000
00010000
00000100
00000000
,
00000010
00000001
00000100
00001000
,
00000010
00000001
00000100
00000010
00010000
00001000
01000000
00000000
,
00100000
00010000
00001000
00011000
,
00100000
00001000
00010000
00000010
00010000
00001000
01000000
00000000
,
00001000
00010000
01000000
10000000
,
00100000
00010000
00001000
00000100
,
00000001
00000000
00000010
00000000
00000001
00000010
00000100
00000000
,
00001000
00000000
00000010
00000000
00000100
00001000
00010000
00000000
,
00001000
00000000
00000000
00001000
00000000
00000000
00001000
00000000
00010000
00000000
00000000
00010000
00000000
00000000
00010000
00000000
,
00011000
00000000
00000000
00000000
00010000
00001000
00011000
00000000
,
00010000
01000000
00100000
10000000
,
01000000
10100000
10010000
01001000
,
00001000
00100000
00010000
00000000
00100000
00001000
00010000
00000000
,
00001000
00010000
00000010
00000000
00010000
00001000
00000100
00000000
,
00000010
00001000
00000100
00000010
,
00000001
00000100
00001000
00010000
01000000
10000000
00100000
00000000
,
20020000
00000000
00000000
00000000
,
30030000
00000000
00000000
00000000
,
00000000
00000000
00000000
00000000
;

//---------------dance-double - ----------------
#NOTES:
     dance-double:
     :
     Hard:
     12:
     :
00000000
00000000
00000000
00000000
,
00000000
00000000
00000000
00000000
,
00000000
00000000
00000000
00000000
,
00000000
00000000
00000000
00000000
,
00000000
00000000
00000000
00000000
,
00000000
00000000
00000000
00000000
,
00000002
00000000
00000000
00000000
,
00000203
00000000
00000000
00000000
,
00002300
00000000
00000000
00000000
,
00023000
00000000
00000000
00000000
,
00032000
00000000
00000000
00000000
,
00013000
01000000
10000000
00100000
00010000
00001000
00010000
00000000
,
00001000
00000000
00000000
00001000
00000000
00000000
01000000
00000000
00100000
00000000
00000000
00100000
00000000
00000000
01000000
00000000
,
00010000
00000000
00000000
00010000
00000000
00000000
00100000
00000000
01000000
00000000
00000000
01000000
00000000
00000000
10000000
00000000
,
01000000
00000000
00000000
00100000
00000000
00000000
00001000
00000000
00010000
00000000
00000000
00000100
00000000
00000000
00001000
00000000
,
00000110
00000000
00000000
00000010
00000000
00000000
00000010
00000000
00001100
00000000
00000000
00001000
00000000
00000000
00001000
00000000
,
00000010
00000100
00001000
00000100
00000010
00000100
00001000
00010000
,
01000000
10000000
01000000
00100000
00010000
00000000
01010000
00000000
,
01000000
00100000
00010000
00001000
00000100
00000001
00001000
00000000
,
00000100
00000010
00001000
00010000
01000000
10000000
00010000
00000000
,
01000000
00100000
10000000
00100000
01000000
00100000
00010000
00001000
,
00000010
00000001
00000010
00000100
00001000
00000000
00000110
00000000
,
00000001
00000010
00000100
00001000
00000010
00000100
00001000
00010000
,
00100000
10000000
01000000
00000000
00100000
00010000
01000000
00000000
,
10000000
00000000
01000000
00100000
00000000
00000000
01000000
00000000
10000000
00000000
00100000
01000000
00000000
00000000
00100000
00000000
,
01000000
00000000
00001000
00010000
00000000
00000000
00000100
00000000
00010000
00000000
00000100
00001000
00000000
00000000
00000001
00000000
,
00001000
00000000
00000100
00000010
00000000
00000000
00001000
00000000
00010000
00000000
01000000
00100000
00000000
00000000
00010000
00000000
,
11000000
00000000
00000000
10000000
00000000
00000000
10000000
00000000
01010000
00000000
00000000
00010000
00000000
00000000
00010000
00000000
,
10000000
01000000
00100000
01000000
10000000
01000000
00010000
01000000
,
00100000
00001000
00000100
00000001
00001000
00000000
00000101
00000000
,
00000010
00000100
00001000
00010000
01000000
00100000
00010000
00000000
,
01000000
00100000
00010000
00001000
00000100
00000010
00001000
00000000
,
00000001
00000100
00000010
00000100
00000001
00000100
00001000
00000100
,
00000010
00010000
01000000
10000000
00010000
00000000
01010000
00000000
,
01000000
00100000
00010000
00001000
00000010
00000100
00001000
00000000
,
00000010
00000100
00001000
00010000
01000000
00100000
00010000
00001000
,
00000200
00000000
00000000
00000300
,
00000010
00000000
00000000
00000010
00000000
00000000
00000100
00000000
00000001
00000000
00000000
00000001
00000000
00000000
00000100
00000000
,
00000010
00000000
00000000
00000100
00000000
00000000
00010000
00000000
00001000
00000000
00000000
00100000
00000000
00000000
01000000
00000000
,
10000000
01000000
00010000
00001000
00011000
00000000
01001000
00000000
,
00001000
00000100
00000001
00000010
00000100
00001000
00000100
00000000
,
00010000
01000000
10000000
01000000
00100000
00001000
00010000
00000000
,
00001000
00000100
00000001
00000010
00000100
00001000
00000001
00000000
,
00000010
00000100
00001000
00000010
00010000
00001000
00100000
00000000
,
01000000
10000000
01000000
00010000
00001000
00000100
00001000
00000000
,
00010000
00100000
01000000
10000000
01000000
00010000
00100000
00000000
,
00010000
00100000
00010000
00000000
10000000
01000000
00100000
00000000
,
00202000
00000000
00303000
00000000
00010000
01000000
10000000
00000000
,
10000000
01000000
00100000
00010000
01000000
00100000
00010000
00001000
,
00000100
00000001
00000010
00001000
00010000
00001000
01000000
00100000
,
11000000
00000000
00000000
01000000
00000000
00000000
00100000
00000000
00110000
00000000
00000000
00001000
00000000
00000000
00010000
00000000
,
00001000
00000100
00000001
00000010
00000001
00000100
00000010
00000000
,
00001100
00000000
00010100
00000000
00001000
00100000
00010000
01000000
,
00001000
00011000
00010100
00001100
,
00001000
00000100
00000010
00000001
00001000
00000100
00000010
00000100
,
00010000
00001000
00000100
00000010
00010000
00001000
00000100
00001000
,
00100000
00010000
10000000
01000000
00100000
00010000
01000000
00100000
,
00010000
00001000
01000000
00100000
00010000
00001000
00100000
00010000
,
00002000
00000000
00000000
00000000
,
00003000
00000000
00000000
00000000
,
00000000
00000000
00000000
00000000
;

//---------------dance-double - ----------------
#NOTES:
     dance-double:
     :
     Challenge:
     15:
     :
00000000
00000000
00000000
00000000
,
00000000
00000000
00000000
00000000
,
00000000
00000000
00000000
00000000
,
00000000
00000000
00000000
00000000
,
00000000
00000000
00000000
00000000
,
00000000
00000000
00000000
00000000
,
00000001
00000000
00000000
00000010
00000000
00000000
00001000
00000000
00010000
00000000
00000000
00100000
00000000
00000000
10000000
00000000
,
01000000
00000000
00000000
00010000
00000000
00000000
00001000
00000000
00000100
00000000
00000000
00000001
00000000
00000000
00000010
00000000
,
00000100
00000000
00000000
00010000
00000000
00000000
01000000
00000000
00100000
00000000
00000000
00001000
00000000
00000000
00000100
00000000
,
00010000
00000000
00000000
00000100
00000000
00000000
00000010
00000000
00010000
00000000
00000000
01000000
00000000
00000000
00100000
00000000
,
00001000
00100000
00001000
00000100
00000001
00000010
00000100
00001000
,
00000001
00000010
00000100
00001000
00000100
00001000
00000001
00000010
00000100
00001000
00000100
00001000
00000010
00010000
00001000
00010000
,
00001000
00100000
10000000
00100000
00010000
00100000
10000000
00010000
,
01000000
10000000
00010000
00000100
00001000
00000100
00000001
00000010
,
00001000
00010000
00001000
00000010
00000001
00000100
00001000
00000100
,
00000001
00000000
00000000
00000100
00000000
00000000
00001010
00000000
00000100
00000000
00000000
00000001
00000000
00000000
00000011
00000000
,
00000001
00000000
00000010
00000000
00000100
00000000
00000001
00000100
00000000
00000000
00001000
00000000
00000100
00000000
00001000
00000000
,
00000001
00000000
00000100
00000000
00001000
00000000
01000000
10000000
00000000
00000000
00010000
00000000
00100000
00000000
10000000
00000000
,
01000000
00000000
00010000
00000000
01000000
00000000
10000000
01000000
10000000
00000000
00100000
01000000
00100000
00000000
10000000
00100000
,
01000000
00000000
00100000
00000000
01000000
00000000
00010000
00000000
01000000
00000000
10000000
00000000
01000000
00100000
10000000
00000000
,
10000000
00000000
01000000
00000000
00100000
00000000
10000000
00100000
00000000
00000000
00010000
00000000
00100000
00000000
00010000
00000000
,
10000000
00000000
00100000
00000000
00010000
00000000
00000010
00000001
00000000
00000000
00001000
00000000
00000100
00000000
00000001
00000000
,
00000010
00000000
00001000
00000000
00000010
00000000
00000001
00000010
00000001
00000000
00000100
00000010
00000100
00000000
00000001
00000100
,
00000010
00000000
00000100
00000000
00000010
00000000
00001000
00000000
00000010
00000000
00000001
00000000
00000010
00000100
00000001
00000000
,
00000020
00000000
00000000
00000130
00000000
00000000
00001100
00000000
00000020
00000000
00000000
00000130
00000000
00000000
00010010
00000000
,
00002000
00000000
00000000
00013000
00000000
00000000
00101000
00000000
00002000
00000000
00000000
00013000
00000000
00000000
01010000
00000000
,
00200000
00000000
00000000
00310000
00000000
00000000
11000000
00000000
00200000
00000000
00000000
01300000
00000000
00000000
00110000
00000000
,
10000000
00000000
01000000
00000000
00010000
00000000
01000000
00000000
00100000
00000000
00001000
00000000
00010000
00001000
00010000
00000100
,
00000010
00000000
00000001
00000000
00000100
00000000
00000010
00000000
00001000
00000000
00000001
00000100
00000001
00000000
00000010
00000100
,
00000010
00000000
00000001
00000000
00000100
00000000
00001000
00000000
00010000
00000000
00001000
00100000
00001000
00000000
00100000
00010000
,
00100000
00000000
00010000
00000000
01000000
00000000
10000000
00000000
01000000
00000000
00010000
00000000
00100000
01000000
00100000
00000000
,
10000000
00000000
00010000
00000000
01000000
00000000
10000000
00000000
01000000
00000000
00100000
00010000
10000000
00010000
01000000
00000000
,
00100000
00000000
10000000
00000000
01000000
00000000
00100000
00000000
00010000
00000000
10000000
01000000
10000000
00000000
00100000
01000000
,
00100000
00000000
10000000
00000000
01000000
00000000
00010000
00000000
00001000
00000000
00010000
00000010
00010000
00000000
00000010
00001000
,
00000010
00000000
00001000
00000000
00000100
00000000
00000001
00000000
00000100
00000000
00001000
00000000
00000010
00000100
00000010
00000000
,
00000002
00000000
00000000
00001003
00000100
00000000
00000001
00000000
00000200
00000000
00000000
00000301
00001000
00000100
00001000
00000100
,
00000010
00000000
00000000
00000001
00000000
00000000
00000100
00000000
00001000
00000000
00000000
00000100
00000000
00000000
00000010
00000000
,
00001000
00000000
00000000
01000000
00000000
00000000
00100000
00000000
00001000
00000000
00010000
00000000
01000000
00000000
10000000
00000000
,
00100000
00000000
00000000
01000000
00000000
00000000
00010000
00000000
01000000
00000000
00010000
00000000
00100000
00000000
00010000
00000000
,
00022000
00000000
00000000
00033000
,
00010000
01000000
10000000
00100000
10000000
01000000
00010000
00001000
,
00010000
00001000
00010000
00000000
00001000
00010000
00000010
00000000
00000100
00000010
00001000
00000000
00000001
00000100
00001000
00000100
,
00000001
00000010
00000001
00000100
00000001
00000010
00000100
00000010
,
00001000
00010000
00001000
00000000
00010000
00001000
01000000
00000000
00100000
01000000
00010000
00000000
10000000
01000000
00010000
01000000
,
10000000
00100000
10000000
00100000
10000000
01000000
00010000
01000000
,
00010000
01000000
10000000
00100000
00010000
00001000
00000010
00000001
,
00000011
00000000
00000000
00000100
00000000
00000000
00000001
00000000
00000011
00000000
00000000
00000100
00000000
00000000
00000010
00000000
,
00001010
00000000
00000000
00000100
00000000
00000000
00001000
00000000
00000001
00000100
00000010
00001000
00000001
00000010
00001000
00010000
,
00001000
00010000
00001000
01000000
00100000
10000000
00010000
00100000
,
01000000
00010000
01000000
10000000
00010000
00100000
10000000
00010000
,
01000000
00000000
10000000
01000000
00000000
00000000
00100000
00000000
01000000
00000000
00010000
01000000
00000000
00000000
00100000
00000000
,
20020000
00000000
00000000
00000000
30030000
00000000
00000000
00000000
10000000
01000000
10000000
01000000
00010000
00001000
00100000
00001000
,
00010000
00001000
00010000
00000100
00000010
00000100
00001000
00000001
,
00000100
00001000
00000100
00000001
00000010
00001000
00000010
00000001
,
00000011
00000000
00000010
00000001
00000000
00000000
00000100
00000000
00001010
00000000
00000010
00001000
00000000
00000000
00000010
00000000
,
00010010
00000000
00010000
00001000
00000000
00000000
00010000
00000000
00101000
00000000
00010000
01000000
00100000
00010000
00100000
01000000
,
00100000
10000000
00100000
00010000
00100000
10000000
01000000
00010000
,
01000000
10000000
01000000
10000000
00100000
01000000
00100000
01000000
00001000
00010000
00001000
00010000
00000010
00001000
00000010
00001000
,
00000002
00000000
00000000
00000000
,
00000003
00000000
00000000
00000000
,
00000000
00000000
00000000
00000000
;
