#TITLE:You;
#ARTIST:NM feat. Anjanette Mickelsen;
#BANNER:You.png;
#BACKGROUND:You-bg.png;
#CDTITLE:./CDTitles/DanceDanceRevolution 2013.png;
#MUSIC:You.ogg;
#SAMPLESTART:44.98;
#SAMPLELENGTH:15;
#DISPLAYBPM:72;
#BPMS:0=71.7,4=72;
#STAGE:2;

//---------------dance-single - ----------------
#NOTES:
     dance-single:
     :
     Beginner:
     2:
     :
0000
0000
0000
0000
,
0000
0000
0000
0000
,
0000
0000
0000
0000
,
0000
0000
0000
0000
,
1000
0000
0000
0000
,
0100
0000
0000
0000
,
0001
0000
0000
0000
,
0010
0000
0000
0000
,
1000
0000
1000
0000
,
0100
0000
0100
0000
,
0001
0000
0001
0000
,
1000
1000
1000
0000
,
0010
0000
0010
0000
,
0002
0000
0003
0000
,
0100
0000
0100
0000
,
1000
0000
1000
0000
,
0010
0000
0010
0000
,
0100
0000
0100
0000
,
0001
0000
1000
0000
,
1000
0000
0001
0000
,
1000
0000
0001
0000
,
0200
0000
0300
0000
,
1000
1000
0000
0000
,
0010
0010
0000
0000
,
0001
0001
0000
0000
,
0100
0100
0000
0000
,
1000
0000
0100
0000
,
0001
0000
0100
0000
,
0010
0000
0010
0000
,
1000
1000
1000
0000
,
0001
0000
1000
0000
,
0001
0000
0000
0000
,
1001
0000
0000
0000
,
0000
0000
0000
0000
;

//---------------dance-single - ----------------
#NOTES:
     dance-single:
     :
     Easy:
     4:
     :
0000
0000
0000
0000
,
0000
0000
0000
0000
,
0000
0000
0000
0000
,
0000
0000
0000
0000
,
2000
0000
3000
0100
,
0001
0100
1000
0100
,
0002
0023
2030
3200
,
0302
0203
2300
3100
,
0020
1030
0020
0031
,
0200
1300
0200
0301
,
0010
0010
1000
0100
,
0001
0001
0100
1000
,
0020
0030
0001
0100
,
2000
3000
0100
0001
,
0010
0001
0020
0030
,
0100
1000
0200
0300
,
0010
0001
0100
1000
,
0200
0301
1000
0100
,
0010
0001
0020
1030
,
0100
1000
0200
0301
,
2000
3000
0001
0100
,
0001
1000
0200
0300
,
1000
1000
0100
0001
,
0100
0100
1000
0010
,
1000
2000
3100
0200
,
0301
0002
0013
0010
,
1000
0100
0002
0103
,
0001
0010
2000
3010
,
2000
3000
0200
0300
,
0010
0001
1000
0100
,
2200
0000
0000
3300
,
0001
0100
1000
0100
,
1000
0000
0000
0000
,
0000
0000
0000
0000
;

//---------------dance-single - ----------------
#NOTES:
     dance-single:
     :
     Medium:
     6:
     :
0000
0000
0000
0000
,
0000
0000
0000
0000
,
0000
0000
0000
0000
,
0000
0000
0000
0000
,
0002
0000
0023
0000
0030
0001
0100
0001
,
2000
0000
3200
0000
0300
1000
0001
1000
,
0002
0000
0013
0100
2000
0000
3001
0100
,
0002
0000
1003
0001
0020
0000
0031
0200
,
1000
0000
0010
0000
0002
0000
0300
1003
,
0002
0000
0000
0013
0200
0000
2300
0000
,
3001
0100
0001
0000
2000
0000
3000
0001
,
1000
0100
0010
0002
2000
0000
3000
0003
,
1000
0000
0000
0100
2000
0000
3002
0000
,
0203
0000
1000
0310
,
0001
0101
0001
0022
0030
1000
0003
0100
,
0010
1010
0100
2002
0000
0000
3003
0100
,
0001
1001
0010
0022
0030
0100
0003
2000
,
0200
0000
0300
3100
0010
0001
1000
0000
,
0001
0101
1000
2200
0300
0002
3000
0013
,
0001
0101
0001
0022
0030
2000
0003
3010
,
0200
0000
0302
0000
1003
0100
0010
0000
,
0001
1000
0001
0000
0100
0001
0100
0000
,
0002
0000
0103
0001
2000
0000
3100
0010
,
0002
0000
1003
0001
0020
0000
0130
1000
,
0001
1000
0100
0010
0100
0000
1000
0001
,
1000
0100
0010
0000
0001
1000
0001
0000
,
0010
0100
1000
0001
0000
1000
0010
0100
,
0001
1000
0100
1000
0000
0001
0100
0010
,
2000
0000
3200
0000
0320
0000
0031
1000
,
0002
0000
1003
0001
0020
0000
0230
0000
,
2300
0000
0000
3000
,
0001
0010
1000
0100
,
1000
0000
0000
0000
,
0000
0000
0000
0000
;

//---------------dance-single - ----------------
#NOTES:
     dance-single:
     :
     Hard:
     10:
     :
0000
0000
0000
0000
,
0000
0000
0000
0000
,
0000
0000
0000
0000
,
0000
0000
0000
0000
,
2000
0000
0000
0000
0000
0000
0000
0000
0000
0000
3010
0000
1000
0000
0010
0001
,
0010
0000
1000
0200
0000
0000
0000
0000
0000
0000
0301
0000
0100
0000
1000
0000
,
0010
0000
0000
1000
0000
0000
0010
0000
0100
0000
0001
0020
1000
0000
0031
0000
,
0010
0000
0000
0001
0000
0000
0010
0000
0100
0000
1000
0020
0001
0000
1030
0000
,
0100
0000
1000
0000
0010
0000
1000
0000
0010
0000
0001
0020
0001
0000
1030
0000
,
0100
0000
0001
0200
0001
0000
1300
0000
0010
0000
0001
0100
0100
0000
1000
0000
,
0002
0000
0000
0000
0023
0000
0000
0000
1030
0000
0010
0002
0000
0000
0000
0000
,
2003
0000
0000
0000
3020
0000
0000
0000
0031
0000
0010
2000
0000
0000
0000
0000
,
3020
0000
0000
0000
0000
0000
0031
0100
0002
0000
0000
0023
0000
0000
2030
0000
,
0200
0000
0000
0000
3300
0000
1000
0010
0002
0000
0000
0000
0023
0000
0000
0000
,
1030
0000
0100
0001
0100
1000
0010
0000
0000
0000
0001
0100
0001
0010
1000
0000
,
0100
0000
1000
0010
0001
0100
0001
0000
0000
0000
0010
1000
0100
0001
0100
0000
,
0010
0000
0001
0100
1000
0100
0001
0000
0000
0000
0010
1000
0100
1000
0010
0000
,
0002
0000
0000
0000
0000
0000
0103
1000
0000
0100
0001
0000
0010
1000
0100
0000
,
0001
0000
0100
1000
0100
0001
0010
0000
0000
0000
1000
0100
1000
0010
0001
0000
,
0100
0000
0001
0010
1000
0100
1000
0000
0000
0000
0010
0001
0100
1000
0100
0000
,
0002
0000
0000
0000
0023
0000
0000
0000
2030
0000
0000
3020
0000
0000
0031
0000
,
0002
0000
0000
0203
0000
0000
1300
0000
2000
0000
0000
3100
0001
0000
0010
0000
,
0001
0100
0000
0001
0000
0000
0010
0000
1000
0000
0000
0020
0001
0000
0000
0130
,
1000
0100
0000
1000
0000
0000
0010
0000
0001
0000
0000
0020
1000
0000
0000
0130
,
0001
0000
0100
0001
1000
0000
0100
2000
0000
0000
0000
0000
3000
0010
0001
0010
,
1000
0000
0100
0001
0100
0000
0000
1000
0010
0000
0001
0000
0010
0000
1000
0100
,
0010
0000
0001
0000
0100
0000
1000
0100
0000
0000
0001
0020
1000
0000
0031
0100
,
0010
0000
1000
0000
0100
0000
0001
0100
0000
0000
1000
0020
0001
0000
1030
0100
,
0002
0000
0000
0000
0203
0000
0000
0000
2300
0000
0000
0020
3000
0000
0031
0000
,
0010
0000
0001
0010
0000
0000
1000
0000
0200
0000
0000
0000
0302
0000
0000
0000
,
0023
0000
0000
0030
,
1000
0010
0001
0100
,
1000
0000
0000
0000
,
0000
0000
0000
0000
;

//---------------dance-double - ----------------
#NOTES:
     dance-double:
     :
     Easy:
     4:
     :
00000000
00000000
00000000
00000000
,
00000000
00000000
00000000
00000000
,
00000000
00000000
00000000
00000000
,
00000000
00000000
00000000
00000000
,
20000000
00000000
30000000
01000000
,
00010000
00001000
00000010
00000001
,
00002000
00023000
00230000
20300000
,
32000000
03020000
00032000
00003100
,
00000002
00000103
00002000
00013000
,
02000000
13000000
02000000
03010000
,
00001000
00000010
00000001
00000100
,
00001000
00010000
00100000
10000000
,
00200000
00300000
00010000
00001000
,
00000200
00000301
00000100
00001000
,
00010000
00100000
20000000
30000000
,
01000000
00010000
00002000
00003000
,
00000010
00000001
00000010
00001000
,
00020000
00130000
10000000
01000000
,
00010000
00001000
00000200
00000301
,
00000100
00001000
00020000
01030000
,
20000000
30000000
01000000
00010000
,
00001000
00000010
00000002
00000003
,
00000010
00001000
00010000
00100000
,
10000000
01000000
00010000
00001000
,
00000010
00000002
00000103
00002000
,
00013000
02000000
13000000
01000000
,
00010000
00001000
00000200
00000301
,
00000100
00001000
00020000
00130000
,
20000000
30000000
02000000
03000000
,
00010000
00001000
00000010
00001000
,
00002020
00000000
00000000
00003030
,
00010000
01000000
10000000
01000000
,
00010000
00000000
00000000
00000000
,
00000000
00000000
00000000
00000000
;

//---------------dance-double - ----------------
#NOTES:
     dance-double:
     :
     Medium:
     6:
     :
00000000
00000000
00000000
00000000
,
00000000
00000000
00000000
00000000
,
00000000
00000000
00000000
00000000
,
00000000
00000000
00000000
00000000
,
00020000
00000000
00230000
00000000
00300000
00010000
01000000
00010000
,
00002000
00000000
00003020
00000000
00000030
00001000
00000100
00001000
,
00020000
00000000
00130000
00001000
00000020
00000000
00001030
00000100
,
00002000
00000000
00003010
00010000
00200000
00000000
00310000
02000000
,
10000000
00000000
00100000
00000000
00020000
00000000
03000000
00031000
,
00020000
00000000
00000000
00130000
00002000
00000000
00003020
00000000
,
00000031
00000100
00001000
00200000
20000000
00000000
30000000
00310000
,
10000000
00100000
00010000
00000200
00000002
00000000
00000003
00001300
,
00010000
00000000
00000000
00001000
00000020
00000000
00020030
00000000
,
02030000
00000000
10000000
03100000
,
00010000
01010000
00010000
00220000
00300000
00001000
00030000
00000010
,
00001000
00001100
00001000
00002020
00000030
00010000
00003000
00001000
,
00000100
00011000
00100000
00022000
00003000
01000000
00030000
20000000
,
02000000
00000000
03000000
31000000
00100000
00010000
00001000
00000010
,
00001000
00001100
00001000
00002020
00000030
00020000
00003000
00130000
,
00010000
01010000
00010000
00220000
00300000
00002000
00030000
00003010
,
00000002
00000000
00000023
00000000
00001030
00000100
00001000
00000000
,
00010000
00001000
00010000
00000000
01000000
00010000
01000000
00000000
,
20000000
00000000
31000000
00010000
00002000
00000000
00003100
00000010
,
00000002
00000000
00000103
00001000
00020000
00000000
01030000
10000000
,
00100000
00010000
01000000
00010000
00001000
00000000
00000010
00001000
,
00000100
00001000
00010000
00000000
00000010
00000001
00000100
00000000
,
00000001
00000010
00001000
01000000
00000000
10000000
01000000
00100000
,
10000000
00100000
00010000
00000100
00000000
00000001
00000100
00000010
,
00002000
00000000
00003200
00000000
00002300
00000000
00013000
00001000
,
00020000
00000000
00130000
00010000
00200000
00000000
20300000
00000000
,
32000000
00000000
00000000
03000000
,
10000000
00100000
00010000
00001000
,
00010000
00000000
00000000
00000000
,
00000000
00000000
00000000
00000000
;

//---------------dance-double - ----------------
#NOTES:
     dance-double:
     :
     Hard:
     10:
     :
00000000
00000000
00000000
00000000
,
00000000
00000000
00000000
00000000
,
00000000
00000000
00000000
00000000
,
00000000
00000000
00000000
00000000
,
00020000
00000000
00000000
00000000
00000000
00000000
00000000
00000000
00000000
00000000
00032000
00000000
00000100
00000000
00013000
00001000
,
00000010
00000000
00000001
00000010
00000000
00000000
00000000
00000000
00000000
00000000
00000100
00000000
00001000
00000000
00010000
00000000
,
01000000
00000000
00000000
10000000
00000000
00000000
01000000
00000000
01000000
00000000
00010000
00100000
00010000
00000000
00001000
00000000
,
00000100
00000000
00000000
00000001
00000000
00000000
00000100
00000000
00000100
00000000
00001000
00000010
00001000
00000000
00010000
00000000
,
01000000
00000000
00010000
00000000
00100000
00000000
00001000
00000000
00000100
00000000
00001000
00000100
00000001
00000000
00000010
00000000
,
00001000
00000000
00000010
00001000
00010000
00000000
00001000
00000000
00100000
00000000
00010000
00100000
10000000
00000000
00100000
00000000
,
00020000
00000000
00000000
00000000
02030000
00000000
00000000
00000000
03010000
00000000
00001000
00000020
00000000
00000000
00000000
00000000
,
00002030
00000000
00000000
00000000
00003200
00000000
00000000
00000000
00001300
00000000
00010000
00200000
00000000
00000000
00000000
00000000
,
02300000
00000000
00000000
00000000
03000000
00000000
00100000
10000000
00200000
00000000
00000000
01000000
00000000
00000000
00301000
00000000
,
00000020
00000000
00000000
00000000
00000030
00000000
00000001
00000100
00002000
00000000
00000000
00000000
00023000
00000000
00000000
00000000
,
00130000
00000000
00010000
00100000
10000000
01000000
00010000
00000000
00000000
00000000
01000000
00010000
00000010
00010000
00001000
00000000
,
00000010
00000000
00001000
00000010
00000001
00000100
00001000
00000000
00000000
00000000
00000100
00001000
00100000
00001000
00010000
00000000
,
01000000
00000000
10000000
00100000
00010000
01000000
00010000
00000000
00000000
00000000
00010000
00100000
00010000
00001000
00000010
00000000
,
00000002
00000000
00000000
00000000
00000003
00000000
00000100
00000001
00000000
00000010
00000001
00000000
00000100
00001000
00010000
00000000
,
00100000
00000000
00010000
00100000
10000000
01000000
00010000
00000000
00000000
00000000
01000000
00010000
00000010
00010000
00001000
00000000
,
00000010
00000000
00001000
00000010
00000001
00000100
00001000
00000000
00000000
00000000
00000100
00001000
00100000
00001000
00010000
00000000
,
02000000
00000000
00000000
00000000
23000000
00000000
00000000
00000000
30200000
00000000
00000000
00320000
00000000
00000000
00031000
00000000
,
00000020
00000000
00000000
00000032
00000000
00000000
00000103
00000000
00002000
00000000
00000000
00003100
00001000
00000000
00010000
00000000
,
00200000
00010000
00000000
10300000
00000000
00000000
01000000
00000000
00020000
00000000
00000000
01030000
00020000
00000000
00000000
00031000
,
00000020
00001000
00000000
00000031
00000000
00000000
00000100
00000000
00002000
00000000
00000000
00003100
00002000
00000000
00000000
00013000
,
00001000
00000000
00010000
00100000
10000000
00000000
01000000
00020000
00000000
00000000
00000000
00000000
00030000
00001000
00010000
00100000
,
00010000
00000000
00001000
00000010
00000001
00000000
00000000
00000100
00000001
00000000
00000010
00000000
00001000
00000000
00000100
00001000
,
00020000
00000000
01000000
00000000
00130000
00000000
00010000
00100000
00000000
00000000
00010000
00001000
00000010
00000000
00001000
00010000
,
00002000
00000000
00000100
00000000
00003010
00000000
00001000
00000010
00000000
00000000
00001000
00010000
00100000
00000000
00010000
00001000
,
00000200
00000000
00000000
00000000
00002300
00000000
00000000
00000000
00103000
00000000
00000000
00010000
00000000
00000000
01000000
00000000
,
00001000
00000000
00010000
00002000
00000000
00000000
00000010
00000000
00023000
00000000
00000000
00000000
02030000
00000000
00000000
00000000
,
03020000
00000000
00000000
00030000
,
00001000
00000010
00000001
00000100
,
00000010
00000000
00000000
00000000
,
00000000
00000000
00000000
00000000
;
