
//----- song ID: wwve -----//
#TITLE:Wow Wow VENUS;
#ARTIST:VENUS;
#BANNER:Wow Wow VENUS.png;
#BACKGROUND:Wow Wow VENUS-bg.png;
#CDTITLE:./CDTitles/REFLEC BEAT colette.png;
#MUSIC:Wow Wow VENUS.ogg;
#SAMPLESTART:50.387;
#SAMPLELENGTH:15;
#BPMS:0=157;
#STAGE:2;
#NOTES:
     dance-single:
     :
     Beginner:
     2:
     :
0000
0000
0000
0000
,
0000
0000
0000
0000
,
0000
0000
0000
0000
,
0000
0000
0000
0000
,
0000
0000
0000
0000
,
0001
0000
0000
0000
,
0000
0000
0000
0000
,
1000
0000
0000
0000
,
0000
0000
0000
0000
,
0010
0000
0000
0000
,
1000
0000
0000
0000
,
0010
0000
0000
0000
,
0100
0000
0000
0000
,
1000
0000
0000
0000
,
0010
0000
0000
0000
,
0001
0000
0000
0000
,
0010
0000
0000
0000
,
0001
0000
0000
0000
,
1000
0000
0001
0000
,
1000
0000
0000
0000
,
0010
0000
0000
0000
,
0010
0000
0010
0000
,
0001
0000
0001
0000
,
0000
0000
0000
0000
,
0001
0000
0000
0000
,
0001
0000
0001
0000
,
0001
0000
0000
0000
,
0001
0000
0000
0000
,
1000
0000
0000
0000
,
0010
0000
1000
0000
,
0100
0000
0000
0000
,
0001
0000
1000
0000
,
0001
0000
0000
0000
,
1000
0000
1000
0000
,
0001
0000
0001
0000
,
0001
0000
0000
0000
,
0001
0000
1000
0000
,
0001
0000
0001
0000
,
0001
0000
0000
0000
,
0001
0000
0100
0000
,
0001
0000
1000
0000
,
0001
0000
0000
0000
,
0000
0000
0000
0000
,
0100
0000
0100
0000
,
0100
0000
0100
0000
,
0001
0000
1000
0000
,
0001
0000
0000
0000
,
0001
0000
1000
0000
,
0001
0000
0000
0000
,
0001
0000
1000
0000
,
0001
0000
0000
0000
,
0001
0000
1000
0000
,
0001
0000
1000
0000
,
0001
0000
0000
0000
,
0010
0000
0010
0000
,
1000
0000
0000
0000
,
0010
0000
0010
0000
,
0001
0000
0000
0000
,
0010
0000
0010
0000
,
0100
0000
0000
0000
,
0000
0000
0000
0000
,
1001
0000
0000
0000
,
0000
0000
0000
0000
,
0001
0000
0000
0000
,
1000
0000
0001
0000
,
1000
0000
1000
0000
,
0001
0000
0001
0000
,
0001
0000
1000
0000
,
0001
0000
0000
0000
,
0001
0000
0001
0000
,
0001
0000
0001
0000
,
0001
0000
1000
0000
,
0001
0000
1000
0000
,
0001
0000
0000
0000
,
0000
0000
0000
0000
,
0100
0000
0100
0000
,
0100
0000
0000
0001
,
0000
0000
0000
0000
;
#NOTES:
     dance-single:
     :
     Easy:
     4:
     :
0000
0000
0000
0000
,
0000
0000
0000
0000
,
0000
0000
0000
0000
,
0000
0000
0000
0000
,
0000
0000
0000
0000
,
0002
0000
0000
0003
,
1000
1000
0001
0001
,
2000
0000
0002
3003
,
1001
0000
0000
0000
,
0020
0000
0000
0030
,
2000
0000
0000
3000
,
0002
0000
0000
0003
,
0200
0000
0000
0300
,
0010
2000
0000
3000
,
0010
0001
0001
0001
,
0010
0002
0000
0003
,
0010
1000
1000
1000
,
0001
1000
0000
0000
,
2000
0000
3002
0000
,
0013
1000
1000
0000
,
0010
0200
0000
0300
,
0010
0100
0010
0000
,
0001
1000
0001
0000
,
1000
0001
2000
0000
,
0000
0000
0000
3000
,
1000
0000
1000
0000
,
1000
0000
0002
0000
,
1003
1000
0001
1000
,
1000
1000
0001
0001
,
0010
0000
2000
0000
,
3100
0001
1000
0001
,
0001
0000
1000
0000
,
0001
0000
1001
0000
,
1000
0001
1000
0000
,
1000
0100
0001
0002
,
0003
1000
0100
0000
,
0002
0000
1003
0000
,
1000
0001
1000
0000
,
1000
0100
0001
0002
,
0003
1000
0100
0000
,
0002
0000
2003
0000
,
3002
0000
0000
0000
,
2003
0000
0000
3000
,
0001
0000
0100
0000
,
0100
0000
1000
0000
,
0001
0001
1000
0000
,
0002
0000
2003
0000
,
3001
0001
1000
0000
,
0002
0000
2003
0000
,
3001
0001
1000
0000
,
0020
0000
0230
0000
,
0301
0001
1000
0000
,
0001
0000
1000
0000
,
0002
0000
0000
0003
,
0010
0000
0010
0000
,
2000
0000
0000
3000
,
0010
0000
0010
0000
,
0002
0000
0000
0003
,
0010
0000
0010
0000
,
0100
0000
1000
0000
,
0001
1000
0000
0000
,
2002
0000
0000
3003
,
1000
0001
0000
0000
,
0001
0100
0000
0000
,
1000
0000
0001
0000
,
1000
0001
1000
0000
,
1000
0100
0001
0002
,
0003
1000
0100
0000
,
0002
0000
1003
0000
,
1000
0001
1000
0000
,
1000
0100
0001
0002
,
0003
1000
0100
0000
,
0002
0000
2003
0000
,
3002
0000
0000
0000
,
2003
0000
0000
3000
,
0001
0000
0100
0000
,
0100
0000
1000
0001
,
0000
0000
0000
0000
;
#NOTES:
     dance-single:
     :
     Medium:
     8:
     :
0000
0000
0000
0000
,
0000
0000
0000
0000
,
0000
0000
0000
0000
,
0000
0000
0000
0000
,
0000
0000
0000
0000
,
0010
0100
0000
0000
0000
0000
0000
0000
,
0001
1000
0001
0000
0100
0000
0010
0000
,
1000
0001
0000
0000
0000
0000
0000
0000
,
1000
0001
1000
0000
0001
0000
0100
0001
,
1000
0000
0000
0100
1000
0000
0000
1000
,
0001
0000
0000
0100
0001
0000
0000
0001
,
1000
0000
0000
0010
1000
0000
0000
1000
,
0001
0000
0000
0010
0001
0000
0000
0000
,
1001
0010
0100
1000
,
0010
0010
0100
0001
,
1000
0001
1000
0000
0100
1000
0100
0000
,
0010
0001
0100
1000
,
0010
0001
0101
0100
,
0010
0000
1000
0000
1010
0000
0010
0100
,
0010
0000
1000
0000
0001
0000
1000
0001
,
0000
0010
0200
0000
0000
0000
0300
0000
,
0010
0000
0000
0010
0000
0000
0010
0000
0100
0000
0000
0000
0001
0000
0000
0000
,
1000
0000
0000
1000
0000
0000
1000
0000
0001
0000
0000
0000
0100
0000
0000
0000
,
0010
0000
0010
0100
0002
0000
0000
0000
,
1000
1000
0100
0003
,
1000
0000
0000
1000
0000
0000
1000
0000
0100
0000
0000
0000
0010
0000
0000
0000
,
0001
0000
0000
0001
0000
0000
0001
0000
0100
0000
0000
0000
0010
0000
0000
0000
,
1000
0000
0000
1000
0000
0000
1000
0000
0100
0000
0000
0100
0000
0000
0100
0000
,
0010
0000
0000
0010
0000
0000
0010
0000
0001
0000
0000
0001
0000
0000
0001
0000
,
2000
0100
0001
3010
,
0100
0000
0001
0000
1000
0001
1000
0000
,
1100
0000
0101
0000
,
1001
0110
1001
0000
,
0201
1000
0301
0000
,
1200
0001
1300
0000
,
0001
0100
1000
0100
,
0001
0100
0010
0000
1000
0001
0100
0000
,
0021
1000
0031
0000
,
1020
0001
1030
0000
,
0001
0000
1000
0000
0010
0100
0010
0100
,
0000
0100
0010
0000
1000
0000
0001
0000
,
2002
0000
0000
0000
0000
3003
0000
1000
,
0100
0000
0000
1000
0001
0000
0000
0001
,
0100
0000
0000
0001
1000
0000
0000
1000
,
0001
0000
0000
0100
0010
0000
0000
0000
,
1100
0001
2100
3001
,
0101
1000
0102
1003
,
1010
0001
2010
3001
,
0011
1000
0012
1003
,
1100
0101
1100
1100
,
0001
1000
0001
0001
,
0101
0101
1100
0101
,
1001
0110
1001
0000
,
0001
0000
0100
0001
0010
0000
0100
0000
,
0200
0010
1000
0310
,
1000
0000
0100
1000
0010
0000
0100
0000
,
0200
0010
0001
0310
,
1000
0000
0100
0000
0001
0100
1000
0000
,
2000
0001
0010
3100
,
1000
0000
0010
0000
0001
0010
1000
0000
,
1000
0001
1000
0001
1000
0000
0010
0000
,
0100
0100
0000
0000
0000
0000
0000
1001
,
0000
1001
0000
0000
0000
0000
0000
0110
,
0000
0110
0000
0000
0000
0000
0000
0000
,
0220
0330
2002
3003
,
0201
0010
1300
0000
,
1020
0100
0031
0000
,
1000
0000
0001
0000
0100
0010
0100
0010
,
0000
1000
0001
0000
0001
1000
0100
0000
,
1100
0110
0022
0033
,
0101
0110
2020
3030
,
0001
0000
1000
0000
0010
0100
0010
0100
,
0000
0001
1000
0000
0001
0100
1000
0000
,
0200
0001
0010
0000
,
0302
1000
0100
0000
,
2003
0010
0001
0000
,
3010
0100
0010
0100
0000
0001
1000
0000
,
0000
0000
0000
0000
;
#NOTES:
     dance-single:
     :
     Hard:
     11:
     :
0000
0000
0000
0000
,
0000
0000
0000
0000
,
0000
0000
0000
0000
,
0000
0000
0000
0000
,
0000
0000
0000
0000
,
0101
0101
0000
0000
0000
0000
0000
0000
,
1000
0000
0001
0000
0010
0000
0100
0000
0010
0000
0000
0001
0000
0000
1000
0000
,
1100
1100
0000
0000
0000
0000
0000
0000
,
0010
0100
0001
1000
0010
0000
0100
0001
,
0001
0000
0000
0010
0000
0000
0100
0000
1000
0000
0000
0000
0001
0000
0100
0000
,
0100
0000
0000
0010
0000
0000
1000
0000
0001
0000
0000
0000
0010
0000
0100
0000
,
0100
0000
0000
1000
0000
0000
0010
0000
0100
0000
0000
0000
0001
0000
0010
0000
,
0010
0000
0000
0100
0000
0000
1000
0000
0001
0000
0000
0100
0000
0000
0000
0000
,
0001
0000
0000
0000
1000
0000
0000
1000
0010
0000
0100
0000
0001
0000
0010
0000
,
0000
0010
0100
1000
0001
0100
0001
1000
,
0000
1000
0010
1000
0001
0100
0001
0010
,
0000
0010
0001
1000
0100
0010
0100
1000
,
0001
0000
0000
0000
0100
0000
0000
0010
1000
0000
0001
0000
0100
0000
0001
0000
,
0000
0010
0100
1000
0010
1000
0001
0010
,
0000
0010
0001
0100
1000
0100
0001
1000
,
0000
0100
0020
0000
0000
0000
0030
0000
,
0001
0000
0000
0001
0100
0000
0001
0000
1000
0000
0000
1000
0100
0000
1000
0000
,
0010
0000
0000
0010
0100
0000
0010
0000
1000
0000
0000
1000
0100
0000
1000
0000
,
0001
0000
0000
0001
0100
0000
0001
0000
1000
0000
0100
0000
0010
0000
0001
0000
,
1000
0010
0001
0100
,
0010
0000
0000
1000
0010
0000
1000
0000
0100
0000
0000
1000
0100
0000
1000
0000
,
0001
0000
0000
0100
0001
0000
0100
0000
0010
0000
0000
0100
0010
0000
0100
0000
,
0001
0000
0000
0011
0000
0000
0010
0000
0100
0000
0000
1100
0000
0000
1000
0000
,
0010
0000
0000
0110
0000
0000
0100
0000
0001
0000
0000
1001
0000
0000
1000
0000
,
0001
0010
1000
0100
,
0001
0010
0100
1000
,
1001
0000
0000
0001
0000
0000
0001
0000
0000
0010
0000
0000
0100
0000
1000
0000
,
0001
0000
0000
0100
0000
0000
0110
0000
0110
0000
0000
0000
1001
0000
0000
0000
,
1200
0000
0001
0000
1300
0010
0001
0000
,
0201
0000
1000
0000
0301
0010
1000
0000
,
0010
0001
0100
1000
0100
0001
1000
0000
,
0001
0000
1100
0000
0010
1000
0001
0000
,
1020
0000
0001
0000
1030
0100
0001
0000
,
0021
0000
1000
0000
0031
0100
1000
0000
,
0100
0000
0001
0000
1000
0000
0001
0000
0100
0000
0000
0010
0000
0000
1001
0000
,
0000
0100
0100
0000
0010
0001
1000
0010
,
0200
0000
0000
0000
0000
0000
0300
0001
,
1000
0000
0000
0010
0100
0000
0000
1000
,
0001
0000
0000
0100
0010
0000
0000
0001
,
1000
0000
0000
0010
0100
0000
0000
0000
,
1100
0000
0000
0000
0101
0000
0000
0000
0100
0000
0000
1001
0000
0000
0000
0000
,
0010
0000
1000
0000
0001
0000
0010
0000
0100
0000
0000
1001
0000
0000
0000
0000
,
0011
0000
0000
0000
1010
0000
0000
0000
0100
0000
0000
1001
0000
0000
0000
0000
,
1000
0000
0010
0000
0100
0000
0001
0000
0100
0000
0000
1001
0000
0000
0000
0000
,
0101
0000
0000
0000
1100
0000
0000
0000
0100
0000
0000
1001
0000
0000
0000
0000
,
1000
0000
0001
0000
1000
0000
0001
0000
0010
0000
0000
0010
0000
0000
0000
0000
,
1010
0000
0000
0000
0011
0000
0000
0000
0100
0000
0000
1001
0000
0000
0000
0000
,
1000
0000
1000
0000
0001
0000
0001
0000
0100
0000
0000
1001
0000
0000
0000
0000
,
1000
0000
0001
0100
0010
0000
1000
1000
,
0002
0023
0230
2300
,
3001
0000
1000
0010
0100
0000
0001
0001
,
2000
3020
0230
0302
,
1003
0000
0001
0100
0010
1000
0100
0010
,
0002
0203
0320
2030
,
3001
0000
0010
0100
1000
0001
0100
0001
,
1000
0100
0010
0001
1000
0000
0001
0000
,
1001
1001
0000
0000
0000
0000
0000
0011
,
0000
1100
0000
0000
0000
0000
0000
1010
,
0000
0101
0000
0000
0000
0000
0000
0000
,
0220
0330
1001
0010
,
1100
0000
0201
0000
1300
0010
0001
0000
,
0101
0000
1200
0000
0301
0010
1000
0000
,
1000
0010
0001
0100
0010
1000
0001
1000
,
0000
0010
0100
0000
0001
1000
0010
0000
,
1010
0000
0021
0000
1030
0100
0001
0101
,
0000
1010
0001
0100
1000
0100
0001
0000
,
0100
0000
0001
0000
1000
0000
0001
0000
0010
0000
0000
0100
0000
0000
1001
0000
,
0000
0010
0100
1000
0010
0100
0001
0100
,
0220
0000
0000
0000
,
0000
0330
2002
3003
,
0200
0000
0000
0000
,
0310
0010
0100
0010
0000
0110
1001
0000
,
0000
0000
0000
0000
;
#NOTES:
     dance-single:
     :
     Challenge:
     16:
     :
0000
0000
0000
0000
,
0000
0000
0000
0000
,
0000
0000
0000
0000
,
0000
0000
0000
0000
,
0000
0000
0000
0000
,
0101
0000
0101
0000
1000
0100
0010
0100
1000
0000
0000
1010
0000
0001
0100
0010
,
1000
0000
1000
0000
0001
0000
0001
0000
0010
0000
0000
0100
0010
0000
0001
0000
,
1100
0000
1100
0000
0001
0010
0100
0010
0001
0000
0000
0101
0000
1000
0010
0100
,
0001
0000
0001
0000
1000
0000
1000
0000
0100
0000
0000
0010
0100
0000
1000
0000
,
0001
0000
0000
0010
0001
0000
1000
0000
0010
0000
0110
0000
0110
0000
0001
0010
,
0001
0000
0000
1000
0010
0000
1000
0000
0100
0000
0110
0000
0110
0000
1000
0010
,
1000
0000
0000
0001
0010
0000
0100
0000
1000
0000
1100
0000
1100
0000
0001
0100
,
0001
0000
0000
1000
0100
0000
0010
0000
0001
0000
0000
1000
0020
0000
0000
0000
,
0130
0000
0000
0000
0001
0000
0000
1000
0100
0000
1000
0010
0100
0000
0010
0000
,
0100
0000
0001
0000
0010
0100
0010
0000
0001
0100
0001
0100
0010
0000
1000
0000
,
0001
0000
0010
0000
0100
0010
0001
0000
1000
0001
0100
0000
0010
1000
0001
0000
,
0010
0000
0001
0000
1000
0000
0100
0000
0010
0001
0010
0001
1000
0000
1010
0000
,
0001
0000
0000
0000
0100
0000
0000
0010
1000
0000
0001
0010
0100
0000
0010
0000
,
0100
0000
1000
0000
0010
0100
0010
0000
1000
0100
0010
0001
0010
0000
0100
0000
,
1000
0000
0001
0000
0100
0010
1000
0000
0010
1000
0010
1000
0001
0100
0001
0000
,
0010
0000
0110
0000
0110
0000
0000
1000
0100
0010
0001
0000
0100
0000
0010
0000
,
1000
0000
0001
0010
0001
0000
0100
0000
0010
1000
0010
1000
0100
0000
1000
0000
,
0001
0000
0010
0100
0010
0000
0001
0000
0100
0001
0100
0001
0010
0000
0100
0000
,
1000
0000
0010
0100
0001
0000
0010
0000
0001
0000
0100
0000
0010
0000
1000
0000
,
0001
0110
0100
1001
0001
0110
0010
1010
,
0001
0000
1000
0010
1000
0000
0100
0000
0010
0001
0010
0001
0100
0000
0001
0000
,
1000
0000
0010
0100
0010
0000
1000
0000
0100
1000
0100
1000
0010
0000
0100
0000
,
0001
0000
0000
0100
0110
0000
0001
0000
1000
0000
0000
0110
0010
0000
1000
0000
,
0001
0000
0000
0010
0110
0000
0100
0000
1000
0001
1000
0001
0000
0000
0100
0010
,
1000
0000
0100
0000
0010
0000
0100
0000
1000
0010
0100
0000
0001
0000
0010
0000
,
0100
0010
0100
0000
0010
0001
0010
0000
0001
0100
0001
0100
0010
0000
1000
0000
,
1001
0000
0000
0011
0000
0000
0011
0000
0000
0110
0000
0000
0110
0000
1000
0001
,
0100
0000
0000
0010
0000
0000
0110
0000
0110
0000
0000
0000
1001
0000
0000
0000
,
1200
0000
0000
0000
0301
0000
0000
0000
1100
0000
0000
0011
0000
0000
1000
0000
,
0000
0001
0100
1000
0100
0000
0010
0000
1000
0000
0000
1100
0000
0000
0001
0000
,
0010
0000
0100
1000
0100
0000
1000
0000
0010
0000
0100
0001
0100
0000
0001
0000
,
0010
0100
1100
1000
0010
0100
0110
0001
,
1020
0000
0000
0000
0031
0000
0000
0000
0101
0000
0000
1010
0000
0000
0001
0000
,
0000
1000
0010
0001
0010
0000
0100
0000
0001
0000
0000
0011
0000
0000
1000
0000
,
0100
0000
0010
0001
0010
0000
0001
0000
0100
0010
0000
0010
1000
0000
1001
0000
,
0000
0000
0001
0000
0010
0000
0100
0000
1000
0001
0010
0100
1000
0001
0010
0100
,
0010
0000
0000
0100
0010
0000
0001
0000
0100
0000
0110
0000
0110
0000
1000
0010
,
0100
0000
0000
0010
1000
0000
0001
0000
0010
0000
0110
0000
0110
0000
0001
0010
,
0100
0000
0000
1000
0010
0000
0100
0000
0001
0000
1001
0000
1001
0000
1000
0010
,
0100
0000
0000
0001
0010
0000
0001
0000
0100
0010
0000
0010
2000
0000
0000
0000
,
3001
0000
0100
0000
0010
0000
0100
0000
0001
0000
0100
0001
0010
0000
0100
0000
,
1000
0000
0010
0000
0100
0000
0010
0000
1000
0000
0010
1000
0100
0000
0010
0000
,
0001
0000
0010
0000
1000
0000
0010
0000
0001
0000
0010
0001
0100
0000
0010
0000
,
1000
0000
0100
0000
0001
0000
0100
0000
1000
0000
0100
1000
0010
0000
0100
0000
,
0101
0000
1000
0000
1010
0000
0010
0000
0100
0000
0010
1000
0100
0000
1000
0000
,
1100
0000
0001
0000
0101
0000
0100
0000
0010
0000
0100
0001
0010
0000
0001
0000
,
1001
0000
0010
0000
1001
0000
0100
0000
0010
0000
1000
0001
0100
0000
0010
0000
,
0101
0000
0101
0000
1100
0000
1100
0000
0110
0000
0000
1001
0000
0000
0000
0000
,
2000
0000
0000
0000
3001
0010
0100
1000
0100
0000
0000
1000
0000
0010
0100
0010
,
1000
0000
0000
0001
0100
0000
0000
0100
1000
0000
0000
1000
0100
0000
0001
0000
,
2000
0000
0000
0000
3100
0010
0001
1000
0001
0000
0000
0100
0000
0010
1000
0100
,
1000
0000
0000
0001
0010
0000
0100
1000
0010
0000
0000
0000
0101
0000
0000
0000
,
2000
0000
0000
0000
3100
0010
0001
1000
0100
0000
0000
1000
0000
0001
0010
0100
,
1000
0000
0000
0001
0010
0000
0000
0010
1000
0000
0000
1000
0010
0000
0001
0100
,
0010
0000
0000
0000
1000
0100
0010
0001
1000
0000
0000
0001
0000
0100
0010
1000
,
0001
0000
0001
1000
0100
0010
0001
1000
0010
0000
0000
0000
0100
0000
0000
0000
,
1001
1001
0000
0000
0000
0000
0000
0011
,
0000
1100
0000
0000
0000
0000
0000
1010
,
0000
0000
0101
0000
0000
0000
0000
0000
0000
0000
0000
0000
0010
0100
0010
0100
,
0010
1000
0100
0010
0001
1000
0001
0010
,
0100
0010
0100
0000
0010
0001
0010
0000
1000
0001
0000
0101
0000
0000
1000
0000
,
0000
0010
0001
0010
1000
0000
0001
0010
0100
1000
0010
1000
0000
0000
0001
0000
,
0100
0010
0100
0000
0010
1000
0010
0000
1000
0100
1000
0000
0001
0100
0001
0000
,
1000
0100
0010
0100
0010
0001
0100
0010
1000
0001
0010
0100
1000
0000
1000
0000
,
0001
0100
0001
0000
1000
0010
1000
0000
0001
0100
0000
0110
0000
0000
0001
0000
,
0000
0010
1000
0010
0001
0000
1000
0100
0010
0001
0010
0001
0000
0000
1000
0000
,
0100
0010
0100
0000
0010
0001
0010
0000
0001
0100
0000
1000
0100
0000
0110
0000
,
0001
0010
0100
1000
0001
0100
0001
0100
0010
1000
0100
0010
0001
0000
0001
0000
,
0201
0010
1000
0010
0001
1000
0001
0010
,
0302
0013
2000
3010
0200
0010
0001
1000
,
0320
1000
0100
0001
1000
0001
1000
0100
,
1030
1000
0001
0010
0000
0110
1001
0000
,
0000
0000
0000
0000
;
#NOTES:
     dance-double:
     :
     Easy:
     5:
     :
00000000
00000000
00000000
00000000
,
00000000
00000000
00000000
00000000
,
00000000
00000000
00000000
00000000
,
00000000
00000000
00000000
00000000
,
00000000
00000000
00000000
00000000
,
10010000
00000000
00000000
00000000
,
01000000
00010000
00001000
00000100
,
00001001
00000000
00000000
00000000
,
00000001
00000100
00001000
00010000
,
00001000
00000000
00000100
00000000
,
00010000
00000000
01000000
00000000
,
00001000
00000000
00000100
00000000
,
00010000
00000000
01000000
00000000
,
00001000
00010000
00010000
00000000
,
00001000
00000100
00000001
00000000
,
00000001
00000001
00000000
00000000
,
00000001
00000100
00001000
00010000
,
00001000
00010000
00001000
00000000
,
01000000
00000000
00010000
00000000
,
10000000
10000000
00010000
01000000
,
10010000
00000000
00000000
00000000
,
01000000
01000000
01000000
00000000
,
00001000
00001000
00001000
00000000
,
01000000
00001000
00010000
00000000
,
00000100
00010000
00001000
00000000
,
00000110
00000000
00000100
00000000
,
00001001
00000000
00000001
00000000
,
00001000
00001000
00001000
00000001
,
00000001
00000001
00000100
00000000
,
00001000
00000000
00020000
00000000
,
00030000
00000000
00000000
00000000
,
00001000
00000000
00010000
00000000
,
00001000
00010000
00011000
00000000
,
00100000
00001000
00100000
00000000
,
00010000
00001000
00010000
00000000
,
00001000
00010000
01000000
10000000
,
00010000
00000000
10000000
00000000
,
00010000
10000000
00010000
00000000
,
10000000
01000000
00010000
00001000
,
00010000
00000000
00001000
00000100
,
00000001
00000000
00001000
00000000
,
00000002
00000000
00000000
00000003
,
00002000
00000000
00000000
00003000
,
00000100
00000000
00000100
00000000
,
00000100
00000000
00000100
00000000
,
00000001
00000000
00001000
00000000
,
00000010
00000000
00010000
00000000
,
00001000
00000000
00010000
00000000
,
00001000
00000000
00100000
00000000
,
00010000
00000000
10000000
00000000
,
00010000
00000000
01000000
00000000
,
00001000
00000000
00010000
00000000
,
00001000
00000000
00011000
00000000
,
00000200
00000000
00001000
00000300
,
00000010
00000000
00000100
00000000
,
00020000
00000000
00000100
00030000
,
00010000
00000000
00001000
00000000
,
00002000
00000000
01000000
00003000
,
00001000
00000000
00010000
00000000
,
00001000
00000000
01000000
00000000
,
00010000
10000000
01000000
00000000
,
10010000
00000000
00000000
00000000
,
01100000
00000000
00000000
00000000
,
00001000
00010000
00000000
00000000
,
00100000
00000000
00001000
00000000
,
00010000
00001000
00010000
00000000
,
00010000
00001000
00000100
00000001
,
00000001
00000001
00001000
00001000
,
00000001
00000000
00001000
00000000
,
00000010
00000100
00000010
00000000
,
00001000
00000100
00000001
00000010
,
00001000
00010000
00001000
00000000
,
00011000
00000000
00010000
00000000
,
00002000
00000000
00000000
00003000
,
00020000
00000000
00000000
00030000
,
00001000
00000000
00010000
00000000
,
01000000
00000000
01000000
10010000
,
00000000
00000000
00000000
00000000
;
#NOTES:
     dance-double:
     :
     Medium:
     8:
     :
00000000
00000000
00000000
00000000
,
00000000
00000000
00000000
00000000
,
00000000
00000000
00000000
00000000
,
00000000
00000000
00000000
00000000
,
00000000
00000000
00000000
00000000
,
00001000
00010000
00000000
00000000
00000000
00000000
00000000
00000000
,
00010000
01000000
10000000
00000000
01000000
00000000
00010000
00000000
,
00001000
00010000
00000000
00000000
00000000
00000000
00000000
00000000
,
00001000
00000100
00000001
00000000
00000100
00000000
00001000
00010000
,
00001000
00000000
00000000
00100000
00010000
00000000
00000000
10000000
,
00100000
00000000
00000000
01000000
00010000
00000000
00000000
00001000
,
00010000
00000000
00000000
00000100
00001000
00000000
00000000
00000001
,
00000100
00000000
00000000
00000010
00001000
00000000
00000000
00000000
,
00001001
00000010
00001000
00010000
,
01000000
10000000
00010000
01000000
,
10000000
01000000
00010000
00000000
00100000
00000000
00001000
00000000
,
00010000
00001000
00000100
00000001
,
00001001
00000000
00000010
00000000
00000001
00000100
00001000
00000000
,
00010000
00000000
00001000
00000000
00100000
00000000
00010000
10000000
,
00010000
00000000
10000000
01000000
01000000
00000000
00100000
01000000
,
00000000
00010000
00002000
00000000
00000000
00000000
00003000
00000000
,
00200000
00000000
00310000
00000000
00001000
00010000
00001000
00000000
,
00000020
00000000
00001030
00000000
00010000
00001000
00010000
00000000
,
00001000
00000100
00000002
00000010
,
00001000
00000000
00000103
00000000
00000010
00000100
00000010
00000000
,
00000200
00000000
00000310
00000000
00001000
00010000
00001000
00000000
,
02000000
00000000
03100000
00000000
00010000
10000000
00010000
00000000
,
10000000
00000000
00000000
10000000
00000000
00000000
01000000
00000000
00100000
00000000
00000000
00100000
00000000
00000000
00000000
00000000
,
00001000
00000000
00000000
00001000
00000000
00000000
00010000
00000000
00000010
00000000
00000000
00000010
00000000
00000000
00000000
00000000
,
00000200
00001000
00000010
00000301
,
00001000
00000000
00000001
00000000
00000100
00000001
00001000
00000000
,
00001010
00000000
00011000
00000000
,
00110000
00101000
00011000
00000000
,
01002000
00013000
00000020
00000030
,
00020100
00031000
00100000
00000000
,
00001000
00000100
00010000
01000000
,
00001000
00000000
00000100
00000000
00010000
00001000
00010000
00000000
,
00102000
00010000
00003100
00000000
,
00020010
00001000
01030000
00000000
,
10000000
00000000
00000000
00000000
00010000
00000000
00000000
00000000
01000000
00000000
00000000
01000000
00000000
00000000
01000000
00000000
,
00000000
00010000
10000000
00000000
01000000
00000000
00010000
00000000
,
00022000
00000000
00000000
00000000
00000000
00033000
00000000
00001000
,
00000100
00000000
00000000
00000001
00000010
00000000
00000000
00001000
,
00010000
00000000
00000000
01000000
10000000
00000000
00000000
00100000
,
00010000
00000000
00000000
00001000
00010000
00000000
00000000
00000000
,
00000100
00001000
00000010
00000011
,
00001000
00000100
00000001
00000101
,
00001000
00010000
00001000
00011000
,
00100000
00010000
01000000
11000000
,
00010000
00100000
10000000
11000000
,
00010000
00010000
00020000
00030000
,
00001000
00000010
00000001
00000101
,
00000010
00001000
00010000
00011000
,
00002000
00100000
00010000
01003000
,
00200000
00320000
00032000
00003200
,
00000310
00000000
00000100
00000001
00001000
00000000
00000100
00000000
,
00000020
00002030
00023000
02030000
,
13000000
00100000
00010000
01000000
,
02000000
03020000
00032000
00003020
,
00000031
00000000
00001000
00000000
00000001
00001000
00000001
00000000
,
00000100
00000010
00000100
00000000
00001000
00000000
00010000
00000000
,
00001000
00010000
00000000
00000000
00000000
00000000
00000000
00010100
,
00000000
00010100
00000000
00000000
00000000
00000000
00000000
01001000
,
00000000
01001000
00000000
00000000
00000000
00000000
00000000
00000000
,
02200000
03300000
00010000
00001000
,
01002000
00010000
00003010
00010000
,
00020100
00001000
00130000
00001000
,
00010000
00000000
00100000
00000000
10000000
00000000
01000000
00100000
,
00000000
00100000
01000000
00000000
00010000
00000000
00001000
00000000
,
00102000
00010000
00000010
00013000
,
00020010
00001000
00100000
00031000
,
00000100
00000000
00000000
00000000
00000001
00000000
00000000
00000000
00001000
00000000
00000000
00001000
00000000
00000000
00001000
00000000
,
00000000
00000010
00000100
00000000
00001000
00000000
00010000
00000000
,
00022000
00000000
00000000
00000000
,
00000000
00003000
00100000
00000000
,
00002000
00000000
00000000
00033000
,
00001000
00010000
00001000
00010000
00000000
01000000
10000000
00000000
,
00000000
00000000
00000000
00000000
;
#NOTES:
     dance-double:
     :
     Hard:
     12:
     :
00000000
00000000
00000000
00000000
,
00000000
00000000
00000000
00000000
,
00000000
00000000
00000000
00000000
,
00000000
00000000
00000000
00000000
,
00000000
00000000
00000000
00000000
,
01001000
00010000
00000000
00000000
00000000
00000000
00000000
00000000
,
00100000
00000000
10000000
00000000
01000000
00000000
00000000
00000000
00010000
00000000
00000000
00001000
00000000
00000000
00010000
00000000
,
00010100
00001000
00000000
00000000
00000000
00000000
00000000
00000000
,
00000010
00000001
00000100
00000000
00001000
00000000
00010000
00001000
,
00010000
00000000
00000000
01000000
00000000
00000000
10000000
00000000
00010000
00000000
00000000
00000000
10000000
00000000
01000000
00000000
,
00010000
00000000
00000000
00001000
00000000
00000000
00000100
00000000
00000001
00000000
00000000
00000000
00001000
00000000
00000001
00000000
,
00000100
00000000
00000000
00001000
00000000
00000000
00010000
00000000
00001000
00000000
00000000
00000000
00010000
00000000
01000000
00000000
,
10000000
00000000
00000000
00010000
00000000
00000000
10000000
00000000
01000000
00000000
00000000
01000000
00000000
00000000
00000000
00000000
,
10000000
00000000
00000000
00000000
10010000
00000000
00000000
00100000
10000000
00000000
01000000
00000000
00010000
00000000
00000000
00000000
,
00000100
00000000
00000010
00000000
00000001
00000100
00000010
00000000
,
00001000
00000000
00000001
00000000
00000100
00001000
00010000
00000000
,
00001000
01000000
00010000
10000000
01000000
00000000
01000000
00010000
,
00001000
00000000
00000000
00000000
00011000
00000000
00000000
00010000
00000100
00000000
00001000
00000000
00000010
00000000
00000000
00000000
,
00000100
00000000
00000001
00000000
00000010
00000100
00001000
00000001
,
00001000
00000000
00000010
00000000
00000100
00001000
00010000
01000000
,
00000000
00100000
02000000
00000000
00000000
00000000
03000000
00000000
,
10000000
00000000
00000000
00100000
00000000
00000000
01000000
00000000
10000000
00000000
00000000
01000000
00000000
00000000
00010000
00000000
,
00100000
00000000
00000000
01000000
00000000
00000000
00010000
00000000
00001000
00000000
00000000
00010000
00000000
00000000
00000010
00000000
,
00000001
00000000
00000000
00001000
00000000
00000000
00000100
00000000
00000010
00000000
00010000
00000000
00001000
00000000
00100000
00000000
,
01000000
00010000
00001000
00000010
,
00000001
00000000
00000000
00001000
00000000
00000000
00000010
00000000
00000100
00000000
00000000
00001000
00000000
00000000
00010000
00000000
,
01000000
00000000
00000000
00100000
00000000
00000000
00001000
00000000
00010000
00000000
00000000
01000000
00000000
00000000
10000000
00000000
,
00100000
00000000
00000000
00100000
00000000
00000000
01000000
00000000
00010000
00000000
00000000
10010000
00000000
00000000
00100000
00000000
,
00010000
00000000
00000000
00010000
00000000
00000000
00001000
00000000
00000010
00000000
00000000
00000110
00000000
00000000
00000001
00000000
,
00001000
00000001
00000100
00001000
,
00000010
00000001
00000100
00001001
,
00000010
00000000
00000000
00000001
00000000
00000000
00000100
00000000
00000000
00001000
00000000
00000000
00010000
00000000
01000000
00000000
,
10000000
00000000
00000000
00100000
00000000
00000000
00010000
00000000
00001000
00000000
00000000
00000000
00011000
00000000
00000000
00000000
,
00001000
00000000
00010000
00000000
00001000
00000000
00010000
00000000
00101000
00000000
00000000
00011000
00000000
00000000
00010010
00000000
,
00000000
00000000
00001000
00000000
00010000
00000000
00001000
00000000
00010010
00000000
00000000
00011000
00000000
00000000
00101000
00000000
,
00000000
00010000
00001000
00000100
00000001
00000000
00000001
00001000
,
00000000
00000100
00000010
00000100
00001000
00000100
00010000
00000000
,
00010000
00000000
00001000
00000000
00010000
00000000
00001000
00000000
00010100
00000000
00000000
00011000
00000000
00000000
01001000
00000000
,
00000000
00000000
00010000
00000000
00001000
00000000
00010000
00000000
01001000
00000000
00000000
00011000
00000000
00000000
00010100
00000000
,
00000000
00000000
00001000
00000000
00010000
00000000
01000000
00000000
10000000
00000000
00000000
00010000
00000000
00000000
10000000
00000000
,
00000000
01000000
00100000
00000000
01000000
00000000
00010000
00000000
,
00002000
00000000
00000000
00000100
00000100
00000000
00000000
00010000
,
00023000
00000000
00000000
01000000
01000000
00000000
00000000
00001000
,
00032000
00000000
00000000
00000010
00000010
00000000
00000000
00010000
,
00023000
00000000
00000000
00100000
00130000
00000000
00000000
00000000
,
00001000
00000000
00000000
00000000
00000010
00000000
00000000
00000000
00000100
00000000
00000000
00001001
00000000
00000000
00000000
00000000
,
00000100
00000000
00001000
00000000
00010000
00000000
00000000
00000000
01000000
00000000
00000000
10010000
00000000
00000000
00000000
00000000
,
00100000
00000000
00000000
00000000
00010000
00000000
00000000
00000000
00000100
00000000
00000000
00001001
00000000
00000000
00000000
00000000
,
00000010
00000000
00001000
00000000
00010000
00000000
00000000
00000000
01000000
00000000
00000000
10010000
00000000
00000000
00000000
00000000
,
01000000
00000000
00000000
00000000
00011000
00000000
00000000
00000000
00000100
00000000
00000000
00001001
00000000
00000000
00000000
00000000
,
00000020
00000000
00000000
00000000
00001000
00000000
00000000
00000000
00000100
00000000
00000000
00000130
00000000
00000000
00000000
00000000
,
00001000
00000000
00000000
00000000
00010000
00000000
00000000
00000000
01000000
00000000
00000000
10010000
00000000
00000000
00000000
00000000
,
10000000
00000000
01000000
00000000
00010000
00000000
00001000
00000000
00000100
00000000
00000000
00001001
00000000
00000000
00000000
00000000
,
00000002
00000000
00000013
00000100
00000002
00000000
00000103
00001000
,
00000020
00000000
00000000
00000000
00000230
00000000
00000000
00000000
00001300
00000000
00000000
00010000
00000000
00000000
01000000
00000000
,
20000000
00000000
30100000
01000000
20000000
00000000
31000000
00010000
,
00200000
00000000
01300000
00010000
00001000
00000000
00011000
00000000
,
00000010
00000000
00000001
00001000
00000020
00000000
00000130
00000000
,
00000002
00000000
00000000
00000000
00000023
00000000
00000000
00000000
00001030
00000000
00000000
00010000
00000000
00000000
00001000
00000000
,
00200000
00000000
01300000
10000000
00100000
00000000
01000000
00000000
,
00010000
01000000
00001000
00100000
00101000
00000000
00011000
00000000
,
00010100
00001000
00000000
00000000
00000000
00000000
00000000
00000101
,
00000000
00000011
00000000
00000000
00000000
00000000
00000000
00011000
,
00000000
01001000
00000000
00000000
00000000
00000000
00000000
00000000
,
20020000
30030000
01000000
00100000
,
00010000
00000000
00001000
00000000
00010000
00000000
00001000
00000000
00010100
00000000
00000000
00011000
00000000
00000000
00101000
00000000
,
00000000
00000000
00010000
00000000
00001000
00000000
00010000
00000000
01001000
00000000
00000000
00011000
00000000
00000000
00010010
00000000
,
00000000
00000000
00001000
00000000
00000100
00000000
00000010
00000000
00000001
00000000
00000000
00001000
00000000
00000000
00000001
00000000
,
00000000
00000100
00000010
00000000
00000010
00000100
00001000
00000000
,
00010000
00000000
00001000
00000000
00010000
00000000
00001000
00000000
01010000
00000000
00000000
00011000
00000000
00000000
00001010
00000000
,
00000000
00000000
00010000
00000000
00001000
00000000
00010000
00000000
00001100
00000000
00000000
00011000
00000000
00000000
00110000
00000000
,
00000000
00000000
00001000
00000000
00010000
00000000
01000000
00000000
10000000
00000000
00000000
00010000
00000000
00000000
10010000
00000000
,
00000000
00010000
01000000
00000000
00100000
00000000
10000000
00000000
,
00020000
00000000
01000000
00000000
,
10000000
00000000
00100000
00000000
,
00032000
00000000
00000100
00000000
,
00003001
00000100
00001000
00010000
00000000
00010000
00011000
00000000
,
00000000
00000000
00000000
00000000
;
#NOTES:
     dance-double:
     :
     Challenge:
     16:
     :
00000000
00000000
00000000
00000000
,
00000000
00000000
00000000
00000000
,
00000000
00000000
00000000
00000000
,
00000000
00000000
00000000
00000000
,
00000000
00000000
00000000
00000000
,
01001000
00000000
01010000
00000000
01000000
00010000
10000000
00100000
10000000
00000000
00000000
01000000
00000000
00100000
00010000
00100000
,
00001000
00000000
00001000
00000000
00010000
00000000
00010000
00000000
00000100
00000000
00000000
00001000
00000010
00000000
00010000
00000000
,
00010100
00000000
00001100
00000000
00000100
00001000
00000001
00000010
00000001
00000000
00000000
00000100
00000000
00000010
00001000
00000010
,
00010000
00000000
00010000
00000000
00001000
00000000
00001000
00000000
01000000
00000000
00000000
00010000
00100000
00000000
00001000
00000000
,
00010000
00000000
00000000
01000000
10000000
00000000
00010000
00000000
01000000
00000000
00001000
00000000
00001000
00000000
00010000
00000000
,
00001000
00000000
00000000
00000100
00000001
00000000
00001000
00000000
00000010
00000000
00010000
00000000
00010000
00000000
00001000
00100000
,
00001000
00000000
00000000
00100000
00010000
00000000
10000000
00000000
00100000
00000000
01100000
00000000
01100000
00000000
00010000
00100000
,
00010000
00000000
00000000
00100000
00001000
00000000
00010000
00000000
00001000
00000000
00000000
00000100
00000020
00000000
00000000
00000000
,
00001030
00000000
00000000
00000000
00000001
00000000
00000000
00000010
00000100
00000000
00000010
00000001
00000010
00000000
00000001
00000000
,
00001000
00000000
00000100
00000000
00010000
00001000
00010000
00000000
00001000
01000000
00001000
01000000
00010000
00000000
10000000
00000000
,
00100000
00000000
01000000
00000000
00100000
10000000
00010000
00000000
00100000
00001000
00010000
00000000
00000010
00001000
00000001
00000000
,
00000010
00000000
00000100
00000000
00001000
00000000
00000010
00000000
00010000
00001000
00010000
00001000
00010000
00000000
00010000
00000000
,
00001000
00000000
00000000
00000000
00010000
00000000
00000000
00100000
01000000
00000000
00010000
10000000
01000000
00000000
10000000
00000000
,
00010000
00000000
00100000
00000000
00001000
00010000
00001000
00000000
00010000
00000100
00010000
00000000
00000100
00000000
00001000
00000000
,
00000001
00000000
00000010
00000000
00000100
00001000
00000100
00000000
00010000
00001000
00010000
00001000
00100000
00010000
00100000
00000000
,
00010000
00000000
10010000
00000000
10010000
00000000
00000000
10000000
01000000
00100000
00010000
00000000
01000000
00000000
00001000
00000000
,
00010000
00000000
00001000
00010000
00000100
00000000
00001000
00000000
00000001
00000010
00000001
00000010
00000100
00000000
00001000
00000000
,
00000010
00000000
00010000
00001000
01000000
00000000
00010000
00000000
10000000
00100000
10000000
00100000
01000000
00000000
00010000
00000000
,
10000000
00000000
01000000
00100000
00010000
00000000
00001000
00000000
00000100
00000000
00000010
00000000
00000001
00000000
00001000
00000000
,
00000100
00001100
00010000
00011000
00001000
00101000
00100000
00110000
,
00010000
00000000
10000000
01000000
00010000
00000000
00001000
00000000
00010000
00000100
00010000
00000100
00001000
00000000
00000010
00000000
,
00001000
00000000
00000001
00000100
00001000
00000000
00010000
00000000
00001000
00100000
00001000
00100000
00010000
00000000
01000000
00000000
,
00100000
00000000
00000000
10000000
01000000
00000000
00010000
00000000
00001000
00000000
00000000
00000010
00000001
00000000
00001000
00000000
,
00000001
00000000
00000000
00000100
00001000
00000000
00010000
00000000
00100000
01000000
00100000
01000000
00000000
00000000
00100000
10000000
,
01000000
00000000
10000000
00000000
00010000
00000000
00100000
00000000
00001000
00010000
00000100
00000000
00010000
00000000
00000100
00000000
,
00001000
00000001
00000100
00000000
00000001
00000010
00000100
00000000
00010000
00001000
00010000
00001000
00100000
00000000
00010000
00000000
,
10010000
00000000
00000000
10100000
00000000
00000000
10100000
00000000
00000000
01100000
00000000
00000000
01010000
00000000
00010000
01000000
,
00001000
00000000
00000000
00010000
00000000
00000000
00010100
00000000
00001100
00000000
00000000
00000000
00001001
00000000
00000000
00000000
,
00000201
00000000
00000000
00000000
00002300
00000000
00000000
00000000
00023000
00000000
00000000
00032000
00000000
00000000
00013000
00000000
,
00000000
00001000
00010000
01000000
10000000
00000000
00010000
00000000
00200000
00000000
00000000
00302000
00000000
00000000
00013000
00000000
,
00000100
00000000
00001000
00000100
00001000
00000000
00000001
00000000
00000100
00000000
00000010
00000100
00000010
00000000
00001000
00000000
,
00000100
00010000
00011000
00001000
00101000
00100000
00010000
10000000
,
12000000
00000000
00000000
00000000
03020000
00000000
00000000
00000000
00032000
00000000
00000000
00023000
00000000
00000000
00031000
00000000
,
00000000
00010000
00001000
00000100
00000001
00000000
00001000
00000000
00000020
00000000
00000000
00020000
00000030
00000000
00031000
00000000
,
00010000
00000000
00001000
01000000
00010000
00000000
10000000
00000000
01000000
00010000
00000000
00010000
00001000
00000000
00011000
00000000
,
00000000
00000000
00010000
00000000
00001000
00000000
00000100
00000000
00000001
00000010
00000100
00001000
00000100
00010000
00001000
00100000
,
00010000
00000000
00000000
10000000
00100000
00000000
01000000
00000000
00010000
00000000
00110000
00000000
00110000
00000000
00100000
00001000
,
00010000
00000000
00000000
00000100
00000010
00000000
00000001
00000000
00001000
00000000
00001100
00000000
00001100
00000000
00000100
00010000
,
00001000
00000000
00000000
00100000
01000000
00000000
10000000
00000000
00010000
00000000
01010000
00000000
01010000
00000000
01000000
00001000
,
00010000
00000000
00000000
00000010
00000100
00000000
00000001
00000000
00001000
00000010
00000000
00000010
00020000
00000000
00000000
00000000
,
00031000
00000000
01000000
00000000
00100000
00000000
01000000
00000000
00010000
00000000
10000000
01000000
00100000
00000000
00010000
00000000
,
10000000
00000000
01000000
00000000
00010000
00000000
00001000
00000000
00000100
00000000
00000001
00001000
00000001
00000000
00000100
00000000
,
00000001
00000000
00000010
00000000
00000100
00000000
00000010
00000000
00000001
00000000
00001000
00000010
00000100
00000000
00000001
00000000
,
00000010
00000000
00001000
00000000
00010000
00000000
00100000
00000000
10000000
00000000
00100000
01000000
00100000
00000000
01000000
00000000
,
01010000
00000000
10000000
00000000
01000000
00000000
00100000
00000000
00010000
00000000
00100000
00001000
00010000
00000000
00000100
00000000
,
00010100
00000000
00010000
00000000
00001000
00000000
00000100
00000000
00000001
00000000
00000010
00000001
00001000
00000000
00000010
00000000
,
00001010
00000000
00000001
00000000
00000010
00000000
00000100
00000000
00001000
00000000
00000100
00010000
00001000
00000000
00100000
00000000
,
00101000
00000000
00101000
00000000
00110000
00000000
10010000
00000000
11000000
00000000
00000000
10010000
00000000
00000000
00000000
00000000
,
00020000
00000000
00000000
00000000
10030000
01000000
00100000
00010000
01000000
00000000
00000000
00001000
00000000
00010000
00001000
00000100
,
00000010
00000000
00000000
00000001
00000010
00000000
00000000
00000010
00001000
00000000
00000000
00001000
00000001
00000000
00000100
00000000
,
00000002
00000000
00000000
00000000
00001003
00000100
00000010
00000001
00001000
00000000
00000000
00000100
00000000
00010000
00001000
00100000
,
00010000
00000000
00000000
10000000
01000000
00000000
00010000
00001000
00000010
00000000
00000000
00000000
00000101
00000000
00000000
00000000
,
00002000
00000000
00000000
00000000
00003001
00000010
00000100
00001000
00000010
00000000
00000000
00010000
00000000
00001000
00010000
00100000
,
01000000
00000000
00000000
10000000
01000000
00000000
00000000
01000000
00010000
00000000
00000000
00010000
10000000
00000000
01000000
00010000
,
00002000
00000000
00000000
00000000
00003010
00000001
00001000
00000100
00000010
00000000
00000000
00000100
00000000
00010000
00001000
01000000
,
00010000
00000000
00010000
10000000
00100000
01000000
00100000
10000000
00010000
00000000
00000000
00000000
01000000
00000000
00000000
00000000
,
00011000
00011000
00000000
00000000
00000000
00000000
00000000
00000101
,
00000000
00000011
00000000
00000000
00000000
00000000
00000000
00011000
,
00000000
00000000
01001000
00000000
00000000
00000000
00000000
00000000
00000000
00000000
00000000
00000000
10000000
00010000
10000000
00010000
,
10000000
00100000
01000000
00100000
10000000
01000000
00010000
00001000
,
00000010
00000100
00000010
00000000
00000001
00000010
00000001
00000000
00001000
00000100
00000000
00001100
00000000
00000000
00000001
00000000
,
00000000
00000100
00001000
00010000
00001000
00000000
00010000
01000000
00100000
00010000
00100000
00010000
00000000
00000000
10000000
00000000
,
00010000
00100000
00010000
00000000
00100000
00001000
00100000
00000000
00001000
00010000
00001000
00000000
00010000
00000100
00010000
00000000
,
00000100
00001000
00000001
00000010
00000100
00000000
00000010
00000000
00000001
00001000
00000100
00010000
00001000
00000000
00100000
00000000
,
00010000
01000000
00010000
00000000
10000000
00100000
10000000
00000000
00010000
01000000
00000000
01010000
00000000
00000000
10000000
00000000
,
00000000
01000000
00010000
00001000
00010000
00000000
00001000
00000100
00000010
00001000
00000010
00001000
00000000
00000000
00000001
00000000
,
00000010
00000100
00001000
00000000
00000100
00010000
00001000
00000000
00010000
01000000
00000000
10000000
00010000
00000000
10010000
00000000
,
10000000
00100000
01000000
00010000
00100000
00000000
00001000
00000000
00010000
00000100
00001000
00000001
00000010
00000000
00000010
00000000
,
00001000
00000010
00000001
00001000
00000100
00010000
01000000
00100000
,
00010000
01000000
10000000
01000000
00100000
00010000
00001000
00010000
,
00100000
00010000
00001000
00000010
00000001
00001000
00010000
10000000
,
01000000
01000000
00100000
00010000
00000000
01100000
10010000
00000000
,
00000000
00000000
00000000
00000000
;
