#TITLE:フー・フローツ;
#ARTIST:Nanako;
#TITLETRANSLIT:Who Floats;
#BANNER:Who Floats.png;
#BACKGROUND:Who Floats-bg.png;
#CDTITLE:./CDTitles/jubeat saucer.png;
#MUSIC:Who Floats.ogg;
#SAMPLESTART:58.667;
#SAMPLELENGTH:15;
#BPMS:0=180;
#STAGE:3;

//---------------dance-single - ----------------
#NOTES:
     dance-single:
     :
     Beginner:
     3:
     :
0000
0000
0000
0000
,
0000
0000
0000
0000
,
0000
0000
0000
0000
,
0000
0000
0000
0000
,
0001
0000
0000
0000
,
1000
0000
0000
0000
,
0001
0000
0000
0000
,
1000
0000
0000
0000
,
0001
0000
0000
0000
,
0010
0000
0000
0000
,
0100
0000
0000
0000
,
1000
0000
0000
0000
,
0001
0000
0001
0000
,
0010
0000
0010
0000
,
1000
0000
1000
0000
,
0100
0000
0100
0000
,
1000
0000
1000
0000
,
0010
0000
0010
0000
,
1001
0000
0000
0000
,
0000
0000
0000
0000
,
0001
0000
0000
0000
,
0100
0000
0000
0000
,
1000
0000
0000
0000
,
0010
0000
0000
0000
,
0001
0001
0001
0000
,
1000
1000
1000
0000
,
0010
0010
0010
0000
,
0100
0000
0000
0000
,
0001
0000
0010
0000
,
0001
0000
0010
0000
,
1000
0000
0001
0000
,
1000
0000
0000
0000
,
1000
0000
0010
0000
,
1000
0000
0010
0000
,
0100
0000
0000
0000
,
0001
0000
0000
0000
,
0010
0010
0010
0010
,
0010
0000
0000
0000
,
0100
0100
0100
0100
,
0100
0000
0000
0000
,
0001
0000
1000
0000
,
0001
0000
1000
0000
,
0001
0001
0001
0001
,
0001
0000
0000
0000
,
1000
0000
0010
0000
,
0001
0000
0010
0000
,
1000
0000
0001
0000
,
1000
0000
0000
0000
,
0001
0001
0001
0000
,
0100
0100
0100
0000
,
1000
0000
0000
0000
,
0010
0000
0000
0000
,
0001
0000
0010
0000
,
1000
0000
0010
0000
,
0001
0000
1000
0000
,
0001
0000
0000
0000
,
1000
1000
1000
0000
,
0100
0100
0100
0000
,
0001
0000
0000
0000
,
0010
0000
0000
0000
,
1000
1000
1000
0000
,
0001
0001
0001
0000
,
1001
0000
0000
0000
,
0000
0000
0000
0000
,
0010
0000
1000
0000
,
0001
0000
0000
0000
,
1000
0000
0100
0000
,
0010
0000
0001
0000
,
0001
0000
0010
0000
,
0100
0000
1000
0000
,
0001
0001
0001
0000
,
0100
0100
0100
0000
,
1000
1000
1000
0000
,
0010
0010
0010
0000
,
0001
0001
0001
0000
,
1000
1000
1000
0000
,
0001
0000
0010
0000
,
1000
0000
0100
0000
,
0010
0000
0001
0000
,
0100
0000
0010
0000
,
1001
0000
0000
0000
,
0000
0000
0000
0000
;

//---------------dance-single - ----------------
#NOTES:
     dance-single:
     :
     Easy:
     6:
     :
0000
0000
0000
0000
,
0000
0000
0000
0000
,
0000
0000
0000
0000
,
0000
0000
0000
0000
,
0010
0001
1000
0000
,
0000
0000
0000
0000
,
0010
1000
0001
0000
,
1000
0000
0000
0000
,
0100
1000
0010
0000
,
0100
0001
0010
0000
,
1000
0000
0000
0000
0001
0000
0000
2000
,
0000
0000
0000
3000
,
0001
1000
0001
0000
,
0010
0010
0001
0001
,
0100
0010
0100
0000
,
0001
0001
1000
1000
,
0100
0010
0001
0000
,
0010
0010
0100
0100
,
2002
0000
0000
0000
0000
0000
0000
3003
,
0000
0000
0000
0000
,
0002
0000
0000
0003
,
2000
0000
0000
3000
,
0020
0000
0000
0030
,
0002
0000
0000
0003
,
0010
0010
0001
0001
,
0100
0100
1000
1000
,
0010
1000
0100
0001
,
1000
0000
0000
0000
,
1000
0100
0001
0000
,
0001
0100
1000
0000
,
0001
1000
0010
0000
,
0001
0100
1000
0000
,
0001
1000
0001
1000
,
0010
0100
0010
0100
,
0001
0000
1000
0000
,
0001
0010
0100
1000
,
0001
0001
1000
1000
,
1001
0000
0000
0000
,
0010
0010
0100
0100
,
0110
0000
0000
0000
,
0001
0010
0001
0000
,
1000
0010
1000
0000
,
0001
0010
1000
0001
,
1001
0000
0000
0000
,
0100
0010
0100
0010
,
1000
0010
1000
0010
,
0100
0001
0100
0000
,
1001
0000
0100
0000
,
0010
0001
0100
0000
,
0010
1000
0100
0000
,
1000
0001
0100
0001
,
2000
0000
0000
3000
,
0100
0010
0100
0010
,
0100
1000
0100
1000
,
0010
0100
0010
0000
,
1001
0000
0100
0000
,
1000
0010
0100
0000
,
0001
0010
0100
0000
,
0001
1000
0100
1000
,
0010
0000
1000
0000
,
0010
1000
0001
0000
,
0010
0001
1000
0000
,
0010
0000
0000
0000
,
0001
1000
0100
0000
,
1000
0000
0010
0000
,
2000
0000
0002
3003
,
0010
0001
0100
0000
,
0010
1000
0100
0000
,
1000
1000
0010
0010
,
0001
0001
0100
0100
,
1000
0001
1000
0000
,
0010
0010
1000
1000
,
0100
0010
0100
0000
,
1000
1000
0001
0001
,
0100
0010
1000
0000
,
0010
0010
0100
0100
,
0001
0100
0010
0000
,
1000
0100
0010
0000
,
0001
0010
1000
0000
,
1000
0010
0001
0000
,
1001
0000
0000
0000
,
0000
0000
0000
0000
;

//---------------dance-single - ----------------
#NOTES:
     dance-single:
     :
     Medium:
     9:
     :
0000
0000
0000
0000
,
0000
0000
0000
0000
,
0000
0000
0000
0000
,
0000
0000
0000
0000
,
0010
1000
0000
0100
0000
1000
0000
0001
,
0000
0000
0010
0001
,
1000
0001
0000
0100
0000
0010
0000
0010
,
0000
0000
1000
0100
,
0010
0001
0000
1000
0000
0001
0000
0010
,
0000
1000
0001
0100
,
0001
0000
0000
0000
1000
0000
0000
0220
,
0000
0000
0000
0330
,
1000
0000
0100
0000
1000
0001
0100
0000
,
0001
0000
0010
0000
1000
0010
1000
0000
,
0010
0000
0100
0000
0010
1000
0100
0000
,
0010
0000
0001
0000
1000
0001
0010
0000
,
0001
0000
0100
0000
0010
1000
0100
0000
,
0010
0000
1000
0000
0001
0100
0010
0000
,
1000
0100
0000
0100
0000
0000
0001
0100
,
0000
0000
0000
0000
,
2200
0000
0000
0000
0000
3300
0000
0010
,
0002
0000
0000
0003
,
0200
0000
0000
0000
0000
0300
0000
0010
,
2000
0000
0000
3000
,
0100
0100
0001
0001
,
0010
0010
1000
1000
,
0100
0000
0001
0000
0010
0000
1000
0001
,
1000
0000
0000
0000
,
0001
0100
0010
0000
1000
0000
0100
0000
,
0010
0001
0100
0000
0010
0000
0100
0000
,
1000
0000
0001
0100
0000
0100
0000
0010
,
1000
0000
0001
0010
,
1000
0100
0010
0000
0001
0100
0010
0000
,
1000
0010
0100
0000
0001
0010
0100
0000
,
1000
0000
0010
0000
0001
0000
1000
0100
,
0001
0000
0100
0000
1000
0000
0001
0010
,
1000
0001
0110
1010
,
0101
0000
0000
0000
0010
0001
0100
0000
,
0001
1000
0011
0110
,
1100
0000
0000
0000
0001
1000
0100
0000
,
1000
1000
0000
0010
0010
0000
0001
0001
,
0000
0010
0010
0000
0001
1000
0010
0000
,
0100
0101
1000
1100
,
1001
0000
0000
0000
,
0010
1000
0100
0000
0010
0001
0100
0000
,
0010
0100
0010
0000
1000
0001
1000
0000
,
0010
0000
1000
0001
0000
0011
0000
1100
,
0000
0000
0001
1000
,
0100
1000
0100
1000
0100
0000
0010
0001
,
0010
0001
0010
0000
0001
1000
0010
1000
,
0001
0000
1000
0010
0000
0100
0000
0110
,
0000
0000
1000
0001
,
0010
0001
0100
0000
0010
1000
0100
0000
,
0010
0100
0010
0000
0001
1000
0001
0000
,
0010
0000
0001
1000
0000
1010
0000
0101
,
0000
0000
1000
0001
,
0100
0001
0100
0001
0100
0000
0010
1000
,
0010
1000
0010
0000
1000
0001
0010
0001
,
1000
0000
0001
0010
0000
0100
0000
0110
,
0000
0010
0001
0100
,
2010
0001
3100
0001
,
0012
0000
1000
0000
0103
0000
1000
0010
,
0100
0000
0000
0010
0000
0000
0000
0000
,
1000
0000
0001
0010
0000
0100
0010
0000
,
0001
0100
1000
0010
,
2000
0000
0002
3003
,
0010
0010
0000
0001
0001
0000
1000
1000
,
0000
0010
0010
0000
0001
0000
0010
0000
,
1010
1100
0101
0011
,
0101
1100
1010
0011
,
0001
0000
0100
0000
0001
1000
0100
0000
,
1000
0000
0010
0000
0001
0010
0001
0000
,
0010
0000
0100
0000
0010
0001
0100
0000
,
0010
0000
1000
0000
0001
1000
0010
0000
,
1000
0000
0100
0000
0010
0001
0100
0000
,
0010
0000
1000
0000
0001
0100
0010
0000
,
1000
0000
0010
0000
0100
0000
0001
1000
,
0001
0000
0010
0000
0100
0000
1000
0001
,
1000
0010
0100
0000
0010
0100
0001
0000
,
0001
0010
0100
1000
0001
0100
0010
0000
,
1001
0000
0000
0000
,
0000
0000
0000
0000
;

//---------------dance-single - ----------------
#NOTES:
     dance-single:
     :
     Hard:
     12:
     :
0000
0000
0000
0000
,
0000
0000
0000
0000
,
0000
0000
0000
0000
,
0000
0000
0000
0000
,
0010
0001
0000
0100
0000
0001
0000
0010
,
0000
0100
1000
0010
,
0001
1000
0000
0100
0000
0010
0000
0011
,
0000
0010
0100
0010
,
1000
0010
0000
1000
0000
0001
0000
0010
,
0000
0100
1000
0010
,
1000
0000
0000
0000
0001
0000
0000
0220
,
0000
0000
0000
0330
,
0001
0000
0010
0000
0100
0000
1000
0000
0001
0000
1000
0100
1000
0000
0100
0000
,
0010
0100
0010
0100
0010
0001
0010
0001
,
1000
0010
0100
0001
0100
0100
0001
0100
,
1000
0100
0001
0100
0010
1000
0001
1000
,
0100
1000
0100
1000
0010
0010
1000
0001
,
0010
0001
0100
0010
1000
0100
0010
0001
,
1000
0001
0000
0001
0000
0000
0100
1100
,
0000
0000
0000
0000
,
2002
0000
0000
0000
0000
3003
0000
0010
,
2000
0000
0000
3000
,
0200
0000
0000
0000
0000
0300
0000
0001
,
0020
0000
0000
0030
,
0100
0100
1000
1000
,
0010
0010
0001
0001
,
0100
0000
1000
0000
0010
0000
0001
1000
,
0001
0000
0000
0000
,
1000
0100
0010
0001
0000
1000
0001
0100
,
0000
0010
1000
0100
0000
0010
0100
1000
,
0001
0000
1000
0100
0000
0100
0000
0010
,
0001
0010
1000
0010
,
0001
0100
0010
0100
0000
0010
1000
0100
,
0000
0011
0000
1100
0000
0011
0000
1100
,
0100
1000
0100
0010
0001
1000
0001
0010
,
0100
1000
0001
0100
0010
1000
0010
0100
,
0001
1000
0110
1001
,
0110
0000
0000
0000
1000
0100
0001
0000
,
1000
0001
0110
1001
,
0110
0000
0000
0000
0001
0100
1000
0000
,
0001
0001
0100
0010
0010
0100
1000
1000
,
0100
0010
0010
0100
0010
1000
0001
1000
,
0010
1010
1001
0101
,
1100
0000
0000
0000
,
0001
0010
0001
0010
0100
1000
0100
1000
,
0001
1000
0001
1000
0010
0100
0010
0100
,
0001
0010
0001
1000
0000
1010
0000
0101
,
0000
0010
0100
0000
1000
0001
0100
0000
,
1000
0100
0001
0100
1000
0000
0001
0010
,
1000
0010
0001
0000
1000
0100
0001
0100
,
1000
0000
0001
0010
0000
1100
0000
0101
,
0000
0010
0001
0100
,
1000
0010
1000
0010
0100
0001
0100
0001
,
1000
0001
1000
0001
0010
0100
0010
0100
,
1000
0010
1000
0001
0000
0011
0000
1100
,
0000
0010
0100
0000
0001
1000
0100
0000
,
0001
0100
1000
0100
0001
0000
1000
0010
,
0001
0010
1000
0000
0001
0100
1000
0100
,
0001
0000
1000
0010
0000
0101
0000
1100
,
0000
0000
0010
0000
1000
0000
0100
1000
,
0001
0000
0011
0000
1100
0000
0010
0001
,
1000
0000
0101
0000
1100
0000
0010
1000
,
0001
0000
0000
0100
0010
0000
0000
0000
,
0001
1000
0010
0100
0000
0010
1000
0010
,
0001
1000
0100
0001
0100
1000
,
0002
0000
0020
0033
,
1000
1000
0100
0010
0010
0100
0001
0001
,
0100
0010
0010
0100
1000
0100
0010
0001
,
0010
0001
0000
0000
0100
0001
0000
0000
0010
1000
0000
0000
0100
1000
0000
0000
,
0010
0100
0000
0000
0001
1000
0000
0000
0100
0010
0000
0000
1000
0001
0000
0000
,
1000
0000
0010
0000
0100
0000
0001
0000
1000
0000
0001
0100
0001
0000
0100
0000
,
0010
0100
0010
0100
0010
1000
0010
1000
,
0001
0010
0100
1000
0100
0100
1000
0100
,
0001
0100
1000
0100
0010
0001
1000
0001
,
0100
0001
0100
0001
0010
0010
0001
1000
,
0010
1000
0100
0010
0001
0100
0010
1000
,
0001
1000
0010
1000
0100
1000
0001
1000
,
1000
0001
0010
0001
0100
0001
1000
0001
,
0001
0010
0100
1000
0001
0100
0010
1000
,
1000
0010
0100
0001
1000
0100
0010
0001
,
1001
0000
0000
0000
,
0000
0000
0000
0000
;

//---------------dance-double - ----------------
#NOTES:
     dance-double:
     :
     Easy:
     6:
     :
00000000
00000000
00000000
00000000
,
00000000
00000000
00000000
00000000
,
00000000
00000000
00000000
00000000
,
00000000
00000000
00000000
00000000
,
00000100
00001000
00000010
00000000
,
00000000
00000000
00000000
00000000
,
00000100
00000001
00000010
00000000
,
00000001
00000000
00000000
00000000
,
00001000
00000001
00000100
00000000
,
00001000
00010000
00001000
00000000
,
00010000
00000000
00000000
00000000
01000000
00000000
00000000
00200000
,
00000000
00000000
00000000
00300000
,
00010000
10000000
00010000
00000000
,
01000000
01000000
00100000
00100000
,
10000000
01000000
10000000
00000000
,
01000000
01000000
00010000
00010000
,
00001000
00010000
00001000
00000000
,
00000100
00000100
00000010
00000010
,
00002002
00000000
00000000
00000000
00000000
00000000
00000000
00003003
,
00000000
00000000
00000000
00000000
,
00000020
00000000
00000000
00000030
,
00000002
00000000
00000000
00000003
,
00000200
00000000
00000000
00000300
,
00002000
00000000
00000000
00003000
,
00010000
00001000
00010000
00000000
,
00100000
01000000
00100000
00000000
,
00010000
01000000
00100000
10000000
,
00010000
00000000
00000000
00000000
,
10000000
00100000
01000000
00000000
,
00010000
00100000
01000000
00000000
,
10000000
01000000
00010000
00000000
,
00001000
00000010
00000001
00000000
,
00001000
00000001
00001000
00000001
,
00000100
00000010
00000100
00000010
,
00001000
00000000
00000001
00000000
,
00000100
00000010
00010000
00001000
,
00010000
00010000
00001000
00001000
,
00011000
00000000
00000000
00000000
,
01000000
01000000
00100000
00100000
,
01100000
00000000
00000000
00000000
,
00100000
10000000
01000000
00000000
,
00100000
00010000
01000000
00000000
,
00001000
00001000
00010000
00001000
,
00011000
00000000
00000000
00000000
,
00000010
00001000
00000010
00001000
,
00000001
00000100
00000001
00000100
,
00000010
00001000
00000100
00000000
,
00001001
00000000
00000000
00000000
,
00000010
00010000
00001000
00000000
,
00100000
00001000
00010000
00000000
,
00000100
00010000
00001000
01000000
,
00010000
00000000
00000000
00000000
,
00100000
00010000
00100000
00010000
,
10000000
01000000
10000000
01000000
,
00100000
00010000
01000000
00000000
,
10010000
00000000
00000000
00000000
,
00100000
00001000
00010000
00000000
,
00000010
00010000
00001000
00000000
,
01000000
00001000
00010000
00000100
,
00000010
00000000
00000001
00000000
,
00000100
00000010
00001000
00000000
,
00000100
00000010
00000001
00000000
,
00000100
00000000
00000000
00000000
,
00001000
00010000
00001000
00000000
,
00010000
00000000
00100000
00000000
,
20000000
00000000
00020000
30030000
,
00100000
00010000
10000000
00000000
,
00100000
10000000
00010000
00000000
,
10000000
10000000
01000000
01000000
,
00010000
00010000
00001000
00001000
,
00000010
00000001
00001000
00000000
,
00000100
00000100
00000010
00000010
,
00000001
00000100
00000001
00000000
,
00000100
00000100
00001000
00001000
,
00010000
00001000
00010000
00000000
,
01000000
01000000
00100000
00100000
,
00010000
10000000
00100000
00000000
,
01000000
00100000
10000000
00000000
,
00010000
10000000
01000000
00000000
,
00100000
00001000
00010000
00000000
,
00011000
00000000
00000000
00000000
,
00000000
00000000
00000000
00000000
;

//---------------dance-double - ----------------
#NOTES:
     dance-double:
     :
     Medium:
     9:
     :
00000000
00000000
00000000
00000000
,
00000000
00000000
00000000
00000000
,
00000000
00000000
00000000
00000000
,
00000000
00000000
00000000
00000000
,
01000000
00010000
00000000
10000000
00000000
01000000
00000000
00100000
,
00000000
00000000
00001000
00010000
,
00000010
00001000
00000000
00000010
00000000
00000100
00000000
00000001
,
00000000
00000000
00000010
00000001
,
00000100
00001000
00000000
00010000
00000000
00001000
00000000
00100000
,
00000000
00010000
10000000
00100000
,
10000000
00000000
00000000
00000000
00010000
00000000
00000000
02200000
,
00000000
00000000
00000000
03300000
,
00010000
00000000
00100000
00000000
00010000
10000000
00100000
00000000
,
10000000
00000000
01000000
00000000
00010000
00001000
00010000
00000000
,
00001000
00000000
00000100
00000000
00000001
00001000
00000100
00000000
,
00000010
00000000
00000001
00000000
00000100
00000010
00001000
00000000
,
00000001
00000000
00000100
00000000
00001000
00010000
00001000
00000000
,
00010000
00000000
01000000
00000000
00100000
00010000
01000000
00000000
,
00100000
10000000
00000000
00010000
00000000
00000000
10000000
01000000
,
00000000
00000000
00000000
00000000
,
00200000
00000000
00000000
00000000
00000000
00300000
00000000
01000000
,
20000000
00000000
00000000
30000000
,
00200000
00000000
00000000
00000000
00000000
00300000
00000000
00010000
,
00002000
00000000
00000000
00003000
,
00000010
00000010
00000001
00000001
,
00000100
00000100
00000010
00000010
,
00010000
00000000
00100000
00000000
10000000
00000000
00010000
10000000
,
00010000
00000000
00000000
00000000
,
10000000
01000000
00100000
00000000
00010000
00000000
01000000
00000000
,
00100000
10000000
01000000
00000000
00100000
00000000
00001000
00000000
,
00010000
00000000
00000100
00001000
00000000
00000001
00000000
00000100
,
00000010
00000000
00001000
00001000
,
00000001
00000010
00000100
00000000
00001000
00000010
00000100
00000000
,
00001000
00000100
00000001
00000000
00000010
00000001
00000100
00000000
,
00000001
00000100
00001000
01000000
,
00100000
00010000
00001000
00100000
,
00110000
11000000
01010000
10100000
,
10010000
00000000
00000000
00000000
00100000
10000000
01000000
00000000
,
10100000
01010000
00011000
00001100
,
00000110
00000000
00000000
00000000
00000001
00001000
00000100
00000000
,
00000010
00000010
00000000
00000001
00000001
00000000
00001000
00001000
,
00000000
00000010
00000010
00000000
00000100
00000001
00000010
00000000
,
00000100
00001100
00010000
00011000
,
01010000
00000000
00000000
00000000
,
10000000
01000000
00100000
00000000
00010000
01000000
00100000
00000000
,
10000000
01000000
00010000
00000000
00010000
01000000
10000000
00000000
,
00010000
00000000
01000000
00001000
00000000
00011000
00000000
00001010
,
00000000
00000000
00000001
00000100
,
00000010
00001000
00000010
00000100
00000010
00000000
00001000
00000001
,
00001000
00000100
00001000
00000000
00000010
00010000
00000010
00001000
,
00000010
00000000
00010000
00001000
00000000
00110000
00000000
01100000
,
00000000
00000000
00010000
10000000
,
00100000
10000000
01000000
00000000
00100000
00010000
01000000
00000000
,
00001000
00010000
00000100
00000000
00000010
00000001
00000100
00000000
,
00000010
00000000
00001000
00000001
00000000
00000110
00000000
00001001
,
00000000
00000000
00000100
00001000
,
00010000
00000010
00001000
00000010
00010000
00000000
00001000
00100000
,
00010000
00100000
00001000
00000000
01000000
00100000
00010000
00100000
,
01000000
00000000
00100000
10000000
00000000
00010000
00000000
01100000
,
00000000
00000000
01000000
00000000
10000000
00000000
00100000
01000000
,
00100000
00000000
00010000
00000000
00001000
00000000
00000010
00000100
,
00000010
00000000
00000001
00000000
00001000
00000000
00000010
00000100
,
00000001
00000000
00001000
00000000
,
00000010
00001000
00000001
00000000
,
00000010
00000001
00000100
00001000
00010000
00100000
,
20000000
00000000
00020000
30030000
,
00100000
00100000
00000000
00010000
00010000
00000000
00100000
00100000
,
00000000
01000000
01000000
00000000
10000000
00000000
01000000
00000000
,
01010000
11000000
10100000
00110000
,
00011000
00001010
00000011
00000101
,
00001000
00000000
00000010
00000000
00001000
00000001
00000010
00000000
,
00000001
00000000
00000100
00000000
00001000
00010000
00001000
00000000
,
00010000
00000000
01000000
00000000
10000000
00010000
01000000
00000000
,
00100000
00000000
10000000
00000000
01000000
00100000
00010000
00000000
,
10000000
00000000
01000000
00000000
00010000
00001000
00010000
00000000
,
00001000
00000000
00000100
00000000
00000010
00001000
00000100
00000000
,
00000010
00000000
00000001
00000000
00000100
00000000
00000010
00000100
,
00000010
00000000
00010000
00000000
00001000
00000000
00100000
01000000
,
00100000
00010000
00100000
00000000
01000000
10000000
00100000
00000000
,
10000000
01000000
00100000
00010000
10000000
00100000
00010000
00000000
,
00011000
00000000
00000000
00000000
,
00000000
00000000
00000000
00000000
;

//---------------dance-double - ----------------
#NOTES:
     dance-double:
     :
     Hard:
     13:
     :
00000000
00000000
00000000
00000000
,
00000000
00000000
00000000
00000000
,
00000000
00000000
00000000
00000000
,
00000000
00000000
00000000
00000000
,
00000010
00001000
00000000
00000100
00000000
00001000
00000000
00000001
,
00000000
00000100
00001000
00010000
,
01000000
10000000
00000000
00010000
00000000
01000000
00000000
10200000
,
00000000
00000000
01000000
01300000
,
00100000
10000000
00000000
01000000
00000000
00100000
00000000
00001000
,
00000000
00000010
00000001
00000100
,
00000010
00000000
00000000
00000000
00001000
00000000
00000000
00000202
,
00000000
00000000
00000000
00000303
,
00001000
00000000
00000100
00000000
00001000
00000000
00000100
00000000
00000010
00000000
00000001
00000100
00000001
00000000
00000100
00000000
,
00001000
00000100
00001000
00000100
00001000
00010000
00001000
00010000
,
01000000
10000000
01000000
10000000
00010000
00010000
01000000
00100000
,
10000000
00100000
10000000
00100000
10000000
01000000
10000000
01000000
,
00010000
00001000
00010000
00001000
00000100
00000100
00000001
00000100
,
00000001
00000010
00000001
00000010
00000100
00001000
00000100
00001000
,
00000010
00010000
00000000
00100000
00000000
00000000
10000000
00010000
,
00000000
00000000
00000000
00000000
,
02200000
00000000
00000000
00000000
00000000
03300000
00000000
10000000
,
00200000
00000000
00000000
00300000
,
00020000
00000000
00000000
00000000
00000000
00030000
00000000
00001000
,
00000020
00000000
00000000
00000030
,
00000001
00000001
00000100
00000100
,
00001000
00010000
01000000
10000000
,
00010000
00000000
01000000
00000000
00100000
00000000
10000000
00010000
,
10000000
00000000
00000000
00000000
,
00100000
10000000
01000000
00000000
00100000
00001000
01000000
00000000
,
00100000
00010000
00001000
00000000
00000100
00000010
00001000
00000000
,
00000100
00000010
00000001
00000100
00000000
00001000
00000000
00000100
,
00000001
00001000
00000100
00000000
00000010
00001000
00000010
00001000
,
00010000
01000000
00100000
00000000
00010000
10000000
00100000
00000000
,
01000000
00010000
00100000
00000000
01000000
10000000
00100000
00000000
,
00010000
00100000
01000000
00100000
00010000
00001000
00000100
00000010
,
00001000
00000100
00000001
00000100
00001000
00000001
00000100
00000010
,
00001000
00000001
00001010
00011000
,
00110000
00000000
00000000
00000000
00010000
00100000
01000000
10000000
,
00100000
10000000
01010000
00011000
,
00001100
00000000
00000000
00000000
00001000
00000100
00000001
00000000
,
00001000
00001000
00000100
00000010
00000010
00000001
00000100
00000100
,
00001000
00010000
00010000
00100000
10000000
00010000
00100000
01000000
,
01000000
11000000
01010000
00110000
,
10100000
00000000
00000000
00000000
,
00010000
00100000
01000000
00100000
00001000
00010000
00000010
00001000
,
00000001
00000100
00001000
00000100
00000001
00000010
00000100
00001000
,
00010000
00000000
00100000
01000000
00000000
11000000
00000000
01010000
,
00000000
00001000
00010000
00000000
00100000
10000000
01000000
00000000
,
00001000
00010000
00100000
00010000
00001000
00000000
00100000
00010000
,
00001000
00010000
00100000
00000000
00001000
00010000
00000100
00001000
,
00000010
00000000
00000001
00000100
00000000
00000110
00000000
00001001
,
00000000
00000010
00010000
00000100
,
00001000
00000010
00000100
00000010
00010000
00001000
00100000
00010000
,
10000000
01000000
00010000
01000000
10000000
00100000
01000000
00010000
,
00001000
00000000
00000010
00000100
00000000
00000101
00000000
00001100
,
00000000
00010000
00001000
00000000
00000010
00000001
00000100
00000000
,
00010000
00001000
00000010
00001000
00010000
00000000
00000010
00001000
,
00010000
00001000
00000010
00000000
00010000
00001000
01000000
00010000
,
00100000
00000000
10000000
01000000
00000000
01100000
00000000
10010000
,
00000000
00000000
00100000
00000000
00010000
00000000
00001000
00010000
,
00000010
00000000
00001010
00000000
00000101
00000000
00000010
00000001
,
00000100
00000000
00001100
00000000
00011000
00000000
01000000
00010000
,
10000000
00000000
00000000
01000000
00100000
00000000
00000000
00000000
,
00010000
00000000
00000000
01000000
00000000
00000000
00100000
00000000
00000000
10000000
00000000
00000000
00000000
00000000
00000000
00100000
00000000
00000000
00000000
00000000
01000000
00000000
00000000
00000000
,
00010000
10000000
01000000
00010000
00001000
00000100
,
00000002
00000000
00000020
00000033
,
00000001
00000001
00000100
00000010
00000010
00000100
00001000
00001000
,
00000100
00000010
00000010
00010000
00001000
01000000
00100000
10000000
,
00010000
01000000
00000000
00000000
01000000
10000000
00000000
00000000
10000000
00100000
00000000
00000000
00100000
00010000
00000000
00000000
,
00010000
00001000
00000000
00000000
00001000
00000010
00000000
00000000
00000010
00000001
00000000
00000000
00000001
00000100
00000000
00000000
,
00001000
00000000
00000100
00000000
00001000
00000000
00000100
00000000
00000010
00000000
00000001
00000100
00000001
00000000
00000100
00000000
,
00001000
00000100
00001000
00000100
00001000
00010000
00001000
00010000
,
01000000
10000000
01000000
10000000
00010000
00010000
01000000
00100000
,
10000000
00100000
10000000
00100000
10000000
01000000
10000000
01000000
,
00010000
00001000
00010000
00001000
00000100
00000100
00000001
00000100
,
00000001
00000010
00000001
00000010
00000100
00001000
00000100
00001000
,
00000001
00000100
00000010
00010000
00001000
00100000
00010000
10000000
,
00100000
01000000
00001000
00010000
00000100
00001000
00000001
00000010
,
00000100
00000010
00000001
00000100
00001000
00010000
01000000
10000000
,
00010000
01000000
00100000
10000000
01000000
00010000
00001000
00000010
,
00000011
00000000
00000000
00000000
,
00000000
00000000
00000000
00000000
;
