#TITLE:ウッーウッーウマウマ(゜∀゜) (Speedcake Remix);
#ARTIST:Caramell;
#TITLETRANSLIT:U-u-uma uma (Speedcake Remix);
#BANNER:U-u-uma uma (Speedcake Remix).png;
#BACKGROUND:U-u-uma uma (Speedcake Remix)-bg.png;
#CDTITLE:./CDTitles/DanceDanceRevolution 2013.png;
#MUSIC:U-u-uma uma (Speedcake Remix).ogg;
#SAMPLESTART:52.45;
#SAMPLELENGTH:15;
#DISPLAYBPM:165;
#BPMS:0=164.637,4=164.733;
#STAGE:2;

//---------------dance-single - ----------------
#NOTES:
     dance-single:
     :
     Beginner:
     2:
     :
0000
0000
0000
0000
,
0000
0000
0000
0000
,
0000
0000
0000
0000
,
0000
0000
0000
0000
,
0000
0000
0000
0000
,
0000
0000
0000
0000
,
1000
0000
0000
0000
,
0001
0000
0000
0000
,
1000
0000
0000
0000
,
0001
0000
0000
0000
,
0100
0000
0000
0000
,
0000
0000
0000
0010
,
1000
0000
0000
0000
,
1000
0000
0000
0000
,
0001
0000
0000
0000
,
0001
0000
1000
0000
,
0001
0000
0000
0000
,
0001
0000
0000
0000
,
1000
0000
0000
0000
,
1000
0000
0100
0000
,
0010
0000
0000
0000
,
0010
0000
0010
0000
,
0100
0000
0000
0000
,
0100
0000
0100
0000
,
0001
0000
0000
0000
,
1000
0000
0000
0000
,
1000
0000
0000
0000
,
0001
0000
0000
0000
,
0010
0000
0000
0000
,
0010
0000
0010
0000
,
0100
0000
0000
0000
,
0100
0000
0100
0000
,
0001
0000
0000
0000
,
1000
0000
0000
0000
,
1000
0000
0001
0000
,
0000
0010
0010
0010
,
1000
0000
0000
0000
,
0001
0000
0000
0000
,
1000
0000
0000
0000
,
0001
0000
0000
0000
,
0100
0000
0000
0000
,
0010
0000
0000
0000
,
0100
0000
0000
0000
,
0100
0000
0100
0100
,
0001
0000
0001
0000
,
1000
0000
0000
0000
,
0001
0000
0001
0000
,
1000
0000
0000
0000
,
0001
0000
0001
0000
,
1000
0000
0000
0000
,
0001
0000
0001
0000
,
0000
0010
0010
0010
,
1000
0000
0000
0000
,
0001
0000
0000
0000
,
1000
0000
0000
0000
,
0001
0000
0000
0000
,
0100
0000
0000
0000
,
0010
0000
0000
0000
,
0100
0000
0000
0000
,
0100
0100
0100
0100
,
1000
0000
0000
0000
,
0001
0000
0000
0000
,
1000
0000
0000
0000
,
0001
0000
0000
0000
,
0100
0000
0000
0000
,
0010
0000
0000
0000
,
0100
0000
0000
0000
,
0100
0100
0100
0100
,
0010
0000
0000
0000
,
0000
0000
0000
0000
;

//---------------dance-single - ----------------
#NOTES:
     dance-single:
     :
     Easy:
     5:
     :
0000
0000
0000
0000
,
0000
0000
0000
0000
,
0000
0000
0000
0000
,
0000
0000
0000
0000
,
0000
0000
0000
0000
,
0000
0000
0000
0000
,
0000
0100
0000
0100
,
0000
0001
0000
0001
,
0000
1000
0000
1000
,
0000
0010
0000
0010
,
2002
0000
0000
0000
,
0000
0000
3003
0110
,
0001
0001
0001
0100
,
1000
1000
1000
0100
,
0001
0000
0001
0000
,
1000
0000
0001
1001
,
1000
1000
1000
0100
,
0001
0001
0001
0100
,
1000
0000
1000
0000
,
0001
0000
0100
1001
,
0010
0010
0010
0010
,
1000
0001
1000
0000
,
0010
0010
0010
0010
,
0001
1000
0001
0000
,
0020
0000
0130
0000
,
0002
0000
1003
0000
,
2000
0000
3001
0000
,
0100
0010
1001
0000
,
0010
0010
0010
0010
,
0001
1000
0001
0000
,
0010
0010
0010
0010
,
1000
0001
1000
0000
,
0020
0000
0130
0000
,
2000
0000
3001
0000
,
1000
1000
0001
0001
,
0000
0110
0000
1001
,
0010
0010
1000
0000
,
0010
0010
0001
0000
,
0010
0010
1000
0000
,
0100
0001
1000
0000
,
0010
0010
0001
0000
,
0010
0010
1000
0000
,
0100
1000
0100
0000
,
0010
0010
0010
1001
,
1000
0001
1000
0001
,
1000
0001
1001
0000
,
0001
1000
0001
1000
,
0001
1000
1001
0000
,
1000
0001
1000
0001
,
1000
0001
1001
0000
,
0001
1000
0001
1000
,
0000
0010
0100
1001
,
0010
0010
1000
0000
,
0010
0010
0001
0000
,
0010
0010
1000
0000
,
0100
0001
1000
0000
,
0010
0010
0001
0000
,
0010
0010
1000
0000
,
0100
1000
0100
0000
,
0010
0010
0010
1001
,
0010
0010
0001
0000
,
0010
0010
1000
0000
,
0010
0010
0001
0000
,
0100
1000
0001
0000
,
0010
0010
1000
0000
,
0010
0010
0001
0000
,
0100
0001
1000
0000
,
0110
1001
0110
1001
,
0200
0000
0000
0000
,
0000
0300
0000
0000
,
0000
0000
0000
0000
;

//---------------dance-single - ----------------
#NOTES:
     dance-single:
     :
     Medium:
     8:
     :
0000
0000
0000
0000
,
0000
0000
0000
0000
,
0000
0000
0000
0000
,
0000
0000
0000
0000
,
0000
0000
0000
0000
,
0000
0000
0000
0000
,
1001
0100
0000
0100
,
1001
0010
0000
0010
,
1001
0100
0000
0100
,
1001
0010
0000
0010
,
2002
0000
0000
0000
,
0000
3003
0110
1001
,
0001
0000
0010
0000
0100
0000
1000
0100
,
1000
0000
0100
0000
0010
0000
0001
0100
,
0001
0000
0010
0000
0100
0000
1000
0010
,
1000
0100
0010
0110
,
0001
0000
0010
0000
0100
0000
1000
0001
,
0100
0000
0010
0000
1000
0000
0100
1000
,
0001
0000
0100
0000
0010
0000
1000
0001
,
0100
0000
0100
0000
0001
0010
0100
0000
,
0010
0100
0010
0100
,
1000
0100
1001
0000
,
0001
1000
0001
1000
,
0100
0010
0110
0000
,
0001
0010
0100
0000
,
1000
0100
0010
0000
,
0002
0000
2003
0000
,
3001
0010
0100
0000
,
0010
0100
0010
0100
,
0001
0100
1001
0000
,
1000
0001
1000
0001
,
0100
0010
0110
0000
,
1000
0010
0100
0000
,
0001
0100
0010
0000
,
0100
0010
0100
0001
0100
0000
0010
0000
,
0100
1100
0101
1100
,
0001
0000
1000
0100
1000
0000
0001
0000
,
0010
0000
0001
0100
0001
0000
1000
0000
,
0010
0000
1000
0100
1000
0000
0001
0000
,
0210
0010
0001
1300
,
0001
0000
1000
0100
1000
0000
0001
0000
,
0010
0000
0001
0100
0001
0000
1000
0000
,
0010
0000
1000
0100
1000
0000
0001
0000
,
0110
1001
0110
1001
,
1000
0001
1000
0001
,
1100
0101
1100
0101
,
0001
1000
0001
1000
,
0001
1000
0011
1010
,
0001
1000
0001
1000
,
0101
1100
0101
1100
,
1000
0001
1000
0001
,
0010
1001
0110
1001
,
0001
0000
1000
0100
1000
0000
0001
0000
,
0010
0000
0001
0100
0001
0000
1000
0000
,
0010
0000
1000
0100
1000
0000
0001
0000
,
0210
0010
0001
1300
,
0001
0000
1000
0100
1000
0000
0001
0000
,
0010
0000
0001
0100
0001
0000
1000
0000
,
0010
0000
1000
0100
1000
0000
0001
0000
,
0110
0000
1001
0000
0110
0000
2002
3003
,
1000
0000
0001
1000
0100
0000
1000
0000
,
0001
0000
1000
0001
0100
0000
0010
0000
,
1000
0000
0100
0010
0001
0000
1000
0000
,
0001
0100
0001
0100
0010
0000
1001
0000
,
1000
0000
0001
1000
0100
0000
0010
0000
,
0001
0000
1000
0100
1000
0000
0010
0000
,
1001
0000
0100
0001
1000
0000
0100
0000
,
0010
0001
0010
0001
1000
0000
0110
0000
,
2002
0000
0000
0000
,
0000
3003
0000
0000
,
0000
0000
0000
0000
;

//---------------dance-single - ----------------
#NOTES:
     dance-single:
     :
     Hard:
     11:
     :
0000
0000
0000
0000
,
0000
0000
0000
0000
,
0000
0000
0000
0000
,
0000
0000
0000
0000
,
0000
0000
0000
0000
,
0000
0000
0000
0000
,
2000
0100
0000
0100
,
3002
0100
0000
0100
,
2003
0100
0000
0100
,
3002
0100
0000
0100
,
2003
0000
3002
0000
,
0203
0000
0320
0000
1030
0001
1000
0000
,
0001
0000
0000
1000
0000
0000
0001
0000
0000
1000
0000
0000
0100
0000
0010
0000
,
0001
0000
0000
1000
0000
0000
0001
0000
0000
1000
0000
0000
0010
0000
0100
0000
,
0001
0000
0000
1000
0000
0000
0001
0000
0000
1000
0000
0000
0100
0000
0010
0000
,
0001
0000
0000
1000
0000
0000
0001
0000
0000
1000
0000
0000
0010
0000
1000
0000
,
0100
0000
0000
0010
0000
0000
0001
0000
0000
0100
0000
0000
0010
0000
1000
0000
,
0100
0000
0000
0010
0000
0000
0001
0000
0000
0100
0000
0000
0010
0000
1000
0000
,
0100
0000
0000
0100
0000
0000
0010
0000
0000
0001
0000
0000
0100
0000
0010
0000
,
0100
0000
0000
0100
0000
0000
0001
0000
0000
0100
0000
0000
1001
0000
0000
0000
,
0001
0000
0001
0000
0001
0100
0001
0000
,
1000
0000
1000
0100
1000
0100
0010
0001
,
1000
0000
1000
0000
1000
0100
1000
0000
,
0001
0000
0001
0100
0001
0100
0010
1000
,
0001
0001
1001
0101
,
1000
1000
1001
1100
,
1000
0000
0001
0100
0000
0000
1000
0000
,
1000
0000
0001
0100
0000
0000
1001
0000
,
1000
0000
1000
0000
1000
0100
1000
0000
,
0001
0000
0001
0100
0001
0100
0010
1000
,
0001
0000
0001
0000
0001
0100
0001
0000
,
1000
0000
1000
0100
1000
0100
0010
0001
,
1000
1000
1001
1100
,
0001
0000
0001
1000
0001
1000
0100
0010
,
0001
0000
0001
0000
1000
0000
0010
0100
,
0010
1001
0110
1001
,
1000
0100
0010
0001
1000
0000
1000
0000
,
0001
0010
0100
1000
0001
0000
0001
0000
,
1000
0000
1000
0001
0010
0100
1000
0001
,
0000
0100
0001
0100
0010
0100
0001
0000
,
1000
0100
0010
0001
1000
0000
1000
0000
,
0001
0010
0100
1000
0001
0000
0100
0000
,
0010
0000
1000
0100
0010
0001
0100
0010
,
0000
1000
0001
0000
1001
0000
0110
0000
,
1100
0101
1100
0101
,
1100
0000
0101
0000
1000
0001
1000
0000
,
0101
1100
0101
1100
,
0101
0000
1100
0000
0001
1000
0001
0000
,
1010
0011
1010
0011
,
1010
0000
0011
0000
1000
0001
1000
0000
,
1010
0000
0011
0000
1010
0000
0010
0100
,
0010
1001
0110
1001
,
1000
0100
0010
0001
1000
0000
1000
0000
,
0001
0010
0100
1000
0001
0000
0001
0000
,
1000
0000
1000
0001
0010
0100
1000
0001
,
0000
0100
0001
0100
0010
0100
0001
0000
,
1000
0100
0010
0001
1000
0000
1000
0000
,
0001
0010
0100
1000
0010
0000
0100
0000
,
0001
0000
1000
0100
0010
0001
0100
0010
,
0000
1000
0001
0000
1001
0000
0110
0000
,
0001
1000
0001
0100
0001
1000
0100
0000
,
1000
0001
1000
0100
1000
0001
0100
0000
,
0001
1000
0001
1000
0010
0100
0001
1000
,
0000
0100
1000
0100
0010
0100
1000
0000
,
0001
0010
0001
0100
0010
1000
0100
0000
,
0010
0001
1000
0100
0010
0001
0100
0000
,
0010
1000
0001
0100
0010
1000
0100
0010
,
0001
1000
0001
1000
1001
0000
0110
0000
,
2002
0000
0000
0000
,
0000
3003
0000
0000
,
0000
0000
0000
0000
;

//---------------dance-single - ----------------
#NOTES:
     dance-single:
     :
     Challenge:
     14:
     :
0000
0000
0000
0000
,
0000
0000
0000
0000
,
0000
0000
0000
0000
,
0000
0000
0000
0000
,
0000
0000
0000
0000
,
0000
0000
0000
0000
,
0000
0100
0000
0100
,
0000
0100
0000
0100
,
0000
0100
0000
0100
,
0000
0000
0100
0000
0000
0000
0100
1000
,
2002
0000
0000
0000
,
0000
0000
0000
0000
3003
0000
0010
0000
0001
1000
0001
0000
0110
0000
0000
0000
,
0001
0000
0100
0001
0000
1000
0001
0000
0010
0002
0000
0000
1003
0000
0100
0000
,
0010
0000
0001
0010
0000
0100
0010
0000
0001
0020
0000
0000
0031
0000
1000
0000
,
0100
0000
1000
0100
0000
0010
0100
0000
1000
0200
0000
0000
1300
0000
0010
0000
,
1000
0000
0001
1000
0000
0001
1000
0000
0100
1000
0001
0000
1000
0000
0001
0000
,
1000
0000
0100
1000
0000
0001
1000
0000
0010
2000
0000
0000
3001
0000
0100
0000
,
0010
0000
1000
0010
0000
0100
0010
0000
1000
0020
0000
0000
1030
0000
0001
0000
,
0100
0000
0001
0100
0000
0010
0100
0000
0001
0200
0000
0000
0301
0000
0010
0000
,
0001
0000
1000
0001
0000
1000
0010
0000
0100
0001
1000
0000
2002
0000
3003
0000
,
1000
0100
0010
0001
0100
0010
0100
0001
,
0100
0000
0010
0000
0100
0000
0001
0100
0001
0000
1000
0000
0100
0000
0010
0000
,
0001
0100
0010
1000
0100
0010
0100
1000
,
0100
0000
0010
0000
0100
0000
1000
0100
1000
0000
0001
0000
0100
0000
0010
0000
,
1000
0100
0001
0000
1000
0100
0001
0000
,
1000
0100
0001
1000
0010
0001
1000
0100
,
0001
0100
1000
0000
0001
0100
1000
0000
,
0001
0000
0010
0000
1000
0000
0001
0000
0010
0000
1000
0001
1000
0000
0000
0000
,
0100
1000
0001
1000
0100
0010
0100
1000
,
1100
1001
0000
0110
0000
1000
0100
1000
,
0001
0100
0010
0100
0001
1000
0100
0010
,
0011
1001
0000
0110
0000
1000
0100
0010
,
0001
1000
0001
0100
0001
1000
0100
0010
,
0001
1000
0001
2000
0000
3001
0100
0001
,
1000
0100
0010
0002
1000
0000
1003
0100
,
0000
0001
1000
0100
0101
0000
1100
1000
,
0001
0010
0100
1000
1001
0000
1100
0000
,
0010
0000
0001
0000
0100
0000
0001
0000
1000
0000
0100
1000
0100
0000
0000
0000
,
1000
0010
0100
0010
1000
0100
0010
0001
,
1000
0000
0001
0100
0001
0000
1000
0100
1000
0000
0001
0100
0001
0100
0001
0000
,
1000
0010
0100
0001
1001
0000
0101
0000
,
0010
0000
1000
0000
0100
0000
1000
0000
0001
0000
0010
0001
0010
0000
0000
0000
,
1000
0001
0100
0010
1001
0000
0100
2002
,
0000
3003
0100
0000
0010
0000
1000
0000
0101
0000
0000
0000
1100
0000
0000
0000
,
0001
0100
0001
0010
0001
0100
0001
0010
,
0100
0000
1000
0100
1000
0000
0010
0100
0010
0000
0100
0000
0001
0000
0000
0000
,
0110
0000
1001
0000
0010
0100
1000
0110
,
0000
0001
2200
0000
0300
3001
0010
0100
,
1000
0100
1000
0010
1000
0100
1000
0010
,
0100
0000
0001
0100
0001
0000
0010
0100
0010
0000
0100
0000
1000
0000
0000
0000
,
0110
0000
1001
0000
0010
0100
0001
1000
,
0110
0000
1100
0000
1001
0101
1001
1100
,
0001
0010
0100
1000
1001
0000
1100
0000
,
0010
0001
0100
0001
1001
0000
0101
0000
,
1000
0010
0100
0010
1000
0100
0010
0001
,
1000
0000
0001
0100
0001
0000
1000
0100
1000
0000
0001
0010
0100
1000
0001
0000
,
1000
0010
0100
0001
1001
0000
0101
0000
,
0010
1000
0100
1000
1001
0000
1100
0000
,
1000
0001
0100
0010
1001
0000
0110
2002
,
0000
3003
0100
0000
0010
0000
0100
0000
1001
0000
0000
0000
0220
0000
0330
0000
,
0001
0000
0100
0000
0010
0000
0100
0000
0001
0000
1000
0100
0010
0000
0001
0000
,
0100
0000
0010
0000
1000
0000
0010
0000
0100
0000
0001
0100
0010
0000
1000
0000
,
0001
0000
0100
0000
0001
0000
1000
0000
0100
0000
0010
0001
1000
0000
0100
0000
,
0010
0000
0001
0000
0100
0000
0010
0000
0100
0010
1000
0000
0100
0010
0001
0000
,
0010
0000
0100
0000
0010
0000
1000
0000
0010
0000
0001
0100
0010
0000
0100
0000
,
0010
0000
1000
0000
0010
0000
0001
0000
1000
0000
0100
0010
0001
0000
0010
0000
,
0100
0001
0010
0100
0010
0001
0010
0100
,
1000
0100
1000
0000
0001
0100
0001
0000
1000
0100
0010
0000
0001
1000
0100
0000
,
2002
0000
0000
0000
,
0000
3003
0000
0000
,
0000
0000
0000
0000
;

//---------------dance-double - ----------------
#NOTES:
     dance-double:
     :
     Easy:
     6:
     :
00000000
00000000
00000000
00000000
,
00000000
00000000
00000000
00000000
,
00000000
00000000
00000000
00000000
,
00000000
00000000
00000000
00000000
,
00000000
00000000
00000000
00000000
,
00000000
00000000
00000000
00000000
,
10000000
00000000
00000000
00000000
,
01000000
00000000
00000000
00000000
,
00100000
00000000
00000000
00000000
,
00010000
00000000
00000000
00000000
,
00022000
00000000
00000000
00000000
,
00000000
00033000
00000000
00011000
,
00001000
00001000
01000000
00100000
,
10000000
10000000
01000000
00100000
,
00001000
00001000
00010000
00000100
,
00000010
00000010
00000001
00001000
,
00000100
00000100
00010000
00001000
,
01000000
01000000
00010000
00100000
,
01000000
01000000
10000000
00010000
,
10000000
01000000
00010000
00000000
,
00001000
00001000
00001000
00001000
,
00010000
00000100
00010000
00000100
,
00010000
00010000
00010000
00010000
,
00001000
01000000
00001000
01000000
,
00100000
10000000
01000000
00000000
,
00100000
00001000
00010000
00000000
,
00001000
00000000
00010000
00000000
,
00000100
00000100
00000100
00000000
,
00010000
00010000
00010000
00010000
,
00001000
01000000
00001000
01000000
,
00001000
00001000
00001000
00001000
,
00010000
00000100
00010000
00000100
,
00000010
00000001
00000100
00000000
,
00000010
00010000
00001000
00000000
,
00010000
00000000
00001000
00000000
,
01000000
00100000
00100000
00100000
,
10000000
10000000
01000000
00100000
,
00001000
00001000
00010000
00000100
,
00010000
00010000
01000000
10000000
,
00010000
00010000
01000000
00001000
,
00010000
00010000
00000100
00000010
,
00000001
00000001
00000010
00000100
,
00002000
00000000
00003010
00000100
,
00000002
00000000
00001003
00000110
,
00000001
00000001
00000001
00000100
,
00001001
00001001
00001001
00000100
,
00001000
00001000
00001000
00000100
,
00010000
00001000
01000000
00010000
,
10000000
10000000
10000000
01000000
,
10010000
10010000
10010000
01000000
,
00010000
00010000
00010000
01000000
,
00000000
01010000
11000000
01010000
,
10000000
10000000
01000000
00100000
,
00001000
00001000
00010000
00000100
,
00010000
00010000
01000000
10000000
,
00010000
00010000
01000000
00001000
,
00010000
00010000
00000100
00000010
,
00000001
00000001
00000010
00000100
,
00002000
00000000
00003010
00000100
,
00000002
00000000
00001003
00000110
,
00000001
00000001
00000010
00000100
,
00010000
00010000
00001000
00100000
,
00001000
00001000
00000010
00000001
,
00001000
00001000
00000010
00010000
,
00001000
00001000
00100000
01000000
,
10000000
10000000
01000000
00100000
,
00020000
00000000
01030000
00100000
,
20000000
00000000
30010000
01100000
,
20020000
00000000
00000000
00000000
,
00000000
30030000
00000000
00000000
,
00000000
00000000
00000000
00000000
;

//---------------dance-double - ----------------
#NOTES:
     dance-double:
     :
     Medium:
     8:
     :
00000000
00000000
00000000
00000000
,
00000000
00000000
00000000
00000000
,
00000000
00000000
00000000
00000000
,
00000000
00000000
00000000
00000000
,
00000000
00000000
00000000
00000000
,
00000000
00000000
00000000
00000000
,
00000000
00000100
00000000
00010000
,
00000000
00001000
00000000
01000000
,
00000000
00001000
00000000
00010000
,
00000000
00000100
00000000
00010000
,
02002000
00000000
00000000
00000000
,
00000000
03003000
00101000
00011000
,
00010000
00000000
00000100
00000000
00000010
00000000
00000001
00000010
,
00000001
00000100
00000010
00010000
,
00001000
00000000
00100000
00000000
01000000
00000000
10000000
00100000
,
01000000
00010000
00100000
00001000
,
00010000
00000000
00000100
00000000
00001000
00000000
00000001
00000100
,
00000010
00001000
00000100
00010000
,
00001000
00001000
01000000
01000000
,
00100000
00000000
10000000
00010000
10000000
00100000
01000000
00000000
,
00010000
10000000
01000000
01000000
,
00010000
00001000
00000100
00000001
,
00000100
00000001
00000100
00000100
,
00001000
00010000
01000000
10000000
,
10000000
01000000
00010000
00000000
,
00001000
00000100
00000001
00000000
,
00001000
00000000
00010000
00000000
,
01000000
00100000
01010000
00000000
,
00010000
10000000
01000000
01000000
,
00010000
00001000
00000100
00000001
,
00000100
00000001
00000100
00000100
,
00001000
00010000
01000000
10000000
,
10000000
01000000
00010000
00000000
,
00001000
00000100
00000001
00000001
,
00001000
00000100
00010000
00001000
,
00100000
00110000
10100000
00110000
,
00010000
00000000
10000000
00100000
01000000
00000000
00001000
00000000
,
00010000
00000000
00000100
00001000
00000001
00000000
00000100
00000000
,
00000001
00000000
00000010
00000100
00001000
00000000
00000010
00000000
,
00002000
00000000
00003100
00010000
,
00001000
00000000
00100000
01000000
10000000
00000000
00010000
00000000
,
00100000
00000000
00001000
01000000
00001000
00000000
10000000
00000000
,
00100000
00000000
01000000
00010000
01000000
00000000
00010000
00000000
,
10000000
01000000
00010000
00001000
00010000
00000000
00000100
00000000
,
00010000
00001000
01000000
00010000
,
01010000
01001000
00011000
00010100
,
00001000
00000000
00001000
00000000
00010000
00001000
01000000
00001000
,
00000000
00001000
00010000
00000000
00000000
00000000
00010000
00000000
,
00001000
00010000
00000100
00001000
,
00001100
00010100
00011000
01001000
,
00010000
00000000
00010000
00000000
00001000
00010000
00001000
00010000
,
00000000
00011000
10010000
11000000
,
00010000
00000000
10000000
00100000
01000000
00000000
00001000
00000000
,
00010000
00000000
00000100
00001000
00000001
00000000
00000100
00000000
,
00000001
00000000
00000010
00000100
00001000
00000000
00000010
00000000
,
00002000
00000000
00003100
00010000
,
00001000
00000000
00100000
01000000
10000000
00000000
00010000
00000000
,
00100000
00000000
00001000
01000000
00001000
00000000
10000000
00000000
,
00100000
00000000
01000000
00010000
01000000
00000000
00010000
00000000
,
10000000
01000000
00010000
00001000
00010000
00000000
00000100
00000000
,
00001000
00000000
00000001
00000100
00000010
00000000
00010000
00000000
,
00001000
00000000
00100000
00010000
10000000
00000000
00100000
00000000
,
10000000
00000000
01000000
00100000
00010000
00000000
01000000
00000000
,
00020000
00000000
00130000
00001000
,
00010000
00000000
00000100
00000010
00000001
00000000
00001000
00000000
,
00000100
00000000
00001000
00000010
00001000
00000000
00000001
00000000
,
00000100
00000000
00000010
00000100
00000010
00000000
00000100
00000000
,
00000001
00000010
00001000
00010000
00001000
00000000
00100000
00000000
,
00020000
00000000
00000000
00000000
,
00000000
00030000
00000000
00000000
,
00000000
00000000
00000000
00000000
;

//---------------dance-double - ----------------
#NOTES:
     dance-double:
     :
     Hard:
     11:
     :
00000000
00000000
00000000
00000000
,
00000000
00000000
00000000
00000000
,
00000000
00000000
00000000
00000000
,
00000000
00000000
00000000
00000000
,
00000000
00000000
00000000
00000000
,
00000000
00000000
00000000
00000000
,
20000000
01000000
00000000
31000000
,
00200000
00001000
00000000
00301000
,
00020000
00000010
00000000
00030010
,
00000200
00000001
00000000
00000301
,
00002000
00000000
00003200
00000000
,
00020300
00000000
00032000
00000000
01003000
00010000
00010000
00000000
,
01000000
00000000
00000000
00100000
00000000
00000000
10000000
00000000
00000000
00010000
00000000
00000000
01000000
00000000
00001000
00000000
,
00010000
00000000
00000000
00000100
00000000
00000000
00001000
00000000
00000000
00000001
00000000
00000000
00000100
00000000
00000010
00000000
,
00001000
00000000
00000000
00000001
00000000
00000000
00000100
00000000
00000000
00000010
00000000
00000000
00010000
00000000
00001000
00000000
,
01000000
00000000
00000000
00001000
00000000
00000000
00100000
00000000
00000000
00001000
00000000
00000000
01000000
00000000
00010000
00000000
,
01000000
00000000
00000000
00100000
00000000
00000000
10000000
00000000
00000000
00010000
00000000
00000000
01000000
00000000
00001000
00000000
,
00010000
00000000
00000000
00000100
00000000
00000000
00001000
00000000
00000000
00000001
00000000
00000000
00000100
00000000
00000010
00000000
,
00001000
00000000
00000000
00000001
00000000
00000000
00000100
00000000
00000000
00000010
00000000
00000000
00010000
00000000
00001000
00000000
,
01000000
00000000
00000000
00001000
00000000
00000000
00100000
00000000
00000000
00001000
00000000
00000000
01000000
00000000
00000000
00000000
,
00100000
00000000
00100000
00000000
10000000
00000000
01000000
00100000
,
00010000
00000000
01000000
00001000
01000000
00001000
00010000
00001000
,
00010000
00000000
00010000
00000000
00000100
00000000
00001000
00000010
,
00000100
00000000
00000001
00000100
00000001
00000100
00000010
00000100
,
00000010
00000010
00000100
00000100
,
00010000
00010000
00100000
00100000
,
00010000
10000000
01000000
00100000
00001000
00010000
00000100
00000000
,
00001000
00000001
00000100
00000010
00000100
00000001
00000100
00000000
,
00000010
00000000
00000010
00000000
00001000
00000100
00001000
00000000
,
00000100
00010000
00001000
00010000
00000100
00000000
00001000
00000000
,
00000100
00000000
00000100
00000000
00010000
00001000
00010000
00000000
,
00001000
01000000
00010000
01000000
00001000
00000000
00010000
00000000
,
00001000
00001000
00010000
00010000
,
00001000
00001000
00000010
00000010
,
00000001
00000100
00001000
00010000
01000000
10000000
01000000
00000000
,
00100000
11000000
01010000
11000000
,
10000000
01000000
00100000
00001000
00010000
00000000
00010000
00000000
,
00000100
00001000
00000100
00000010
00000001
00000000
00000001
00000000
,
00000100
00000000
00000010
00001000
00000100
00010000
00001000
01000000
,
00000000
00100000
10000000
01000000
00100000
00000000
00010000
00000000
,
10000000
00100000
01000000
00001000
00010000
00000000
00010000
00000000
,
00000010
00001000
00000010
00000100
00000001
00000000
00000001
00000000
,
00000010
00000000
00000100
00001000
00000010
00010000
00001000
00100000
,
00000000
01000000
10000000
00000000
01100000
00000000
10010000
00000000
,
10000000
00000000
01000000
00000000
00100000
00001000
00100000
00001000
,
00000000
00011000
00000000
00010100
00000000
00001000
00000100
00000000
,
00001000
00000000
00001000
00000000
00000010
00000100
00000001
00000100
,
00000000
00000100
00000010
00000000
00001001
00000000
00000101
00000000
,
00000001
00000000
00000100
00000000
00000010
00010000
00000010
00010000
,
00000000
00011000
00000000
01001000
00000000
00010000
01000000
00000000
,
00010000
00000000
00010000
00000000
00100000
01000000
10000000
01000000
,
00000000
01100000
10010000
11000000
,
10000000
01000000
00100000
00001000
00010000
00000000
00010000
00000000
,
00000100
00001000
00000100
00000010
00000001
00000000
00000001
00000000
,
00000100
00000000
00000010
00001000
00000100
00010000
00001000
01000000
,
00000000
00100000
10000000
01000000
00100000
00000000
00010000
00000000
,
10000000
00100000
01000000
00001000
00010000
00000000
00010000
00000000
,
00000010
00001000
00000010
00000100
00000001
00000000
00000001
00000000
,
00000010
00000000
00000100
00001000
00000010
00010000
00001000
00100000
,
00000000
01000000
10000000
00000000
01100000
00000000
20020000
30030000
,
10000000
01000000
00100000
00001000
00010000
00000100
00010000
00000000
,
00000010
00001000
00000100
00000010
00000001
00000100
00000001
00000000
,
00000100
00000000
00000010
00001000
00000100
00010000
00001000
01000000
,
00100000
10000000
01000000
00100000
00010000
00000000
00010000
00000000
,
10000000
00100000
01000000
00001000
00010000
00000100
00010000
00000000
,
00000010
00001000
00000010
00000100
00000001
00000010
00000001
00000000
,
00000010
00000000
00000100
00001000
00000010
00010000
00001000
00010000
,
00011000
01001000
00011000
00010100
,
00022000
00000000
00000000
00000000
,
00000000
00033000
00000000
00000000
,
00000000
00000000
00000000
00000000
;

//---------------dance-double - ----------------
#NOTES:
     dance-double:
     :
     Challenge:
     14:
     :
00000000
00000000
00000000
00000000
,
00000000
00000000
00000000
00000000
,
00000000
00000000
00000000
00000000
,
00000000
00000000
00000000
00000000
,
00000000
00000000
00000000
00000000
,
00000000
00000000
00000000
00000000
,
00000000
00001000
00000000
00001000
,
00000000
00001000
00000000
00001000
,
00000000
00001000
00000000
00001000
,
00000000
00000000
00001000
00000000
00000000
00000000
00001000
00010000
,
00022000
00000000
00000000
00000000
,
00000000
00000000
00000000
00000000
00033000
00000000
00001000
00000000
00100000
00001000
00100000
00000000
00010000
00000000
00000000
00000000
,
00010000
00000000
10000000
00010000
00000000
10000000
00010000
00000000
01000000
00002000
00000000
00000000
00013000
00000000
00000100
00000000
,
00001000
00000000
00000001
00001000
00000000
00000001
00001000
00000000
00000100
00002000
00000000
00000000
00003100
00000000
00010000
00000000
,
00001000
00000000
01000000
00001000
00000000
01000000
00001000
00000000
00100000
00002000
00000000
00000000
01003000
00000000
00010000
00000000
,
10000000
00000000
00010000
10000000
00000000
00010000
10000000
00000000
00010000
01000000
00010000
00000000
10000000
00000000
01000000
00000000
,
10000000
00000000
01000000
10000000
00000000
00100000
01000000
00000000
00010000
02000000
00000000
00000000
03001000
00000000
00010000
00000000
,
00001000
00000000
01000000
00001000
00000000
00010000
00001000
00000000
00010000
00000200
00000000
00000000
00001300
00000000
00000010
00000000
,
00000100
00000000
00000001
00000100
00000000
00000001
00001000
00000000
00000100
00002000
00000000
00000000
00003100
00000000
00010000
00000000
,
00001000
00000000
00100000
00010000
00000000
00100000
00001000
00000000
00100000
00010000
00100000
00000000
20020000
00000000
30030000
00000000
,
00010000
01000000
00010000
00100000
00010000
01000000
00010000
00100000
,
01000000
00010000
00001000
00000100
00000001
00000010
00000001
00000000
,
00001000
00000100
00001000
00000010
00001000
00000100
00001000
00000010
,
00000100
00001000
00010000
01000000
10000000
00100000
10000000
00000000
,
10000000
01000000
00010000
00000000
00001000
01000000
00010000
00000000
,
00100000
01000000
00010000
00000000
00001000
00000100
00000001
00000100
,
00000001
00000010
00000011
00000000
00001000
00000010
00001010
00000000
,
00001000
00000100
00010000
01000000
10000000
00010000
10010000
00000000
,
00001000
01000000
00010000
00100000
00001000
01000000
00010000
00100000
,
01000000
00010000
00001000
00000100
00000001
00000010
00000001
00000000
,
00010000
00000100
00001000
00000010
00010000
00000100
00001000
00000010
,
00000100
00001000
00010000
01000000
10000000
00100000
10000000
00000000
,
10000000
01000000
00100000
00000000
00010000
01000000
00001000
00010000
,
01000000
00000000
10000000
00020000
00000000
00130000
01000000
10000000
,
00010000
10000000
00010000
01000000
00100000
01000000
00100000
10000000
,
00010000
10010000
01010000
11000000
,
10000000
00100000
01000000
00001000
00100000
01000000
00010000
00001000
,
00010000
01000000
00100000
00010000
01000000
00000000
10010000
00000000
,
01000000
00010000
00001000
00000100
00010000
00100000
01000000
10000000
,
01000000
00010000
00001000
00100000
01000000
00000000
10010000
00000000
,
00100000
00010000
00001000
00000100
00000001
00001000
00000100
00010000
,
01000000
00010000
00001000
00000010
00000100
00000000
00001001
00000000
,
00001010
00000000
00000101
00001000
00000100
00010000
00001000
00100000
,
00110000
00001000
00011000
00000000
00010100
00000000
00001100
00000000
,
00000001
00000100
00001000
00000100
00000001
00000100
00001000
00010000
,
01000000
11000000
00000000
01010000
00000000
10010000
11000000
00000000
,
10000000
01000000
00100000
00001000
01000000
00100000
00010000
00100000
,
10000000
00010000
02000000
00000000
03010000
10000000
01000000
00000000
,
10000000
00100000
00010000
00100000
10000000
00100000
00010000
00001000
,
00000010
00000011
00000000
00001010
00000000
00001100
00000101
00000000
,
00000001
00000010
00000100
00010000
00000010
00000100
00001000
00000100
,
00000101
00000000
00001010
00000000
00010100
00011000
01001000
00000000
,
00010000
01000000
00100000
00010000
00001000
00000100
00000010
00010000
,
01000000
00100000
01000000
10000000
01000000
00000000
10010000
00000000
,
10000000
01000000
00010000
00001000
00100000
00001000
00000010
00000100
,
00001000
00000000
00000001
00001000
00000100
00000000
00010000
00001000
00100000
00000000
00001000
00000000
00010000
00000000
00000010
00001000
,
00000001
00000010
00000100
00010000
00001000
00010000
01000000
00100000
,
00001000
00000100
00000001
00001000
00000100
00000000
00010100
00000000
,
00011000
00000000
01010000
00100000
10000000
01000000
00010000
00001000
,
00011000
00010100
00001100
00000000
00000011
00000000
00002002
00003003
,
00000010
00000000
00000100
00000000
00010000
00000000
00001000
00000000
01000000
00000000
00010000
00100000
01000000
00000000
00100000
00000000
,
00010000
00000000
01000000
00000000
00100000
00000000
10000000
00000000
01000000
00000000
00100000
00001000
00010000
00000000
00001000
00000000
,
00010000
00000000
01000000
00000000
00100000
00000000
00001000
00000000
00000100
00000000
00000001
00001000
00000100
00000000
00001000
00000000
,
00000010
00000000
00001000
00000000
00000100
00000000
00000010
00000000
00000001
00000100
00000001
00000000
00001000
00000100
00010000
00000000
,
01000000
00000000
10000000
00000000
00010000
00000000
01000000
00000000
00100000
00000000
10000000
01000000
00100000
00000000
00001000
00000000
,
00010000
00000000
00001000
00000000
00000100
00000000
00000010
00000000
00001000
00000000
00000001
00000100
00000010
00000000
00000100
00000000
,
00001001
00000000
00001000
00000100
00010100
00000000
00101000
00010000
,
11000000
10000000
01010000
00000000
11000000
00000000
01100000
00000000
,
20020000
00000000
00000000
00000000
,
00000000
30030000
00000000
00000000
,
00000000
00000000
00000000
00000000
;
