#TITLE:つけまつける;
#TITLETRANSLIT:Tsukematsukeru;
#BANNER:Tsukematsukeru.png;
#BACKGROUND:Tsukematsukeru-bg.png;
#CDTITLE:./CDTitles/DanceDanceRevolution 2013.png;
#MUSIC:Tsukematsukeru.ogg;
#SAMPLESTART:72.82;
#SAMPLELENGTH:15;
#DISPLAYBPM:145;
#BPMS:0=144.2,4=145;
#STAGE:2;

//---------------dance-single - ----------------
#NOTES:
     dance-single:
     :
     Beginner:
     2:
     :
0000
0000
0000
0000
,
0000
0000
0000
0000
,
0000
0000
0000
0000
,
0000
0000
0000
0000
,
0001
0000
0000
0000
,
0001
0000
0000
0000
,
1000
0000
0000
0000
,
1000
0000
0000
0000
,
0010
0000
0000
0000
,
0010
0000
0000
0000
,
0100
0000
0000
0000
,
0100
0100
0100
0000
,
1000
0000
0000
0000
,
0010
0000
0000
0000
,
0001
0000
0000
0000
,
0100
0000
0000
0000
,
1000
0000
0000
0000
,
0100
0000
0000
0000
,
0001
0000
0000
0000
,
0010
0000
0000
0000
,
1000
0000
0000
0000
,
1000
1000
1000
0000
,
0001
0000
0000
0000
,
0001
0001
0001
0000
,
0010
0000
0000
0000
,
0010
0010
0010
0000
,
0100
0000
0000
0000
,
0100
0100
0100
0000
,
1000
0000
0000
0000
,
0010
0010
0010
0000
,
0001
0000
0000
0000
,
0010
0010
0010
0000
,
1000
0000
0000
0000
,
0100
0100
0100
0000
,
0001
0000
0000
0000
,
0100
0100
0100
0000
,
0010
0000
0000
0000
,
1000
0000
0000
0000
,
0001
0000
0000
0000
,
0100
0000
0000
0000
,
0010
0000
0000
0000
,
0001
0000
0000
0000
,
1000
0000
0000
0000
,
0001
0000
0000
0000
,
0001
0000
1000
0000
,
0001
0001
0001
0000
,
1000
0000
0001
0000
,
1000
1000
1000
0000
,
0001
0000
1000
0000
,
0001
0001
0001
0000
,
1000
0000
0001
0000
,
1000
1000
1000
0000
,
0001
0000
0001
0000
,
0010
0000
0010
0000
,
1000
0000
1000
0000
,
0100
0000
0100
0000
,
0001
0000
1000
0000
,
0001
0001
0001
0000
,
1000
0000
0001
0000
,
1000
1000
1000
1000
,
0000
0000
0000
0000
;

//---------------dance-single - ----------------
#NOTES:
     dance-single:
     :
     Easy:
     4:
     :
0000
0000
0000
0000
,
0000
0000
0000
0000
,
0000
0000
0000
0000
,
0000
0000
0000
0000
,
1000
0000
0001
0000
,
1000
0001
0100
0000
,
0010
0000
0100
0000
,
0010
1000
0001
0000
,
0010
0000
0001
0000
,
0010
0001
1000
0000
,
0100
0000
1000
0000
,
0001
1000
1001
0000
,
0001
0000
1000
0000
,
0010
0100
0010
0000
,
1000
0000
0001
0000
,
0100
1000
0001
0000
,
1000
0000
0001
0000
,
1000
0010
0001
0000
,
0001
0000
1000
0000
,
0001
0010
1000
0000
,
1000
0100
1000
0100
,
1000
0000
1000
0000
,
0001
0100
0001
0100
,
0001
0000
0001
0000
,
1000
0001
1000
0001
,
1000
0000
1000
0000
,
0010
0100
0010
0100
,
0010
0000
0010
0000
,
0200
0300
0200
0300
,
1000
0001
1000
0000
,
0001
0001
1000
1000
,
0001
1000
0001
0000
,
0020
0030
0020
0030
,
1000
0001
1000
0000
,
0010
0010
0100
0100
,
0010
0100
0010
0000
,
0000
0100
0000
0100
,
0000
0001
0000
0001
,
0000
0010
0000
0010
,
0000
1000
0000
1000
,
0000
0100
0000
1000
,
0000
0010
0000
0001
,
0000
0010
0100
1000
,
0200
0000
0000
0300
,
0010
0010
0100
0100
,
0010
0001
1000
0000
,
0001
0000
1000
0000
,
0001
1000
1001
0000
,
0010
0010
0100
0100
,
0010
1000
0001
0000
,
1000
0000
0001
0000
,
1000
0001
1001
0000
,
0002
0003
0002
0003
,
1000
0100
1000
0000
,
2000
3000
2000
3000
,
0001
0100
0001
0000
,
1000
0100
1000
0100
,
0010
0001
1000
0000
,
0001
0100
0001
0100
,
0010
1000
0001
1001
,
0000
0000
0000
0000
;

//---------------dance-single - ----------------
#NOTES:
     dance-single:
     :
     Medium:
     7:
     :
0000
0000
0000
0000
,
0000
0000
0000
0000
,
0000
0000
0000
0000
,
0000
0000
0000
0000
,
0010
1000
0100
0001
,
0010
0001
1000
0000
0100
0000
0000
0000
,
0010
0001
0100
0000
0010
0000
1000
0000
,
0010
0100
1001
0000
,
0010
0100
1000
0100
,
0010
0001
1000
0000
0010
0000
0000
0000
,
0100
0010
0100
0000
0001
0000
1000
0000
,
0010
0100
0110
0000
,
1000
0100
0001
0100
,
0010
1000
0100
0000
0010
0000
0010
0000
,
0001
1000
0100
0000
1000
0000
0001
0000
,
0100
0001
1000
1001
,
0001
0100
1000
0100
,
0010
0001
0100
0000
0010
0000
0010
0000
,
1000
0001
0100
0000
0001
0000
1000
0000
,
0100
1000
0001
1001
,
0021
0100
0001
0130
,
1000
0001
0100
0000
0001
0000
0000
0000
,
1020
0100
1000
0130
,
0001
1000
0100
0000
1000
0000
0000
0000
,
1002
0100
1000
0103
,
0001
0010
0100
0000
1000
0000
0000
0000
,
2001
0100
0001
3100
,
1000
0010
0100
0000
0001
0000
0000
0000
,
1000
1100
0001
0101
,
1000
0001
0100
0000
0010
0000
0100
0000
,
0002
0010
1000
0103
,
0010
0100
0010
0000
1000
0000
0000
0000
,
0001
0101
1000
1100
,
0001
1000
0100
0000
0010
0000
0100
0000
,
2000
0010
0001
3100
,
0010
0100
0010
0000
0001
0000
0000
0000
,
0010
0000
0100
0010
0000
0000
0001
0000
,
0100
0000
0010
0100
0000
0000
0010
0000
,
1000
0000
0100
1000
0000
0000
0100
0000
,
0010
0000
0001
0010
0000
0000
0100
0000
,
1000
0000
0001
0100
0000
0000
0001
0000
,
1000
0000
0001
0010
0000
0100
0000
1000
,
0000
0000
0010
0000
0100
0000
0001
0200
,
0000
0000
0000
0300
,
0010
0000
0001
0010
0100
0000
1000
0000
,
0001
1000
0100
0000
0010
0000
0001
0000
,
0100
0010
0100
0000
0010
0000
1000
0000
,
0100
0010
1001
0000
,
0010
0000
0100
1000
0010
0000
0100
0000
,
0010
0100
0010
0000
1000
0000
0001
0000
,
0010
0001
1000
0000
0100
0000
1000
0000
,
0010
0100
1001
0000
,
1000
1100
0001
0101
,
1000
0001
0100
0000
0010
0000
0100
0000
,
0001
0101
1000
1100
,
0001
1000
0100
0000
0010
0000
0100
0000
,
0001
0100
1000
0100
,
0010
0001
0100
0000
0010
0000
0010
0000
,
1000
0001
0100
0000
0001
0000
1000
0000
,
0100
1000
0001
1001
,
0000
0000
0000
0000
;

//---------------dance-single - ----------------
#NOTES:
     dance-single:
     :
     Hard:
     10:
     :
0000
0000
0000
0000
,
0000
0000
0000
0000
,
0000
0000
0000
0000
,
0000
0000
0000
0000
,
0010
0000
0001
0010
0100
0000
1000
0010
,
0100
0010
1000
0001
0100
0000
0001
0000
,
0010
0100
1000
0100
0010
0000
0001
1000
,
0010
0100
1001
0000
,
0010
0000
0100
1000
0010
0000
0100
0010
,
0100
0001
1000
0100
0010
0000
0001
0000
,
0010
0001
0010
0100
1000
0000
0001
0100
,
0010
0000
0100
0010
0100
0000
1001
0000
,
0110
0000
0100
0001
1000
0000
1000
0100
,
0010
0001
0100
0010
0100
0000
0010
0000
,
1000
0001
0100
0001
1000
0000
0001
0010
,
0100
1000
0001
1001
,
0110
0000
0100
1000
0001
0000
0001
0100
,
0010
1000
0100
0010
0100
0000
0010
0000
,
0001
1000
0100
1000
0001
0000
1000
0010
,
0100
0000
0001
1000
0001
0000
1001
0000
,
1020
0130
1020
0130
,
0001
0010
0100
1000
0001
0000
0100
0000
,
1002
0103
1002
0103
,
0010
1000
0100
0010
0100
0000
0000
0000
,
0021
0130
0021
0130
,
1000
0010
0100
0001
1000
0000
0100
0000
,
2001
3100
2001
3100
,
0010
0001
0100
0010
0100
0000
0000
0000
,
0102
1003
2100
3001
,
0100
0010
1000
0100
0010
0000
0100
0000
,
2000
0010
0001
3100
,
0010
0001
1000
0001
0100
0000
0001
0000
,
2100
3001
0102
1003
,
0100
0010
0001
0100
0010
0000
0100
0000
,
0002
0010
1000
0103
,
0010
1000
0001
1000
0100
0000
1000
0000
,
0010
0000
0100
0010
0000
0010
1000
0000
,
0100
0000
0010
0001
0000
0001
0100
0000
,
0010
0000
1000
0100
0000
0100
0010
0000
,
0001
0000
0100
0010
0000
0010
1000
0000
,
0001
0000
0010
0001
0000
0010
0100
0000
,
1000
0000
0001
0100
0000
0001
1000
0001
,
0000
0000
0010
0000
0100
1000
0001
0200
,
0000
0000
0000
0000
0000
0010
0310
0010
,
0010
0000
1000
0010
0100
0000
0001
0010
,
0100
0010
0001
1000
0100
0000
1000
0000
,
0010
0100
0001
0100
0010
0000
1000
0001
,
0010
0100
1001
0000
,
0010
0000
0100
0001
0010
0000
0100
0010
,
0100
1000
0001
0100
0010
0000
1000
0000
,
0010
1000
0010
0100
0001
0000
1000
0100
,
0010
0000
0100
0010
0100
0000
1001
0000
,
0102
1003
2100
3001
,
0100
0010
1000
0100
0010
0000
0100
0000
,
2100
3001
0102
1003
,
0100
0010
0001
0100
0010
0000
0100
0000
,
0110
0000
0100
0001
1000
0000
1000
0100
,
0010
0001
0100
0010
0100
0000
0010
0000
,
1000
0001
0100
0001
1000
0000
0001
0010
,
0100
0000
1000
0001
1000
0000
1001
0000
,
0000
0000
0000
0000
;

//---------------dance-single - ----------------
#NOTES:
     dance-single:
     :
     Challenge:
     10:
     :
0000
0000
0000
0000
,
0000
0000
0000
0000
,
0000
0000
0000
0000
,
0000
0000
0000
0000
,
0010
0000
1000
0010
0100
0000
0001
0010
,
0100
0010
0001
1000
0100
0000
MMMM
0000
,
0010
0100
0001
0100
0010
0000
1000
0001
,
0010
0100
1001
MMMM
,
0010
0000
0100
0001
0010
0000
0100
0010
,
0100
1000
0001
0100
0010
0000
MMMM
0000
,
0010
1000
0010
0100
0001
0000
1000
0100
,
0010
0000
0100
0010
0100
0000
MMMM
0000
,
0110
0000
0100
1000
0001
0000
0001
0100
,
0010
1000
0100
0010
0100
0000
MMMM
0000
,
0001
1000
0100
1000
0001
0000
1000
0010
,
0100
0001
1000
MMMM
,
0110
0000
0100
0001
1000
0000
1000
0100
,
0010
0001
0100
0010
0100
0000
MMMM
0000
,
1000
0001
0100
0001
1000
0000
0001
0010
,
0100
0000
1000
0001
1000
0000
MMMM
0000
,
0011
MMMM
0011
MMMM
,
1000
0010
0100
0001
1000
0000
0100
0000
,
1001
MMMM
1001
MMMM
,
0010
0001
0100
0010
0100
0000
MMMM
0000
,
1010
MMMM
1010
MMMM
,
0001
0010
0100
1000
0001
0000
0100
0000
,
1001
MMMM
1001
MMMM
,
0010
1000
0100
0010
0100
0000
MMMM
0000
,
2100
3001
0102
1003
,
0100
0010
0001
0100
0010
0000
MMMM
0000
,
0002
0010
1000
0103
,
0010
1000
0001
1000
0100
0000
1000
0000
,
0102
1003
2100
3001
,
0100
0010
1000
0100
0010
0000
MMMM
0000
,
2000
0010
0001
3100
,
0010
0001
1000
0001
0100
0000
MMMM
0000
,
0010
0000
0100
0010
0000
0010
0001
0000
,
0100
0000
0010
1000
0000
1000
0100
0000
,
0010
0000
0001
0100
0000
0100
0010
0000
,
1000
0000
0100
0010
0000
0010
0001
0000
,
1000
0000
0010
1000
0000
0010
0100
0000
,
0001
0000
1000
0100
0000
1000
0001
1000
,
0000
0000
0010
0000
0100
0001
1000
0200
,
0000
0000
0000
0000
0000
0010
0310
0010
,
0010
0000
0001
0010
0100
0000
1000
0010
,
0100
0010
1000
0001
0100
0000
MMMM
0000
,
0010
0100
1000
0100
0010
0000
0001
1000
,
0010
0100
1001
MMMM
,
0010
0000
0100
1000
0010
0000
0100
0010
,
0100
0001
1000
0100
0010
0000
MMMM
0000
,
0010
0001
0010
0100
1000
0000
0001
0100
,
0010
0000
0100
0010
0100
0000
MMMM
0000
,
2100
3001
0102
1003
,
0100
0010
0001
0100
0010
0000
MMMM
0000
,
0102
1003
2100
3001
,
0100
0010
1000
0100
0010
0000
MMMM
0000
,
0110
0000
0100
1000
0001
0000
0001
0100
,
0010
1000
0100
0010
0100
0000
MMMM
0000
,
0001
1000
0100
1000
0001
0000
1000
0010
,
0100
0000
0001
1000
0001
0000
1001
0000
,
0000
0000
0000
0000
;

//---------------dance-double - ----------------
#NOTES:
     dance-double:
     :
     Easy:
     4:
     :
00000000
00000000
00000000
00000000
,
00000000
00000000
00000000
00000000
,
00000000
00000000
00000000
00000000
,
00000000
00000000
00000000
00000000
,
10000000
00000000
00010000
00000000
,
10000000
01000000
00010000
00000000
,
00001000
00000000
00010000
00000000
,
00001000
00000010
00000001
00000000
,
00000001
00000000
00001000
00000000
,
00000001
00000100
00001000
00000000
,
00010000
00000000
00001000
00000000
,
00010000
00100000
10000000
00000000
,
00010000
00000000
10000000
00000000
,
00100000
01000000
00100000
00000000
,
10000000
00000000
01000000
00000000
,
00010000
00001000
00010000
00000000
,
00001000
00000000
00000100
00000000
,
00000001
00000010
00000100
00000000
,
00001000
00000000
00000001
00000000
,
00000100
00001000
00010000
00000000
,
00100000
10000000
00100000
10000000
,
01000000
00000000
01000000
00000000
,
00010000
00001000
00010000
00001000
,
00010000
00000000
00001000
00000000
,
00000010
00000100
00000010
00000100
,
00000010
00000000
00000001
00000000
,
00001000
00000010
00001000
00000010
,
00000100
00000000
00001000
00000000
,
00020000
00030000
00002000
00003000
,
00100000
00010000
00100000
00000000
,
02000000
03000000
20000000
30000000
,
00010000
10000000
00010000
00000000
,
02000000
03000000
00200000
00300000
,
00010000
00001000
00010000
00000000
,
00000020
00000030
00000200
00000300
,
00000010
00001000
00000010
00000000
,
00000000
00000100
00000000
00000100
,
00000000
00000001
00000000
00000001
,
00000000
00000010
00000000
00000010
,
00000000
00001000
00000000
00001000
,
00000000
00010000
00000000
00010000
,
00000000
00100000
00000000
00100000
,
00000000
10000000
01000000
10000000
,
02000000
00000000
00000000
03000000
,
00100000
00100000
01000000
01000000
,
00100000
00001000
00010000
00000000
,
00001000
00000000
00000100
00000000
,
00000001
00001000
00001001
00000000
,
00000010
00000010
00000100
00000100
,
00000010
00010000
00001000
00000000
,
00010000
00000000
01000000
00000000
,
10000000
00010000
10010000
00000000
,
00020000
00030000
00020000
00030000
,
10000000
01000000
00010000
00000000
,
00002000
00003000
00002000
00003000
,
00000100
00000001
00001000
00000000
,
00000100
00000010
00000100
00000010
,
00000001
00000100
00001000
00000000
,
00010000
00001000
00010000
00001000
,
00010000
00100000
01000000
10010000
,
00000000
00000000
00000000
00000000
;

//---------------dance-double - ----------------
#NOTES:
     dance-double:
     :
     Medium:
     7:
     :
00000000
00000000
00000000
00000000
,
00000000
00000000
00000000
00000000
,
00000000
00000000
00000000
00000000
,
00000000
00000000
00000000
00000000
,
00000010
00000001
00000100
00001000
,
00010000
00001000
00010000
00000000
00001000
00000000
00000000
00000000
,
00010000
01000000
00100000
00000000
00010000
00000000
01000000
00000000
,
00100000
01000000
10010000
00000000
,
00100000
10000000
01000000
00010000
,
00001000
00010000
00001000
00000000
00010000
00000000
00000000
00000000
,
00001000
00000100
00000010
00000000
00001000
00000000
00000100
00000000
,
00000010
00000100
00000110
00000000
,
00000001
00000100
00001000
00010000
,
00000010
00001000
00000010
00000000
00010000
00000000
00001000
00000000
,
00100000
00010000
01000000
00000000
00100000
00000000
10000000
00000000
,
01000000
00100000
01000000
10010000
,
10000000
01000000
00010000
00001000
,
00100000
00010000
00100000
00000000
00001000
00000000
00010000
00000000
,
00000010
00001000
00000100
00000000
00000010
00000000
00000001
00000000
,
00000100
00000010
00000100
00001001
,
00001020
00000100
00001000
00000130
,
00000001
00000100
00001000
00000000
00010000
00000000
00000000
00000000
,
00020010
00001000
00000010
00031000
,
00010000
01000000
10000000
00000000
00010000
00000000
00000000
00000000
,
00210000
01000000
00010000
01300000
,
10000000
01000000
00010000
00000000
00001000
00000000
00000000
00000000
,
00102000
00010000
00100000
00013000
,
00001000
00000100
00000001
00000000
00001000
00000000
00000000
00000000
,
00000001
00000101
00001000
00001100
,
00000001
00001000
00000100
00000000
00000010
00000000
00001000
00000000
,
00020000
00000010
00001000
00030010
,
00000100
00001000
00010000
00000000
00001000
00000000
00000000
00000000
,
00100000
00110000
01000000
11000000
,
00010000
01000000
00100000
00000000
10000000
00000000
01000000
00000000
,
00200000
00001000
00010000
00301000
,
00010000
00001000
00010000
00000000
00000100
00000000
00000000
00000000
,
00000010
00000000
00000100
00000010
00000000
00000000
00000001
00000000
,
00000100
00000000
00000010
00000100
00000000
00000000
00000010
00000000
,
00010000
00000000
00001000
00010000
00000000
00000000
00001000
00000000
,
01000000
00000000
00100000
01000000
00000000
00000000
00100000
00000000
,
10000000
00000000
00010000
01000000
00000000
00000000
00010000
00000000
,
10000000
00000000
01000000
00100000
00000000
00001000
00000000
00010000
,
00000000
00000000
00001000
00000000
00000010
00000000
00000001
00000200
,
00000000
00000000
00000000
00000300
,
00000010
00000000
00001000
00000010
00000100
00000000
00000001
00000000
,
00000100
00000001
00000100
00000000
00001000
00000000
00010000
00000000
,
00100000
10000000
00010000
00000000
00100000
00000000
01000000
00000000
,
10000000
00010000
10010000
00000000
,
00100000
00000000
00010000
00100000
01000000
00000000
10000000
00000000
,
01000000
10000000
01000000
00000000
00010000
00000000
00001000
00000000
,
00000010
00000001
00001000
00000000
00000010
00000000
00000100
00000000
,
00000001
00001000
00001001
00000000
,
00000001
00000101
00001000
00001100
,
00000001
00000100
00001000
00000000
00010000
00000000
00100000
00000000
,
10000000
11000000
00010000
01010000
,
00100000
10000000
00010000
00000000
10000000
00000000
01000000
00000000
,
00100000
00010000
00001000
00000100
,
00000010
00000001
00000100
00000000
00000010
00000000
00000100
00000000
,
00001000
00010000
00001000
00000000
00010000
00000000
01000000
00000000
,
10000000
00100000
01000000
10010000
,
00000000
00000000
00000000
00000000
;

//---------------dance-double - ----------------
#NOTES:
     dance-double:
     :
     Hard:
     10:
     :
00000000
00000000
00000000
00000000
,
00000000
00000000
00000000
00000000
,
00000000
00000000
00000000
00000000
,
00000000
00000000
00000000
00000000
,
00100000
00000000
10000000
00100000
01000000
00000000
00010000
00100000
,
01000000
10000000
01000000
00010000
00001000
00000000
00010000
00000000
,
00001000
00000010
00000001
00000100
00000001
00000000
00001000
00000100
,
00000010
00001000
00011000
00000000
,
00100000
00000000
01000000
00010000
00100000
00000000
01000000
10000000
,
00010000
01000000
00001000
00010000
00000100
00000000
00001000
00000000
,
00000001
00001000
00000010
00000100
00000001
00000000
00000010
00001000
,
00010000
00000000
00001000
00010000
00001000
00000000
00110000
00000000
,
01000000
00000000
10000000
00010000
01000000
00000000
00100000
00010000
,
00100000
10000000
01000000
00100000
01000000
00000000
00010000
00000000
,
00001000
00010000
00001000
00000100
00000001
00000000
00001000
00000100
,
00000010
00000100
00000010
00001001
,
00000100
00000000
00000010
00010000
00000100
00000000
00010000
00001000
,
00100000
00010000
10000000
00100000
01000000
00000000
00100000
00000000
,
10000000
00010000
01000000
00010000
10000000
00000000
01000000
00010000
,
00001000
00000000
00010000
00001000
00010000
00000000
00001100
00000000
,
00000021
00000130
00000021
00000130
,
00001000
00000001
00000100
00001000
00010000
00000000
00100000
00000000
,
20010000
31000000
20010000
31000000
,
00100000
00010000
01000000
00100000
01000000
00000000
00000000
00000000
,
10200000
01300000
10200000
01300000
,
00010000
10000000
01000000
00010000
00001000
00000000
00000010
00000000
,
00001002
00000103
00001002
00000103
,
00000010
00001000
00000100
00000010
00000100
00000000
00000000
00000000
,
00002100
00003001
00000102
00001003
,
00000010
00010000
00001000
00100000
00010000
00000000
01000000
00000000
,
00020000
01000000
10000000
00130000
,
00001000
00010000
01000000
10000000
00010000
00000000
10000000
00000000
,
01020000
10030000
21000000
30010000
,
00100000
00001000
00010000
00000010
00001000
00000000
00000100
00000000
,
00002000
00000100
00000001
00003010
,
00010000
00001000
00000100
00000001
00001000
00000000
00000001
00000000
,
00000010
00000000
00000001
00000010
00000000
00000010
00000100
00000000
,
00001000
00000000
00000010
00000100
00000000
00000100
00001000
00000000
,
00010000
00000000
00100000
01000000
00000000
01000000
00100000
00000000
,
10000000
00000000
01000000
00100000
00000000
00100000
00010000
00000000
,
10000000
00000000
00100000
10000000
00000000
00010000
01000000
00000000
,
00001000
00000000
00010000
00000010
00000000
00001000
00000001
00000100
,
00000000
00000000
00001000
00000000
00010000
00100000
10000000
00020000
,
00000000
00000000
00000000
00000000
00000000
00100000
00130000
00100000
,
01000000
00000000
10000000
01000000
00100000
00000000
00010000
01000000
,
00100000
10000000
01000000
00010000
00001000
00000000
00010000
00000000
,
00001000
00000100
00000001
00000010
00000001
00000000
00001000
00000010
,
00000100
00001000
00011000
00000000
,
01000000
00000000
00100000
00010000
01000000
00000000
00100000
10000000
,
00010000
00100000
00001000
00010000
00000010
00000000
00001000
00000000
,
00000001
00001000
00000100
00000010
00000001
00000000
00000100
00001000
,
00010000
00000000
00001000
00010000
00001000
00000000
01010000
00000000
,
00120000
10030000
20100000
30010000
,
00100000
00001000
00010000
00000010
00001000
00000000
00000100
00000000
,
00002010
00003001
00000012
00001003
,
00000010
00010000
00001000
00100000
00010000
00000000
01000000
00000000
,
00100000
00000000
01000000
00001000
00100000
00000000
00001000
00010000
,
00000100
00001000
00000001
00000100
00000010
00000000
00000100
00000000
,
00000001
00001000
00000010
00001000
00000001
00000000
00000010
00001000
,
00010000
00000000
00001000
00010000
00001000
00000000
00110000
00000000
,
00000000
00000000
00000000
00000000
;

//---------------dance-double - ----------------
#NOTES:
     dance-double:
     :
     Challenge:
     10:
     :
00000000
00000000
00000000
00000000
,
00000000
00000000
00000000
00000000
,
00000000
00000000
00000000
00000000
,
00000000
00000000
00000000
00000000
,
00000010
00000000
00000001
00000010
00000100
00000000
00001000
00000010
,
00000100
00000001
00000100
00001000
00010000
00000000
MMMMMMMM
00000000
,
00010000
00100000
10000000
01000000
10000000
00000000
00010000
01000000
,
00100000
00010000
00011000
MMMMMMMM
,
00000010
00000000
00000100
00001000
00000010
00000000
00000100
00000001
,
00001000
00000100
00010000
00001000
01000000
00000000
MMMMMMMM
00000000
,
10000000
00010000
00100000
01000000
10000000
00000000
00100000
00010000
,
00001000
00000000
00010000
00001000
00010000
00000000
MMMMMMMM
00000000
,
00000100
00000000
00000001
00001000
00000100
00000000
00000010
00001000
,
00000010
00000001
00000100
00000010
00000100
00000000
MMMMMMMM
00000000
,
00010000
00001000
00010000
01000000
10000000
00000000
00010000
01000000
,
00100000
01000000
00100000
MMMMMMMM
,
01000000
00000000
00100000
00001000
01000000
00000000
00001000
00010000
,
00000010
00001000
00000001
00000010
00000100
00000000
MMMMMMMM
00000000
,
00000001
00001000
00000100
00001000
00000001
00000000
00000100
00001000
,
00010000
00000000
00001000
00010000
00001000
00000000
MMMMMMMM
00000000
,
10200000
01300000
10200000
01300000
,
00010000
10000000
01000000
00010000
00001000
00000000
MMMMMMMM
00000000
,
00001002
00000103
00001002
00000103
,
00000010
00001000
00000100
00000010
00000100
00000000
MMMMMMMM
00000000
,
00000021
00000130
00000021
00000130
,
00001000
00000001
00000100
00001000
00010000
00000000
MMMMMMMM
00000000
,
20010000
31000000
20010000
31000000
,
00100000
00010000
01000000
00100000
01000000
00000000
MMMMMMMM
00000000
,
01020000
10030000
21000000
30010000
,
00100000
00001000
00010000
00000010
00001000
00000000
MMMMMMMM
00000000
,
00002000
00000100
00000001
00003010
,
00010000
00001000
00000100
00000001
00001000
00000000
MMMMMMMM
00000000
,
00002100
00003001
00000102
00001003
,
00000010
00010000
00001000
00100000
00010000
00000000
MMMMMMMM
00000000
,
00020000
01000000
10000000
00130000
,
00001000
00010000
01000000
10000000
00010000
00000000
MMMMMMMM
00000000
,
00100000
00000000
10000000
00100000
00000000
00100000
01000000
00000000
,
00010000
00000000
00100000
01000000
00000000
01000000
00010000
00000000
,
00001000
00000000
00000010
00000100
00000000
00000100
00000010
00000000
,
00000001
00000000
00000100
00000010
00000000
00000010
00001000
00000000
,
00000001
00000000
00000010
00000001
00000000
00001000
00000100
00000000
,
00010000
00000000
00001000
00100000
00000000
00010000
10000000
01000000
,
00000000
00000000
00010000
00000000
00001000
00000010
00000001
00002000
,
00000000
00000000
00000000
00000000
00000000
00000010
00003010
00000010
,
00000100
00000000
00000001
00000100
00000010
00000000
00001000
00000100
,
00000010
00000001
00000100
00001000
00010000
00000000
MMMMMMMM
00000000
,
00010000
01000000
10000000
00100000
10000000
00000000
00010000
00100000
,
01000000
00010000
00011000
MMMMMMMM
,
00000100
00000000
00000010
00001000
00000100
00000000
00000010
00000001
,
00001000
00000010
00010000
00001000
00100000
00000000
MMMMMMMM
00000000
,
10000000
00010000
01000000
00100000
10000000
00000000
01000000
00010000
,
00001000
00000000
00010000
00001000
00010000
00000000
MMMMMMMM
00000000
,
00002010
00003001
00000012
00001003
,
00000010
00010000
00001000
00100000
00010000
00000000
MMMMMMMM
00000000
,
00120000
10030000
20100000
30010000
,
00100000
00001000
00010000
00000010
00001000
00000000
MMMMMMMM
00000000
,
00000010
00000000
00000100
00010000
00000010
00000000
00010000
00001000
,
01000000
00010000
10000000
01000000
00100000
00000000
MMMMMMMM
00000000
,
10000000
00010000
00100000
00010000
10000000
00000000
00100000
00010000
,
00001000
00000000
00010000
00001000
00010000
00000000
00001010
00000000
,
00000000
00000000
00000000
00000000
;
