#TITLE:Triple Journey -TAG EDITION-;
#ARTIST:Triumvirate;
#BANNER:Triple Journey -TAG EDITION-.png;
#BACKGROUND:Triple Journey -TAG EDITION--bg.png;
#CDTITLE:./CDTitles/DanceDanceRevolution 2013.png;
#MUSIC:Triple Journey -TAG EDITION-.ogg;
#SAMPLESTART:61.875;
#SAMPLELENGTH:15;
#BPMS:0=96,20=192;
#STAGE:3;

//---------------dance-single - ----------------
#NOTES:
     dance-single:
     :
     Beginner:
     4:
     :
0000
0000
0000
0000
,
0000
0000
0000
0000
,
0000
0000
0000
0000
,
0000
0000
0000
0000
,
0000
0000
0000
0000
,
0010
0010
0010
0010
,
0000
0000
0000
0000
,
0100
0100
0100
0100
,
0000
0000
0000
0000
,
0001
0000
0010
0000
,
0100
0000
0010
0000
,
0001
0000
1000
0000
,
2002
0000
3003
0000
,
0010
0010
0010
0000
,
0001
0000
1000
0000
,
0010
0010
0010
0000
,
1000
0000
0001
0000
,
0010
0010
0010
0000
,
0100
0100
0100
0000
,
2000
0000
3000
0000
,
0002
0000
0003
0000
,
1000
0000
0010
0000
,
0001
0000
0100
0000
,
1000
0000
0100
0000
,
0001
0000
0010
0000
,
0001
0001
0001
0000
,
1000
1000
1000
0000
,
0020
0000
0030
0000
,
0200
0000
0300
0000
,
0020
0000
0030
0000
,
0001
0001
0001
0000
,
0200
0000
0300
0000
,
1000
1000
1000
0000
,
0002
0000
0003
0000
,
0010
0010
0010
0000
,
1001
0000
0000
0000
,
1001
0000
0000
0000
,
0020
0000
0030
0000
,
1000
1000
1000
0000
,
0200
0000
0300
0000
,
0001
0001
0001
0000
,
2000
0000
3000
0000
,
0010
0010
0010
0000
,
0001
0000
1000
0000
,
1001
0000
0000
0000
,
0001
0001
0001
0000
,
0010
0000
0100
0000
,
1000
1000
1000
0000
,
0010
0000
0100
0000
,
0001
0001
0001
0000
,
1000
0000
0001
0000
,
0010
0000
0001
0000
,
0100
0000
1000
0000
,
0001
0001
0001
0001
,
0001
0000
0010
0000
,
1000
1000
1000
1000
,
1000
0000
0010
0000
,
0001
0000
1000
0000
,
2002
0000
3003
0000
,
0010
0000
1000
0000
,
0100
0000
0001
0000
,
1001
0000
0000
0000
,
1001
0000
0000
0000
,
1001
0000
1001
0000
,
2002
0000
3003
0000
,
0010
0010
0010
0010
,
0000
0000
0000
0000
,
0100
0100
0100
0100
,
0000
0000
0000
0000
,
1000
0000
0010
0000
,
0100
0000
0010
0000
,
1000
0000
0001
0000
,
2002
0000
3003
0000
,
0220
0000
0000
0000
,
0000
0000
0000
0000
,
0330
0000
0000
0000
,
0000
0000
0000
0000
;

//---------------dance-single - ----------------
#NOTES:
     dance-single:
     :
     Easy:
     8:
     :
0000
0000
0000
0000
,
0000
0000
0000
0000
,
0000
0000
0000
0000
,
0000
0000
0000
0000
,
0000
0000
0000
0000
,
0001
0000
0100
0000
1000
0000
0010
0100
,
0000
0000
0000
0000
,
1000
0000
0100
0000
0001
0000
0010
0100
,
0000
0000
0000
0000
0000
0000
0000
0001
,
0000
1000
0001
0000
0100
0000
0001
0100
,
0000
0100
0000
0010
0000
0010
0000
1000
,
0000
1000
0100
0000
0010
0000
0001
0020
,
0000
0000
0000
0030
,
0001
0001
1000
0001
,
0010
1000
0001
0100
,
0010
0010
1000
0010
,
0100
0001
0100
0100
,
1000
0010
0001
0100
,
1000
0010
0100
0001
,
0010
0001
1000
0010
,
0100
0001
1000
0100
,
0001
0100
1000
0100
,
0001
0010
1000
0100
,
1000
0100
0001
0100
,
0010
0001
1000
0010
,
0001
0100
1000
0100
,
0010
0001
0010
1000
,
0010
0001
0100
0010
,
1000
0100
0010
0000
,
0001
0000
0010
0100
0000
0010
0100
0000
,
0001
0010
0100
1000
,
1000
0000
0010
0100
0000
0010
0100
0000
,
1000
0010
0100
0001
,
0010
0000
0001
0010
0000
0100
0010
0000
,
0001
0001
0100
1000
,
0020
0000
0030
2000
0000
3000
0002
0000
,
0003
0200
0000
0300
0001
0000
0001
0000
,
1000
0000
0010
0100
0000
0100
0010
0000
,
1000
0100
0001
0010
,
0001
0000
0010
0100
0000
0100
0010
0000
,
0001
0010
1000
0100
,
0001
0100
1000
0100
,
0001
0010
1000
0010
,
0100
0000
0000
0010
0000
0010
0000
0001
,
0000
1000
0001
0000
0000
0000
1001
0000
,
0100
0010
0100
1000
,
0001
0000
0010
0000
0100
1000
0100
0000
,
1000
0001
0010
0100
,
0010
0000
0001
0000
1000
0010
1000
0000
,
0001
0010
1000
0100
,
0002
0010
1000
0103
,
0001
0110
1000
0110
,
0001
1000
1001
1001
,
0001
0010
0100
1000
,
0010
0000
0010
0000
0100
0010
0100
0000
,
1000
0001
0010
0001
,
1000
0000
1000
0000
0001
0100
0001
0000
,
0010
0001
0100
1000
,
0020
0000
0200
0330
,
0001
0100
0001
0000
1000
0100
1000
0000
,
0001
0010
0001
0000
1000
0010
1000
0000
,
0220
0000
0000
0330
,
2002
0000
0000
3003
,
0011
0000
1100
0000
,
0010
0100
0000
0100
0000
0100
0010
0000
,
1000
0000
0100
0000
0001
0000
0010
0100
,
0000
0000
0000
0000
,
0001
0000
0100
0000
1000
0000
0010
0100
,
0000
0000
0000
0000
0000
0000
0000
1000
,
0000
0001
1000
0000
0100
0000
1000
0100
,
0000
0100
0000
0010
0000
0010
0000
0001
,
0000
0001
0100
0000
0010
0000
1000
0020
,
0000
0000
0000
0030
,
2002
0000
0000
0000
,
0000
0000
0000
0000
,
3003
0000
0000
0000
,
0000
0000
0000
0000
;

//---------------dance-single - ----------------
#NOTES:
     dance-single:
     :
     Medium:
     12:
     :
0000
0000
0000
0000
,
0000
0000
0000
0000
,
0000
0000
0000
0000
,
0000
0000
0000
0000
,
0000
0000
0000
0000
,
0001
0010
1000
0100
0010
0001
0100
0010
,
0000
0100
0010
0100
0010
0100
0010
0000
,
1000
0010
0001
0100
0010
1000
0100
0010
,
0100
0100
0010
0100
0010
0001
1000
0010
,
0000
1000
0001
0100
0010
1000
0001
0010
,
0000
0100
0010
0100
0000
0010
0001
0100
,
0000
1000
0010
0100
0001
1000
0100
0020
,
0000
0000
0000
0030
,
0001
0010
0001
0010
0100
0010
0001
0100
,
0000
0010
1000
0000
0001
0000
0001
0000
,
0100
0010
0100
0001
1000
0010
0100
0001
,
0000
1000
0100
0000
0010
0000
0010
0000
,
1000
0001
0100
0010
0100
0001
1000
0100
,
0010
0100
1000
0010
0100
0010
1000
0010
,
0100
0000
0001
0000
1000
0010
0100
0010
,
0000
1000
0100
0010
0001
1000
0001
0000
,
0010
0001
0010
0100
1000
0100
1000
0010
,
1000
0001
0100
0001
1000
0010
0100
0001
,
1000
0100
1000
0001
0100
0001
0100
0010
,
0000
1001
0000
0100
0010
1000
0100
0000
,
0001
0010
0001
0010
0100
0010
1000
0010
,
1000
0010
0100
0010
0001
0100
0010
1000
,
0100
0000
1000
0000
0010
0001
0100
0010
,
0000
0010
1000
0010
0100
0001
0100
0000
,
0001
1000
0100
0020
0000
0130
1000
0001
,
0000
0000
0100
0000
0010
0000
0000
0000
1000
0000
0000
0001
0000
0000
1000
0000
,
1000
0001
0100
0020
0000
0130
0001
1000
,
0000
0100
0010
0001
0000
0001
0010
0000
,
0100
0000
0001
0200
0000
0310
1000
0100
,
0000
0001
0010
1000
,
0011
0000
1000
0010
0000
0010
0001
0000
,
0001
0100
0000
0100
1000
0000
1001
0000
,
0001
1000
0010
0200
0000
0310
1000
0002
,
0000
0000
0013
0000
0100
0000
0000
0000
1000
0000
0000
0001
0000
0000
1000
0000
,
1000
0001
0010
0200
0000
0310
0001
1000
,
0000
1000
0010
0100
0000
0100
0001
0000
,
0110
0000
1000
0001
0000
0100
0010
0000
,
0001
0010
0000
0010
1000
0000
0101
0000
,
1100
0000
0010
0100
1000
0010
0100
0001
,
0000
1000
0001
0000
0000
0000
1001
0000
,
0010
0001
0100
0001
0010
0100
1000
0100
,
0001
0100
1000
0100
0010
0001
1000
0000
,
0010
1000
0100
1000
0010
0100
0001
0100
,
0010
1000
0001
0010
0100
1000
0100
0000
,
1000
0100
1000
0001
0100
0001
0000
1100
,
0000
1010
0000
0011
0000
1000
0100
0010
,
0001
0100
0001
0100
1000
0100
1000
0100
,
0001
0010
0001
0010
0100
1000
0010
0000
,
0001
1000
0100
1000
0010
0100
0001
0100
,
0010
0100
0010
0100
0010
1000
0100
0000
,
1000
0001
0100
0001
0010
0100
1000
0100
,
0010
0001
0010
0100
0010
1000
0010
0000
,
1001
0000
1000
0001
0100
0010
1000
0200
,
0000
0000
0010
0310
,
0010
0001
0100
0000
0010
1000
0100
0000
,
0010
0001
1000
0000
0010
1000
0001
0000
,
0220
0000
0000
0330
,
2002
0000
0000
3003
,
0101
1000
0010
0001
,
0010
0100
0000
0100
0000
0100
0010
0001
,
1000
0010
0001
0100
0010
1000
0100
0010
,
0000
0100
0010
0100
0010
0100
0010
0000
,
0001
0010
1000
0100
0010
0001
0100
0010
,
0200
0300
0010
0100
0010
1000
0001
0010
,
0000
0001
1000
0100
0010
0001
1000
0010
,
0000
0100
0010
0100
0000
0010
1000
0100
,
0000
0001
0010
0100
1000
0001
0100
0020
,
0000
0000
0000
0030
,
2002
0000
0000
0000
,
0000
0000
0000
0000
,
3003
0000
0000
0000
,
0000
0000
0000
0000
;

//---------------dance-single - ----------------
#NOTES:
     dance-single:
     :
     Hard:
     16:
     :
0000
0000
0000
0000
,
0000
0000
0000
0000
,
0000
0000
0000
0000
,
0000
0000
0000
0000
,
0000
0000
0000
0000
,
0011
0100
0010
0001
0100
0010
1000
0100
,
0010
0000
0010
0000
0100
0000
0010
0000
0001
1000
0010
0000
0100
0000
0010
0000
,
1010
0100
0010
1000
0100
0010
0001
0100
,
0010
0000
0010
0000
0100
0010
0100
0000
0010
1000
0100
0010
0001
0000
0011
0000
,
0000
0001
1000
0100
0010
0001
1000
1010
,
0000
0100
0010
0101
0000
0010
1000
1100
,
0000
0000
0001
0000
0010
0000
0100
0000
1000
0001
0100
0001
1000
0100
2000
0000
,
0000
0000
0000
3000
,
0010
1000
0100
1000
0001
0100
0010
1000
,
0001
0000
1000
0000
0100
0000
0010
0001
0100
0000
0010
1000
0100
0000
0010
0001
,
0100
0010
0100
1000
0100
0001
1000
0100
,
0010
0000
0001
0000
1000
0000
0001
0100
0010
0000
1000
0000
0100
0010
0001
0100
,
0010
0100
0010
1000
0010
0001
1000
0100
,
0001
0000
0010
0000
0100
0000
1000
0000
0001
0000
0100
0000
0010
1000
0001
1000
,
0100
1000
0001
1000
0001
0010
0100
0010
,
1000
0010
0100
0001
1000
1000
1000
1000
,
0010
0000
1000
0010
1000
0000
0001
0000
0010
0001
0010
0000
0100
0000
0010
0100
,
0010
0000
0001
0000
1000
0001
1000
0000
0001
0000
0100
0000
0010
1000
0100
1000
,
0010
0000
0100
0010
0100
0000
0001
0000
1000
0100
1000
0000
0100
0000
0010
0001
,
0010
0000
0001
1000
0001
0000
0100
0000
0010
1000
0010
1000
0001
0100
0001
0100
,
0010
0000
1000
0001
0010
0000
0001
0000
1000
0001
0100
0000
0001
0000
1000
0001
,
0010
0000
0100
0000
1000
0001
0100
0000
0010
0100
0010
0100
0001
0010
0100
1000
,
0001
0100
0001
0100
0010
1000
0100
0010
,
0000
0000
0010
0000
0001
0000
0010
0000
0100
0000
0100
0000
1000
0001
0100
0001
,
1000
0001
0100
2000
0000
3100
0001
1000
,
0000
0000
0100
0000
0010
0000
0000
0000
0001
0000
0000
1000
0000
0000
0001
0000
,
0001
1000
0100
0002
0000
0103
1000
0001
,
0000
0100
0010
1000
0000
1000
0010
0000
,
0110
0000
1000
0200
0000
0310
0001
0100
,
0000
0100
1000
0100
0010
0100
0001
0100
,
1010
0000
0001
0011
0000
0100
0101
0000
,
1000
1010
0000
0010
1001
0000
1001
0000
,
1000
0001
0010
2000
0000
3010
0001
2000
,
0000
0000
3010
0000
0100
0000
0000
0000
0001
0000
0000
1000
0000
0000
0001
0000
,
0001
1000
0010
0002
0000
0013
1000
0001
,
0000
0001
0010
0100
0000
0100
1000
0000
,
0110
0000
0001
1001
0000
0100
0110
0000
,
0010
1010
0000
0001
0011
0000
1100
0000
,
0001
0000
0100
0000
0010
0000
0100
0000
0001
0010
0100
1000
0001
0100
0010
0000
,
0000
0100
0110
0000
0000
0000
1001
0000
,
0010
0000
1000
0010
0100
0000
0001
0000
1000
0100
0010
0000
0001
0010
0100
0000
,
0010
0001
0100
0000
0010
1000
0100
0000
0010
0001
1000
0000
0010
1000
0001
0000
,
0100
0000
0001
0010
0100
0000
0010
0000
0001
1000
0010
0000
1000
0001
0100
0000
,
0010
0100
0001
0000
0010
0100
1000
0000
0001
0100
0010
0000
1000
0010
0100
0000
,
0001
0000
0001
0100
0001
0000
1000
0000
1000
0100
1000
0000
0001
0010
0001
0000
,
1000
0010
1000
0000
0001
0100
0001
0000
1000
0100
1000
0000
0010
0100
0010
0000
,
1000
0001
0100
0000
0010
0000
1001
0000
0100
0010
0001
0000
0100
0000
0110
0000
,
1000
0100
0010
0000
0001
0000
1001
0000
0100
0000
0010
0000
1000
0100
1000
0100
,
1000
0000
0001
0010
0100
0000
1000
0000
0001
0100
0010
0000
1000
0010
0100
0000
,
0010
1000
0100
0000
0010
0001
0100
0000
0010
1000
0001
1000
0100
1000
0001
1000
,
0100
0000
1000
0010
0100
0000
0010
0000
1000
0001
0010
0000
0001
1000
0100
0000
,
0010
0100
1000
0000
0010
0100
0001
0000
1000
0100
0010
0100
0001
0100
0010
0100
,
1000
0000
0001
0100
0001
0000
1000
0000
0100
0000
0010
0000
0001
1000
0002
0000
,
0000
0000
1000
1003
,
0010
0000
0001
1000
0001
0000
0010
0000
0010
0000
1000
0001
1000
0000
0010
0000
,
0010
0000
0001
1000
0001
0000
0010
0000
0010
0000
1000
0001
1000
0000
0010
0000
,
2020
0000
0000
3030
,
0022
0000
0000
0033
,
1100
0000
0001
0100
0001
0100
0001
0100
0010
0000
1000
0100
1000
0100
1000
0100
,
0010
0001
0010
0001
0100
0001
0100
0001
1000
0010
0100
0001
0010
0100
1000
0000
,
1010
0100
0010
1000
0100
0010
0001
0100
,
0010
0000
0010
0000
0100
0000
0010
0000
1000
0001
0010
0000
0100
0000
0010
0000
,
0011
0100
0010
0001
0100
0010
1000
0100
,
0010
0001
0010
0001
0100
0010
0100
0010
1000
0100
0010
0001
1000
0000
1010
0000
,
0000
1000
0001
0100
0010
1000
0001
0011
,
0000
0100
0010
1100
0000
0010
0001
0101
,
0000
0000
1000
0000
0010
0000
0100
0000
0001
1000
0100
1000
0001
0100
0002
0000
,
0000
0000
0000
0003
,
1000
0010
1000
0001
0010
0001
1000
0010
1000
0001
0010
0001
1000
0010
1000
0001
,
0010
0001
1000
0010
1000
0001
0010
0001
1000
0010
1000
0001
0010
0001
1000
0001
,
1000
0000
0000
0000
,
0000
0000
0000
0000
;

//---------------dance-single - ----------------
#NOTES:
     dance-single:
     :
     Challenge:
     18:
     :
0000
0000
0000
0000
,
1001
0000
0000
0100
0010
0000
0000
0011
0000
0001
0100
0000
0110
0000
0000
0000
,
1010
0000
0000
0000
0000
0000
0100
0000
0010
0000
0000
0000
0000
0000
0011
0000
0000
0000
1000
0100
1000
0000
0001
0000
0010
0000
0100
0000
0000
0000
0100
0000
,
0110
0000
0000
1000
0010
0000
0000
0101
0000
1000
0001
0000
0100
0000
0010
0000
,
1000
0000
0000
0010
0000
0000
0001
0000
0100
0000
0000
2000
0000
0000
0002
0000
0000
0000
0000
0000
0000
0000
3003
0000
0000
0000
0110
0000
0000
0000
0000
0000
,
1100
0010
0100
0001
0010
0100
1000
0010
,
0000
0000
1000
0001
0100
0001
1000
0100
1000
0000
0000
0000
0010
0000
0100
0000
,
1100
0010
0100
0001
0010
0100
1000
0010
,
0100
0000
0100
0000
0010
1000
0001
0000
0010
0001
0010
0100
1000
0000
0101
0000
,
0000
1000
0001
0010
0100
1000
0001
0101
,
0000
0110
0100
1010
0000
1100
0001
0011
,
0000
0000
1000
0000
0010
0000
0100
0000
0001
1000
0100
0010
0001
0100
0020
0000
,
0000
0000
0000
0030
,
0100
0000
0001
0010
0001
0000
0100
0000
0010
1000
0010
0000
0100
0000
0001
1000
,
0001
0000
1000
0001
0010
0000
0100
1000
0010
0000
0100
0001
0010
0000
0100
1000
,
0010
0000
0100
0010
0100
0000
0001
0000
0010
0100
0010
0000
0001
0000
0010
0100
,
1000
0000
0001
0100
0010
0000
1000
0010
0100
0000
0001
0000
0010
0100
1000
0010
,
0100
0000
0010
0100
0010
0000
1000
0000
0100
1000
0100
0000
0010
0001
0100
0000
,
0010
1000
0100
0000
0010
0001
1000
0000
0010
0100
0001
0000
0100
0001
1000
0001
,
0010
0001
1000
0001
1000
0100
0010
0100
,
0001
0000
0100
0000
0010
0000
1000
0000
0001
0000
0001
0000
1000
0001
1000
0001
,
0100
0000
0001
0100
0010
0000
0100
0000
0010
1000
0100
0000
0010
0000
0100
1000
,
0010
0000
1000
0000
0010
0100
0001
0000
1000
0000
0001
0000
0100
0001
0010
0001
,
0100
0000
0010
1000
0100
0000
0010
0000
0001
0010
0100
0000
0010
0000
0100
1000
,
0001
0000
1000
0001
0100
0000
0010
1000
0100
0010
0001
0100
0010
1000
0100
0010
,
0001
0000
1000
0001
0010
0000
0001
0000
0100
0010
1000
0000
0010
0000
0100
0001
,
0010
0000
0100
0000
1000
0001
0010
0000
0100
0010
0001
1000
0010
0100
0001
1000
,
0001
0010
0001
0010
0100
1000
0010
0100
,
0000
0000
0100
0000
1000
0000
0100
0000
0001
0000
1000
0000
0001
0010
0100
0010
,
0001
1000
0010
0012
0000
0013
1000
0002
,
0000
0000
0013
0000
0100
0000
0000
0000
1000
0001
0000
0010
0001
0000
1000
0000
,
1000
0001
0010
2010
0000
3010
0001
2000
,
0000
3010
0100
0001
0000
0001
0100
0000
,
0110
0000
0001
0011
0000
0100
1000
0010
,
0000
0010
0001
0010
0100
0010
1000
0010
,
0101
0000
0101
1100
0000
1100
1010
0000
,
1010
0011
0000
0011
1001
0000
1001
0000
,
0001
1000
0100
0102
0000
0103
1000
0002
,
0000
0000
0103
0000
0010
0000
0000
0000
1000
0001
0000
0100
0001
0000
1000
0000
,
1000
0001
0100
2100
0000
3100
0001
1000
,
0000
1000
0100
0010
0000
0010
0001
0000
,
0110
0000
0110
1100
0000
1100
1010
0000
,
1010
0011
0000
0011
0101
0000
0110
0000
,
1000
0000
0010
0000
0100
0000
0010
0000
1000
0010
0001
1000
0100
0001
0010
0000
,
0000
0000
0010
0000
0010
0000
0100
0000
1000
0100
0010
0001
1000
0010
0100
0001
,
0100
0010
0100
0010
1000
0000
0001
0010
0001
0010
0100
0000
1000
0100
0010
0000
,
0100
1000
0010
0000
0100
0001
0010
0000
0100
1000
0001
0000
0100
0001
1000
0000
,
0010
1000
0001
1000
0001
0000
0010
0001
1000
0001
0100
0000
0001
1000
0010
0000
,
0100
0010
1000
0000
0100
0010
0001
0000
1000
0010
0100
0000
0001
0100
0010
0000
,
1000
0100
1000
0010
1000
0000
0001
0100
0001
0010
0001
0000
1000
0100
0001
0000
,
0001
0100
1000
0000
1000
0100
0001
0000
0001
0100
1000
0000
0100
0010
0100
0000
,
0001
1000
0001
1000
0100
0010
0100
0010
0001
0010
0001
0010
0001
0100
0001
0100
,
0010
1000
0100
0010
0001
0100
0010
1000
0100
0010
0001
0100
0010
1000
0100
0010
,
0001
0100
0001
0100
0010
0000
1000
0100
1000
0100
0010
0000
0001
0000
1010
0000
,
0100
0000
1010
0000
0001
0000
1010
0000
0100
0001
0010
0100
1000
0010
0100
0001
,
0010
0100
0010
0100
1000
0000
0001
1000
0001
1000
0100
0000
1000
0000
0011
0000
,
0100
0000
0011
0000
1000
0000
0011
0000
0001
0010
0100
1000
0010
0100
0001
0010
,
0100
0000
1000
0010
1000
0000
0001
1000
0001
0000
0101
0000
1000
0000
2200
0000
,
0000
0000
0000
3300
,
0110
0000
1000
0100
0010
0000
0010
0001
1000
0000
1000
0001
1000
0000
0001
0000
,
0110
0000
0001
0100
0010
0000
0010
1000
0001
0000
0001
1000
0001
0000
1000
0000
,
0001
0100
0010
0100
0001
0100
0010
0100
0001
0100
0010
0100
0001
0100
0010
0100
,
0001
0010
0100
0010
0001
0010
0100
0010
0001
0010
0100
0010
0001
0010
0100
0010
,
0001
1000
0010
1000
0001
1000
0010
1000
0001
1000
0100
1000
0001
1000
0100
1000
,
0001
0100
0010
1000
0100
0010
0001
0100
0010
0100
0001
1000
0100
0010
0001
0000
,
0101
0010
0100
1000
0010
0100
0001
0010
,
0000
0000
0001
1000
0100
1000
0001
0100
0001
0000
0000
0000
0010
0000
0100
0000
,
0101
0010
0100
1000
0010
0100
0001
0010
,
0100
0010
0100
0010
0001
0100
0010
1000
0010
1000
0010
0100
0001
0000
1100
0000
,
0000
0001
1000
0010
0100
0001
1000
1100
,
0000
0110
0100
0011
0000
0101
1000
1010
,
0000
0000
0001
0000
0010
0000
0100
0000
1000
0001
0100
0010
1000
0100
0020
0000
,
0000
0000
0000
0030
,
0001
0100
0010
1000
0100
0010
0001
0100
0010
1000
0100
0010
0001
0100
0010
1000
,
0100
0010
0001
0100
0010
1000
0100
0010
0001
0100
0010
1000
0100
0001
0100
1000
,
0001
0000
0000
0000
,
0000
0000
0000
0000
;

//---------------dance-double - ----------------
#NOTES:
     dance-double:
     :
     Easy:
     8:
     :
00000000
00000000
00000000
00000000
,
00000000
00000000
00000000
00000000
,
00000000
00000000
00000000
00000000
,
00000000
00000000
00000000
00000000
,
00000000
00000000
00000000
00000000
,
00100000
00000000
10000000
00000000
01000000
00000000
00010000
00001000
,
00000000
00000000
00000000
00000000
,
00000010
00000000
00000001
00000000
00000100
00000000
00001000
00010000
,
00000000
00000000
00000000
00000000
00000000
00000000
00000000
00001000
,
00000000
00010000
01000000
00000000
01000000
00000000
10000000
00100000
,
00000000
00100000
00000000
01000000
00000000
01000000
00000000
00010000
,
00000000
00010000
00100000
00000000
00001000
00000000
00010000
00002000
,
00000000
00000000
00000000
00003000
,
00010000
00001000
00000010
00000001
,
00001000
00000010
00000100
00000001
,
00001000
00000100
00000010
00001000
,
00010000
01000000
10000000
00010000
,
02000000
00100000
03002000
00100000
,
02003000
00100000
03002000
00100000
,
00013000
00100000
01000000
10000000
,
00010000
01000000
10000000
00000000
,
10000000
01000000
00010000
01000000
,
10000000
00100000
00010000
00001000
,
00000010
00000001
00001000
00000010
,
00000100
00000001
00001000
00001000
,
00000200
00000010
00020300
00000010
,
00030200
00000010
00020300
00000010
,
00031000
00000010
00000100
00000001
,
00001000
00000100
00000001
00000000
,
00001000
00000000
00000010
00000100
00000000
00000010
00000100
00000000
,
00000001
00000100
00001000
00010000
,
00100000
00000000
01000000
00100000
00000000
01000000
00100000
00000000
,
10000000
00010000
00100000
01000000
,
00100000
00000000
00010000
00100000
00000000
01000000
00100000
00000000
,
10000000
01000000
00010000
00001000
,
00200000
00000000
00300000
00002000
00000000
00003000
00000200
00000000
,
00000300
00000002
00000000
00000003
00001000
00000000
00001000
00000000
,
00000100
00000000
00000010
00000001
00000000
00000010
00000100
00000000
,
00000010
00001000
00010000
00100000
,
10000000
00000000
00100000
01000000
00000000
00010000
01000000
00000000
,
10000000
00100000
00010000
01000000
,
10000000
01000000
00010000
00001000
,
00000010
00000001
00000100
00000010
,
00000100
00000000
00000000
00000010
00000000
00000010
00000000
00001000
,
00000000
00000001
00001000
00000000
00000000
00000000
00001001
00000000
,
00000010
00001000
00000100
00010000
,
00001000
00000000
00010000
00000000
00100000
01000000
00100000
00000000
,
10000000
00100000
01000000
00100000
,
10000000
00000000
01000000
00000000
00100000
00010000
00100000
00000000
,
00010000
00001000
00000100
00000010
,
00000002
00000010
00001000
00000103
,
00002000
00000010
00003002
00000010
,
00001003
00000010
00000101
00000101
,
00000010
00000100
00001000
00010000
,
01000000
00000000
10000000
00000000
00010000
01000000
00010000
00000000
,
10000000
00100000
01000000
00010000
,
10000000
00000000
01000000
00000000
00100000
00010000
00100000
00000000
,
00001000
00010000
00000100
00000010
,
00000002
00000000
00002000
00003003
,
00000010
00001000
00000010
00000000
00000100
00000001
00000100
00000000
,
00000001
00000010
00000001
00000000
00001000
00000100
00001000
00000000
,
00022000
00000000
00000000
00033000
,
00220000
00000000
00000000
00330000
,
10100000
00000000
11000000
00000000
,
00010000
01000000
00000000
01000000
00000000
01000000
00010000
00000000
,
00100000
00000000
10000000
00000000
01000000
00000000
00010000
00001000
,
00000000
00000000
00000000
00000000
,
00000010
00000000
00000001
00000000
00000100
00000000
00001000
00010000
,
00000000
00000000
00000000
00000000
00000000
00000000
00000000
00001000
,
00000000
00010000
01000000
00000000
01000000
00000000
10000000
00100000
,
00000000
00100000
00000000
01000000
00000000
01000000
00000000
00010000
,
00000000
00010000
00100000
00000000
00001000
00000000
00010000
00002000
,
00000000
00000000
00000000
00003000
,
00022000
00000000
00000000
00000000
,
00000000
00000000
00000000
00000000
,
00033000
00000000
00000000
00000000
,
00000000
00000000
00000000
00000000
;

//---------------dance-double - ----------------
#NOTES:
     dance-double:
     :
     Medium:
     12:
     :
00000000
00000000
00000000
00000000
,
00000000
00000000
00000000
00000000
,
00000000
00000000
00000000
00000000
,
00000000
00000000
00000000
00000000
,
00000000
00000000
00000000
00000000
,
00000010
00001000
00000100
00001000
00000001
00000100
00001000
00010000
,
00000000
00001000
00010000
00001000
00010000
00001000
00010000
00000000
,
00001000
00010000
01000000
10000000
00010000
01000000
00100000
10000000
,
00100000
00000000
00100000
00000000
10000000
00010000
01000000
00100000
,
00000000
00010000
00100000
00000000
10000000
01000000
00100000
00010000
,
00000000
00001000
00000100
00000010
00000000
00000001
00000100
00000010
,
00000000
00001000
00000010
00000000
00000100
00000001
00001000
00000200
,
00000000
00000000
00000000
00000300
,
00000010
00000001
00000010
00000001
00000100
00000010
00001000
00000100
,
00010000
00001000
01000000
00100000
,
10000000
00010000
10000000
00010000
01000000
00100000
10000000
01000000
,
00010000
00001000
00011000
00000000
,
00000010
00000100
00000010
00010000
00001000
00010000
00000100
00000010
,
00000100
00010000
00001000
00010000
00000010
00000100
00000010
00001000
,
00000001
00000000
00000010
00000000
00001000
00010000
00001000
00010000
,
00000000
01000000
10000000
00010000
01000000
00100000
10000000
00000000
,
00100000
10000000
00010000
01000000
00010000
10000000
01000000
10000000
,
00010000
00100000
00010000
10000000
00010000
01000000
00001000
00010000
,
00000010
00001000
00000001
00000100
00000001
00001000
00000100
00000010
,
00000000
00000001
00000000
00001000
00000010
00000000
00000100
00000000
,
00000010
00010000
00000010
00001000
00000001
00001000
00000100
00010000
,
00000100
00001000
00000001
00001000
00000100
00010000
00001000
00100000
,
00010000
00000000
01000000
00000000
10000000
00100000
01000000
00010000
,
00000000
10000000
01000000
00200000
00000000
00000000
01300000
00000000
,
00100000
00001000
01000000
00200000
00000000
01300000
00001000
00010000
,
00000000
00000000
00000100
00000000
00000010
00000000
00000000
00000000
00000001
00000000
00000000
00001000
00000000
00000000
00000001
00000000
,
00000100
00000010
00001000
00000002
00000000
00000013
00000001
00001000
,
00000000
00000001
00000100
00001000
00000000
00010000
00001000
00000000
,
01000000
00000000
00100000
02000000
00000000
03100000
10000000
01000000
,
00000000
00010000
10000000
00100000
,
00010000
00000000
00010000
00001000
00000000
00001000
00000010
00000000
,
00000010
00000100
00000000
00000100
00000001
00000000
00001001
00000000
,
00001000
00000001
00000010
00000200
00000000
00000310
00000001
00002000
,
00000000
00000000
00003010
00000000
00000100
00000000
00000000
00000000
00000001
00000000
00000000
00001000
00000000
00000000
00000001
00000000
,
00000100
00000010
00001000
00000200
00000000
00010300
00001000
00100000
,
00000000
00100000
01000000
10000000
00000000
00010000
01000000
00000000
,
00100000
00000000
00100000
10000000
00000000
10000000
01000000
00000000
,
01000000
00010000
00000000
00010000
00001000
00000000
00001100
00000000
,
00000101
00000000
00000010
00000100
00000001
00000010
00000100
00001000
,
00000000
00000001
00001000
00000000
00000000
00000000
00001001
00000000
,
00000010
00001000
00000100
00001000
00000001
00000100
00000001
00000100
,
00000010
00010000
00001000
00010000
01000000
00100000
00010000
00000000
,
10000000
00100000
01000000
00100000
10000000
00010000
10000000
00010000
,
01000000
00001000
00010000
00001000
00000100
00000010
00001000
00000000
,
00000001
00000100
00000001
00001000
00000100
00002000
00000000
00003002
,
00000000
00000023
00000000
00002030
00000000
00013000
00000100
00000010
,
00000100
00001000
00000100
00000000
00001000
00000001
00000100
00000000
,
00001000
00010000
00001000
00010000
00100000
10000000
00010000
00000000
,
10010000
00000000
00100000
10000000
01000000
00010000
00001000
00020000
,
00000000
00001000
00000000
00001000
00000000
00031000
00000100
00000000
,
00001001
00000000
00000010
00000001
00000100
00001000
00010000
00002000
,
00000000
00010000
00000000
00010000
00000000
00013000
01000000
00000000
,
10010000
00000000
00100000
10000000
00010000
01000000
00001000
00020000
,
00000000
00000000
00001000
00031000
,
00000010
00001000
00000100
00000000
00000010
00000001
00000100
00000000
,
00000010
00001000
00000001
00000000
00000100
00001000
00010000
00000000
,
00022000
00000000
00000000
00033000
,
00202000
00000000
00000000
00303000
,
00110000
10000000
00100000
00010000
,
10000000
01000000
00000000
01000000
00000000
00010000
01000000
00000000
,
00100000
00010000
01000000
00010000
10000000
01000000
00010000
00001000
,
00000000
00010000
00001000
00010000
00001000
00010000
00001000
00000000
,
00010000
00001000
00000100
00000001
00001000
00000100
00000010
00000001
,
00000010
00000000
00000010
00000000
00000001
00001000
00000100
00000010
,
00000000
00001000
00000010
00000000
00000001
00000100
00000010
00001000
,
00000000
00010000
01000000
00100000
00000000
10000000
01000000
00100000
,
00000000
00010000
00100000
00000000
01000000
10000000
00010000
02000000
,
00000000
00000000
00000000
03000000
,
20020000
00000000
00000000
00000000
,
00000000
00000000
00000000
00000000
,
30030000
00000000
00000000
00000000
,
00000000
00000000
00000000
00000000
;

//---------------dance-double - ----------------
#NOTES:
     dance-double:
     :
     Hard:
     17:
     :
00000000
00000000
00000000
00000000
,
00000000
00000000
00000000
00000000
,
00000000
00000000
00000000
00000000
,
00000000
00000000
00000000
00000000
,
00000000
00000000
00000000
00000000
,
00100000
10000000
01000000
00010000
00001000
00000100
00000001
00000010
,
00000100
00000000
00000100
00000000
00000010
00000000
00000100
00000000
00000010
00000001
00001000
00000000
00000010
00000000
00000100
00000000
,
00000001
00000100
00001000
00010000
01000000
10000000
00100000
01000000
,
00100000
00000000
00100000
00000000
10000000
00010000
10000000
00000000
00100000
10000000
01000000
00100000
00010000
00000000
00110000
00000000
,
00000000
00001000
00010000
01000000
00100000
00001000
00010000
00010010
,
00000000
00001000
00000010
00000110
00000000
00000001
00001000
00001100
,
00000000
00000000
00000010
00000000
00000001
00000000
00000100
00000000
00000010
00010000
00000100
00000010
00000100
00001000
00000002
00000000
,
00000000
00000000
00000000
00000003
,
00000010
00000001
00001000
00000001
00000100
00001000
00010000
00100000
,
10000000
00000000
00010000
00000000
01000000
00000000
00100000
10000000
00100000
00000000
01000000
00010000
01000000
00000000
00010000
10000000
,
00010000
00100000
01000000
10000000
00100000
00010000
00001000
00000100
,
00000010
00000000
00001000
00000000
00000100
00000000
00000010
00000001
00000010
00000000
00000100
00001000
00000100
00000000
00001000
00000001
,
00001000
00000010
00000100
00000001
00000010
00000100
00001000
00000010
,
00000100
00000000
00000010
00000000
00010000
00000000
00001000
00000000
01000000
00000000
00010000
00000000
10000000
01000000
00100000
00010000
,
00100000
01000000
00100000
01000000
10000000
00010000
01000000
00100000
,
10000000
01000000
00100000
00010000
00001000
00001000
00010000
00010000
,
00001000
00000000
00000100
00000010
00000100
00000000
00010000
00000000
00000010
00000100
00000010
00000000
00001000
00000000
00000100
00000010
,
00000100
00000000
00010000
00000000
00000010
00000100
00000010
00000000
00001000
00000000
00000001
00000000
00000100
00000010
00001000
00000010
,
00000100
00000000
00000001
00001000
00000001
00000000
00000010
00000000
00000100
00001000
00000100
00000000
00010000
00000000
00001000
00010000
,
00001000
00000000
00100000
00010000
00100000
00000000
01000000
00000000
10000000
00010000
10000000
00010000
01000000
00100000
01000000
00000000
,
00001000
00000000
00100000
01000000
00100000
00000000
00010000
00000000
01000000
00100000
01000000
00000000
00001000
00000000
00100000
01000000
,
00100000
00000000
00010000
00000000
01000000
00100000
01000000
00000000
00100000
10000000
00100000
10000000
00010000
10000000
00010000
10000000
,
00010000
00100000
00010000
00100000
00010000
00001000
00000100
00000010
,
00000000
00000000
00000010
00000000
00000001
00000000
00000100
00000000
00000010
00000000
00001000
00000000
00000001
00000100
00000010
00000100
,
00000001
00001000
00000100
00000020
00000000
00001030
00010000
00002000
,
00000000
00000000
00103000
00000000
01000000
00000000
00000000
00000000
10000000
00000000
00000000
00010000
00000000
00000000
01000000
00000000
,
00100000
10000000
00010000
02000000
00000000
03100000
10000000
00010000
,
00000000
10000000
01000000
00010000
00000000
00001000
00010000
00000000
,
00011000
00000000
00001000
00000200
00000000
00000301
00001000
00000100
,
00000000
00000100
00000010
00000100
00000001
00000100
00000010
00000100
,
00001100
00000000
00000001
00000101
00000000
00000010
00000011
00000000
,
00001000
00001010
00000000
00010000
00011000
00000000
00110000
00000000
,
10000000
00010000
01000000
20000000
00000000
31000000
00010000
20000000
,
00000000
00000000
31000000
00000000
00100000
00000000
00000000
00000000
00010000
00000000
00000000
01000000
00000000
00000000
00100000
00000000
,
10000000
01000000
00100000
00020000
00000000
01030000
00001000
00010000
,
00000000
00010000
00001000
00000010
00000000
00000010
00000001
00000000
,
00000011
00000000
00001000
00001100
00000000
00010000
00011000
00000000
,
00100000
00110000
00000000
10000000
10100000
00000000
01100000
00000000
,
00010000
00000000
00100000
00000000
01000000
00000000
00100000
00000000
00010000
01000000
00100000
10000000
00010000
00100000
01000000
00000000
,
00000000
00100000
01100000
00000000
00000000
00000000
10010000
00000000
,
00100000
00000000
10000000
01000000
00100000
00000000
00010000
00000000
10000000
00100000
01000000
00000000
00010000
10000000
01000000
00000000
,
00100000
00001000
00010000
00000000
00001000
00010000
00000100
00000000
00000010
00000001
00001000
00000000
00000010
00000100
00000001
00000000
,
00001000
00000000
00000100
00000010
00000001
00000000
00001000
00000000
00000010
00000100
00000001
00000000
00001000
00000001
00000010
00000000
,
00000100
00010000
00001000
00000000
00010000
00001000
01000000
00000000
00010000
00100000
01000000
00000000
10000000
00100000
01000000
00000000
,
00010000
00000000
10000000
01000000
10000000
00000000
00010000
00000000
10000000
00100000
10000000
00000000
00010000
01000000
00010000
00000000
,
00100000
01000000
00100000
00000000
00001000
00010000
00001000
00000000
00010000
00000010
00010000
00000000
00000010
00001000
00000010
00000000
,
00001000
00000001
00000010
00000000
00000100
00000000
00000010
00000000
00000001
00001000
00000010
00000000
00000100
00000000
00000010
00000000
,
00001000
00000001
00000010
00000000
00000100
00000000
00000010
00000000
00001000
00000000
00001000
00000000
00010000
00001000
00010000
00001000
,
00010000
00000000
00001000
00100000
00010000
00000000
10000000
00000000
00010000
01000000
00100000
00000000
10000000
01000000
00100000
00000000
,
00001000
00010000
00001000
00000000
00010000
00001000
00010000
00000000
00000010
00001000
00000010
00000000
00000100
00000001
00000100
00000000
,
00000010
00000000
00001000
00000001
00000100
00000000
00000010
00000000
00000100
00000001
00001000
00000000
00000100
00000010
00000001
00000000
,
00001000
00000010
00001000
00000000
00000100
00001000
00000100
00000000
00010000
00001000
00010000
00000000
00001000
00100000
00001000
00000000
,
01000000
00000000
00010000
01000000
00010000
00000000
10000000
00000000
00100000
00000000
01000000
00000000
00010000
00000000
20000000
00000000
,
00000000
00000000
00010000
30010000
,
00100000
00010000
01000000
00000000
00100000
00000000
01000000
00000000
00010000
01000000
00001000
00000000
00010000
00000000
00001000
00000000
,
00010000
00000100
00001000
00000000
00000100
00000000
00000010
00000000
00000001
00001000
00000010
00000000
00000100
00000000
00000001
00000000
,
00002002
00000000
00000000
00003003
,
00000220
00000000
00000000
00000330
,
00001001
00000000
00000010
00001000
00000010
00001000
00000010
00001000
00000001
00000000
00000010
00000001
00000010
00000001
00000010
00000001
,
00001000
00000100
00001000
00000100
00010000
00001000
00010000
00001000
00100000
00010000
01000000
00100000
10000000
00010000
10000000
00000000
,
00100000
10000000
01000000
00010000
00001000
00000100
00000001
00000010
,
00000100
00000000
00000100
00000000
00000010
00000000
00000100
00000000
00000010
00000001
00001000
00000000
00000010
00000000
00000100
00000000
,
00000001
00000100
00001000
00010000
01000000
10000000
00100000
01000000
,
00100000
10000000
00100000
10000000
00010000
10000000
00010000
10000000
00100000
10000000
01000000
00100000
00010000
00000000
00110000
00000000
,
00000000
00001000
00010000
01000000
00100000
00001000
00010000
00010010
,
00000000
00001000
00000010
00000110
00000000
00000001
00001000
00001100
,
00000000
00000000
00000010
00000000
00000001
00000000
00000100
00000000
00000010
00010000
00000100
00000010
00000100
00001000
00000020
00000000
,
00000000
00000000
00000000
00000030
,
00010000
00001000
00010000
00000010
00010000
00001000
00010000
00000010
00010000
00001000
00010000
00000010
00010000
00001000
00010000
00000010
,
00010000
00001000
00010000
00000010
00010000
00001000
00010000
00000010
00010000
00001000
00010000
00000010
00010000
00001000
00010000
00000010
,
00010000
00000000
00000000
00000000
,
00000000
00000000
00000000
00000000
;

//---------------dance-double - ----------------
#NOTES:
     dance-double:
     :
     Challenge:
     18:
     :
00000000
00000000
00000000
00000000
,
00001001
00000000
00000000
00000010
00000001
00000000
00000000
00001100
00000000
00010000
00001000
00000000
00011000
00000000
00000000
00000000
,
01010000
00000000
00000000
00000000
00000000
00000000
00100000
00000000
10000000
00000000
00000000
00000000
00000000
00000000
11000000
00000000
00000000
00000000
00100000
00010000
00100000
00000000
01000000
00000000
00100000
00000000
00010000
00000000
00000000
00000000
10000000
00000000
,
10100000
00000000
00000000
00010000
00001000
00000000
00000000
00001010
00000000
00000001
00001000
00000000
00000100
00000000
00000010
00000000
,
00000001
00000000
00000000
00000010
00000000
00000000
00001000
00000000
00000010
00000000
00000000
00000200
00000000
00000000
00020000
00000000
00000000
00000000
00000000
00000000
00000000
00000000
00030300
00000000
00000000
00000000
00011000
00000000
00000000
00000000
00000000
00000000
,
00001000
00010000
01000000
10000000
00010000
01000000
00100000
10000000
,
00000000
00000000
00010000
01000000
00100000
01000000
00010000
10000000
01000000
00000000
00000000
00000000
00010000
00000000
00001000
00000000
,
00010000
00000010
00000100
00000001
00000010
00000100
00001000
00000010
,
00000100
00000000
00000100
00000000
00000010
00001000
00000010
00000000
00000100
00000001
00001000
00000100
00000010
00000000
00001100
00000000
,
00000000
00000001
00001000
00000010
00000100
00001000
00010000
00011000
,
00000000
00011000
00001000
00101000
00000000
00110000
00100000
01100000
,
00000000
00000000
10000000
00000000
00010000
00000000
01000000
00000000
00100000
10000000
01000000
00100000
00010000
01000000
00200000
00000000
,
00000000
00000000
00000000
00300000
,
00010000
00000000
00001000
00000100
00001000
00000000
00000100
00000000
00000010
00001000
00000100
00000000
00000010
00000000
00000001
00001000
,
00000001
00000000
00000100
00000010
00001000
00000000
00000100
00010000
00001000
00000000
00100000
00010000
10000000
00000000
00100000
01000000
,
00100000
00000000
10000000
00010000
01000000
00000000
00100000
00000000
10000000
01000000
10000000
00000000
00010000
00000000
01000000
00100000
,
01000000
00000000
00001000
00010000
00001000
00000000
00010000
00000100
00001000
00000000
00000001
00000000
00000100
00000010
00001000
00000100
,
00000010
00000000
00000001
00001000
00000010
00000000
00001000
00000000
00000001
00001000
00000100
00000000
00000010
00000100
00001000
00000000
,
00000010
00000100
00000001
00000000
00000010
00000001
00000100
00000000
00001000
00010000
00001000
00000000
01000000
00010000
10000000
00010000
,
00100000
00010000
00100000
00010000
01000000
00100000
10000000
01000000
,
00100000
00000000
00010000
00000000
00001000
00000000
00000100
00000000
00000010
00000000
00000001
00000000
00001000
00000001
00001000
00000001
,
00000100
00000000
00000010
00001000
00000001
00000000
00000100
00000000
00000001
00001000
00000100
00000000
00000010
00000000
00000100
00001000
,
00000010
00000000
00010000
00000000
00001000
00100000
00010000
00000000
01000000
00000000
00100000
00000000
10000000
00100000
01000000
00010000
,
10000000
00000000
01000000
00100000
00010000
00000000
01000000
00000000
00100000
01000000
00010000
00000000
10000000
00000000
01000000
00100000
,
00010000
00000000
01000000
00001000
00010000
00000000
00000010
00001000
00000100
00010000
00000010
00001000
00000100
00000010
00000001
00000100
,
00000010
00000000
00001000
00000010
00001000
00000000
00000001
00000000
00001000
00000100
00001000
00000000
00000100
00000000
00000010
00000001
,
00000100
00000000
00000010
00000000
00001000
00000001
00000010
00000000
00000100
00010000
00001000
00010000
00000010
00001000
00000100
00010000
,
00001000
00010000
01000000
10000000
00010000
01000000
00100000
01000000
,
00000000
00000000
01000000
00000000
00010000
00000000
00100000
00000000
01000000
00000000
10000000
00000000
00010000
01000000
00001000
00010000
,
00001000
00010000
00000010
00000210
00000000
00000310
00001000
00000200
,
00000000
00000000
00000310
00000000
00000001
00000000
00000000
00000000
00000001
00001000
00000000
00000010
00000100
00000000
00000010
00000000
,
00001000
00000100
00010000
00012000
00000000
00013000
00100000
02000000
,
00000000
03100000
10000000
01000000
00000000
00100000
01000000
00000000
,
01100000
00000000
00010000
01010000
00000000
00001000
00010000
00000010
,
00000000
00001000
00000100
00001000
00000001
00001000
00000010
00001000
,
00001100
00000000
00001100
00000101
00000000
00000101
00000011
00000000
,
00000011
00001010
00000000
00001010
00011000
00000000
00011000
00000000
,
00001000
00010000
00100000
20100000
00000000
30100000
10000000
02000000
,
00000000
00000000
03010000
00000000
00001000
00000000
00000000
00000000
00100000
00010000
00000000
00100000
00001000
00000000
00010000
00000000
,
00000010
00001000
00000100
00000120
00000000
00000130
00001000
00000010
,
00000000
00000010
00000100
00000001
00000000
00001000
00000001
00000000
,
00000011
00000000
00000011
00001010
00000000
00001010
00011000
00000000
,
00011000
00110000
00000000
00110000
10100000
00000000
11000000
00000000
,
00010000
00000000
00100000
00000000
01000000
00000000
10000000
00000000
00010000
01000000
00100000
10000000
01000000
00100000
01000000
00000000
,
00000000
00000000
01000000
00000000
01000000
00000000
00010000
00000000
00001000
00100000
00010000
01000000
00001000
00010000
00000100
00001000
,
00000100
00000000
00000010
00000001
00001000
00000000
00000010
00000000
00000100
00000010
00001000
00000000
00000100
00000010
00000001
00000000
,
00001000
00000001
00000100
00000000
00000010
00010000
00001000
00000000
00100000
00010000
01000000
00000000
00100000
10000000
01000000
00000000
,
00100000
00000000
00010000
01000000
00100000
00000000
01000000
00000000
00010000
00100000
01000000
00000000
00100000
00001000
00010000
00000000
,
01000000
10000000
00100000
00000000
01000000
00010000
00100000
00000000
00001000
00010000
00000100
00000000
00000010
00000100
00001000
00000100
,
00000010
00000000
00000001
00000010
00000001
00000000
00001000
00000000
00000010
00000100
00000010
00000000
00001000
00000001
00000100
00000000
,
00000010
00001000
00000100
00000000
00010000
00001000
00100000
00000000
00010000
00100000
01000000
00000000
00100000
00010000
10000000
00000000
,
00100000
10000000
00100000
10000000
00010000
01000000
00010000
01000000
00100000
01000000
00100000
01000000
00010000
10000000
00010000
10000000
,
00010000
00100000
01000000
10000000
00010000
01000000
00001000
00010000
00000100
00001000
00000001
00000100
00000010
00001000
00000100
00000010
,
00000001
00000000
00001000
00000100
00000010
00000000
00000001
00000000
00000100
00000001
00000100
00000000
00000001
00000000
00000011
00000000
,
00000010
00000000
00000110
00000000
00000100
00000000
00001100
00000000
00000100
00010000
00001000
00100000
00010000
10000000
01000000
00100000
,
00010000
00000000
01000000
00100000
01000000
00000000
00100000
00000000
10000000
00010000
01000000
00000000
00100000
00000000
10100000
00000000
,
10000000
00000000
11000000
00000000
01000000
00000000
01100000
00000000
00100000
00001000
00010000
00000010
00001000
00000100
00000010
00000001
,
00000100
00000000
00000001
00000010
00000001
00000000
00001100
00000000
00000010
00000000
00000110
00000000
00000001
00000000
00000202
00000000
,
00000000
00000000
00000000
00000303
,
00000010
00001000
00000000
00001000
00000001
00000100
00000000
00000100
00001000
00010000
00000000
00010000
01000000
00100000
00000000
00100000
,
00010000
01000000
00000000
01000000
00100000
10000000
00000000
10000000
01000000
00100000
00000000
00100000
00010000
01000000
00000000
01000000
,
00100000
01000000
00010000
01000000
00100000
01000000
00010000
01000000
00100000
01000000
00010000
01000000
00100000
01000000
00010000
01000000
,
00001000
00010000
00000100
00010000
00001000
00010000
00000100
00010000
00001000
00010000
00000100
00010000
00001000
00010000
00000100
00010000
,
00001000
00010000
00001000
00010000
00000010
00001000
00000010
00001000
00000001
00000100
00000001
00000100
00000010
00000100
00000010
00000100
,
00000001
00000010
00000100
00001000
00000010
00010000
00001000
01000000
00010000
10000000
01000000
00100000
00010000
01000000
00100000
00000000
,
00010000
00001000
00000100
00000001
00001000
00000100
00000010
00000001
,
00000000
00000000
00001000
00000100
00000010
00000100
00001000
00000001
00000100
00000000
00000000
00000000
00001000
00000000
00010000
00000000
,
00001000
00100000
01000000
10000000
00100000
01000000
00010000
00100000
,
01000000
00100000
01000000
00100000
00010000
01000000
00100000
10000000
01000000
10000000
00010000
01000000
00100000
00000000
01010000
00000000
,
00000000
10000000
00010000
00100000
01000000
00010000
00001000
00011000
,
00000000
00011000
00010000
00010010
00000000
00001010
00000010
00000110
,
00000000
00000000
00000001
00000000
00001000
00000000
00000100
00000000
00000010
00000001
00000100
00000010
00001000
00000100
00000020
00000000
,
00000000
00000000
00000000
00000030
,
00001000
00010000
00000010
00001000
00000100
00010000
00001000
00100000
00010000
01000000
00001000
00010000
00000100
00001000
00000010
00010000
,
00001000
01000000
00010000
00100000
00001000
00010000
00000010
00001000
00000100
00010000
00001000
00100000
00010000
01000000
00100000
10000000
,
00010000
00000000
00000000
00000000
,
00000000
00000000
00000000
00000000
;
