#TITLE:Top The Charts;
#ARTIST:J-Mi & Midi-D feat. Hanna Stockzell;
#BANNER:Top The Charts.png;
#BACKGROUND:Top The Charts-bg.png;
#CDTITLE:./CDTITLES/DanceDanceRevolution 2010.png;
#MUSIC:Top The Charts.ogg;
#SAMPLESTART:52.49;
#SAMPLELENGTH:15;
#BPMS:0=160;
#STAGE:2;

//---------------dance-single - ----------------
#NOTES:
     dance-single:
     :
     Beginner:
     3:
     :
0000
0000
0000
0000
,
0000
0000
0000
0000
,
0000
0000
0000
0000
,
0000
0000
0000
0000
,
1000
0000
0000
0000
,
0001
0000
1000
0000
,
0010
0000
0000
0000
,
0010
0000
0000
0000
,
0010
0000
0000
0000
,
0000
0000
0000
0000
,
0001
0000
0001
0000
,
1000
0000
0000
0000
,
0010
0000
0010
0000
,
1000
0000
0000
0000
,
0001
0000
0001
0000
,
1000
0000
0000
0000
,
0010
0000
0010
0000
,
1000
0000
0001
0000
,
1000
0000
0000
0000
,
0001
0000
0001
0000
,
1000
0000
1000
0000
,
0000
0000
1000
0000
,
0001
0000
0000
0000
,
1000
0000
1000
0000
,
0001
0000
0000
0000
,
0001
0001
0001
0000
,
1000
0000
0000
0000
,
0010
0000
0010
0000
,
0010
0000
0000
0000
,
1000
0000
0000
0000
,
0001
0000
0001
0000
,
0010
0000
0010
0000
,
0100
0000
0000
0000
,
1001
0000
0000
0000
,
0000
0000
0000
0000
,
0010
0000
0010
0000
,
1000
0000
1000
0000
,
0001
0000
0001
0000
,
1000
0000
1000
0000
,
0010
0000
0010
0000
,
0001
0000
0001
0000
,
1000
0000
1000
0000
,
0010
0000
0000
0000
,
0010
0000
0010
0000
,
1000
1000
1000
0000
,
0001
0000
0001
0000
,
1000
1000
1000
0000
,
0010
0000
0010
0000
,
0001
0001
0001
0000
,
1000
0000
0001
0000
,
1001
0000
0000
0000
,
1000
0000
1000
0000
,
0001
0001
0001
0000
,
0010
0000
0010
0000
,
0001
0001
0001
0000
,
0001
0000
0001
0000
,
1000
1000
1000
0000
,
0010
0000
0010
0000
,
1000
0000
0001
0000
,
1000
0000
0010
0000
,
0100
0000
0000
0000
,
0000
0000
0000
0000
;

//---------------dance-single - ----------------
#NOTES:
     dance-single:
     :
     Easy:
     5:
     :
0000
0000
0000
0000
,
0000
0000
0000
0000
,
0000
0000
0000
0000
,
0000
0000
0000
0000
,
1000
0000
0001
0000
,
0200
0000
0000
0300
,
0010
0000
0010
0000
,
0010
0000
0010
0000
,
0010
0000
0010
0000
,
0000
0000
0000
0000
,
0001
0000
1000
0000
,
0100
0100
0100
0000
,
0010
0000
0010
0000
,
1000
1000
1000
0000
,
0001
0000
1000
0000
,
0100
0100
0100
0000
,
0010
0000
0010
0000
,
1000
0000
1001
0000
,
0010
0000
0000
0000
,
1000
0001
1000
0001
,
1000
0000
1000
1000
,
0001
0000
0001
0001
,
0010
0000
0000
0000
,
0001
1000
0001
1000
,
0001
0000
0010
0000
,
0001
1000
0001
0000
,
0100
0000
0100
0000
,
0010
0010
0100
0000
,
0010
0000
1000
0010
,
1000
0000
0001
0100
,
0100
0000
0001
0000
,
0010
0010
0100
0000
,
0001
1000
0001
0000
,
0100
0100
0100
0000
,
0000
0000
0000
0000
,
0010
0001
0001
0010
,
0001
0000
0001
0000
,
0001
0000
0100
0000
,
0001
0001
1000
0000
,
0010
0001
0001
0010
,
0001
0000
0001
0000
,
0002
0003
2000
3000
,
0020
0000
0030
0000
,
0010
1000
1000
0010
,
1000
0000
1000
0000
,
1000
0000
0100
0000
,
1000
1000
0001
0000
,
0010
1000
1000
0010
,
1000
0000
1000
0000
,
2000
3000
0002
0003
,
2002
0000
3003
0000
,
0001
0000
1001
0000
,
0100
0100
0100
0000
,
0010
0000
0110
0000
,
1000
1000
1000
0000
,
0001
0000
1000
0000
,
0100
0100
0100
0000
,
0010
0000
0010
0000
,
0200
0300
0020
0030
,
0200
0300
0010
0000
,
0100
0000
0000
0000
,
0000
0000
0000
0000
;

//---------------dance-single - ----------------
#NOTES:
     dance-single:
     :
     Medium:
     8:
     :
0000
0000
0000
0000
,
0000
0000
0000
0000
,
0000
0000
0000
0000
,
0000
0000
0000
0000
,
1000
0001
0100
0010
,
0200
0010
0310
1001
,
2010
0010
0010
3010
,
0012
0010
0010
0013
,
0210
0010
0010
0310
,
1001
0000
0000
0000
,
0001
0000
0010
0000
0001
1000
0001
0000
,
0100
0010
1000
1000
,
0100
0000
1000
0000
0001
0100
0001
0000
,
0010
0100
0100
1000
,
0001
0000
0010
0000
0001
1000
0001
0000
,
0100
0010
1000
1000
,
0100
0000
1000
0000
0001
0100
0001
0000
,
1000
0010
1001
0000
,
1000
0000
1000
0000
0001
0010
0001
0000
,
1000
0010
1000
0000
0001
0100
0001
0000
,
1000
0000
1000
1000
,
0001
0000
0001
0100
,
0001
0000
0001
0000
1000
0010
1000
0000
,
0001
0010
0001
0000
1000
0100
1000
0000
,
0002
0103
0020
1030
,
0001
1000
0010
1100
,
0000
0000
1000
0000
0010
1000
0001
0000
,
1000
0010
0100
0001
,
1010
0000
0000
0000
1000
0100
1000
0000
,
0011
0000
0000
0000
0001
0100
0001
0000
,
0000
0000
0001
0000
0010
0001
1000
0000
,
0001
0010
0100
1000
,
0002
1000
0000
0103
,
1001
1001
1001
0000
,
0000
0000
0000
0000
,
0010
0000
0001
0000
1000
0010
0100
0000
,
0001
1000
0010
0100
,
0020
1030
0200
0310
,
0001
0000
1000
0000
0001
0100
0001
0000
,
0010
0000
0001
0000
1000
0010
0100
0000
,
0001
1000
0100
0010
,
0002
0000
0000
2003
0000
0000
3010
0000
,
1000
0100
0100
1001
,
0010
0000
0001
0000
1000
0010
0100
0000
,
0001
1000
0010
0100
,
0020
1030
0200
0310
,
0001
0000
1000
0000
0001
0100
0001
0000
,
0010
0000
0001
0000
1000
0010
0100
0000
,
0001
1000
0100
0010
,
0002
0000
0000
2003
0000
0000
3010
0000
,
0000
0100
0000
0001
0000
1000
0100
0000
,
1000
0000
0010
0000
1000
0001
1000
0000
,
0100
0010
0001
0001
,
0100
0000
0001
0000
1000
0100
1000
0000
,
0010
0100
0100
0001
,
0001
0000
0010
0000
0001
1000
0001
0000
,
0100
0010
1000
1000
,
0100
0000
1000
0000
0001
0100
0001
0000
,
1000
0000
0000
0010
0100
0000
0000
0001
,
1000
0000
0000
1000
0010
0000
0000
0000
,
0100
0000
0000
0000
,
0000
0000
0000
0000
;

//---------------dance-single - ----------------
#NOTES:
     dance-single:
     :
     Hard:
     12:
     :
0000
0000
0000
0000
,
0000
0000
0000
0000
,
0000
0000
0000
0000
,
0000
0000
0000
0000
,
1000
0001
0100
0010
0100
0001
1000
0010
,
0200
0000
0020
0330
,
2010
0000
0001
0000
0010
0010
3010
0000
,
0012
0000
1000
0000
0010
0010
0013
0000
,
0210
0000
0001
0000
0010
0010
0310
0000
,
2200
0000
0000
3300
,
0001
0000
0000
0010
0001
0000
0100
0000
0010
0000
0000
0000
0101
0000
0000
0000
,
0100
0000
0000
0010
1000
0000
0001
0000
0011
0000
0000
0000
1100
0000
0000
0000
,
0100
0000
0000
1000
0001
0000
0100
0000
0010
0000
0000
0000
1001
0000
0000
0000
,
0101
0000
0010
0001
1000
0100
1000
0000
,
0001
0000
0000
0010
0001
0000
0100
0000
0010
0000
0000
0000
0101
0000
0000
0000
,
0100
0000
0000
0010
1000
0000
0001
0000
0011
0000
0000
0000
1100
0000
0000
0000
,
0100
0000
0000
1000
0001
0000
0100
0000
0010
0000
0000
0000
1001
0000
0000
0000
,
1000
0000
0000
0010
0000
0000
0100
0000
1001
0000
0000
0000
0000
0000
0000
0000
,
1000
0000
0100
1000
0001
0000
0100
0010
,
0100
1000
0000
0100
0000
0010
0001
1000
,
0020
0000
1000
1030
,
0201
0000
0001
0301
,
0001
0000
0100
0001
1000
0000
0100
0010
,
0100
0001
0000
0100
0000
0010
1000
0000
,
0001
0100
0010
1000
0001
0010
0100
0000
,
1000
0000
0001
0010
0001
0000
0100
0010
0100
0000
0010
1000
0010
0000
0000
0000
,
0002
0000
1003
0010
1000
0100
1000
0000
,
0020
0130
0001
0101
,
1010
0000
0010
0001
1000
0100
1000
0000
,
0011
0000
0010
1000
0001
0100
0001
0000
,
2000
0000
3001
0010
0001
0100
0001
0000
,
0020
0130
1000
1100
,
0012
1000
0100
0103
,
0110
1010
0101
0000
,
0000
0000
0000
0000
,
0010
0000
0001
1000
0010
0100
0001
1000
,
0001
1000
0010
0100
0001
0000
0101
0000
,
0020
1030
0200
0310
,
0001
1000
0001
0100
0001
1000
0001
0000
,
0010
0000
0001
1000
0010
0100
0001
1000
,
0001
1000
0100
0010
0001
0000
0011
0000
,
0002
0000
0000
0203
0000
0000
0310
0000
,
1000
1010
0000
0110
0000
0101
0000
0000
,
0010
0000
0001
1000
0010
0100
0001
1000
,
0001
1000
0010
0100
0001
0000
0101
0000
,
0020
1030
0200
0310
,
0001
1000
0001
0100
0001
1000
0001
0000
,
0010
0000
0001
1000
0010
0100
0001
1000
,
0001
1000
0100
0010
0001
0000
0011
0000
,
0001
0000
1000
0100
0000
1000
0010
0000
,
0001
0100
0000
0011
0000
1000
0100
0000
,
1000
0010
0000
0010
1000
0000
0100
0000
0010
0000
0000
0000
1100
0000
0000
0000
,
0100
0010
0000
0010
0001
0000
1000
0000
1010
0000
0000
0000
0101
0000
0000
0000
,
0100
0001
0000
0001
1000
0000
0100
0000
0010
0000
0000
0000
1001
0000
0000
0000
,
1100
0000
0010
1000
0001
0100
0001
0000
,
0001
0000
0000
0010
0001
0000
0100
0000
0010
0000
0000
0000
0101
0000
0000
0000
,
0100
0000
0000
0010
1000
0000
0001
0000
0011
0000
0000
0000
1100
0000
0000
0000
,
0100
0000
0000
1000
0001
0000
0100
0000
0010
0000
0000
0000
1001
0000
0000
0000
,
0201
0000
0000
0010
0000
0000
0301
0000
1002
0000
0000
0100
0000
0000
0013
0000
,
2010
0000
0000
0100
0000
0000
3010
0000
0101
0000
0000
0000
0000
0000
0000
0000
,
1100
0000
0000
0000
,
0000
0000
0000
0000
;

//---------------dance-single - ----------------
#NOTES:
     dance-single:
     :
     Challenge:
     14:
     :
0000
0000
0000
0000
,
0000
0000
0000
0000
,
0000
0000
0000
0000
,
0000
0000
0000
0000
,
0001
1000
0010
0100
0010
1000
0001
0100
,
0020
0000
0130
MMMM
,
0102
0000
1000
0000
0100
0100
0103
0000
,
2100
0000
0001
0000
0100
0100
3100
0000
,
0120
0000
1000
0000
0100
0100
0130
0000
,
MMMM
0000
0001
1000
0000
0001
1000
0000
0010
0000
0100
0001
0010
0000
0010
0000
,
0001
0100
0000
0100
2000
0000
0001
0000
3001
0000
0000
0000
MMMM
0000
0000
0000
,
0010
0100
0000
0100
0001
0000
1000
0000
1100
0000
0000
0000
0011
0000
0001
0000
,
0010
0001
0000
0001
1000
0000
0010
0000
0100
0000
0001
0000
1001
0000
0000
0000
,
1010
0000
0000
0010
1000
0000
0100
0000
0010
0000
0001
0000
1001
0000
0000
0000
,
1000
0100
0000
0100
2000
0000
0010
0000
3010
0000
0000
0000
MMMM
0000
0000
0000
,
0010
0100
0000
0100
0001
0000
1000
0000
1100
0000
0100
0000
0011
0000
0001
0000
,
0010
0001
0000
0001
1000
0000
0010
0000
0100
0000
0001
0000
1001
0000
0000
0000
,
0001
0000
0000
0100
0000
0000
0110
0000
1001
0000
0000
0000
MMMM
0000
0000
0000
,
0001
0100
0001
0010
0001
0100
0010
0100
,
0010
1000
0100
1000
0010
0100
0001
1000
,
0100
1000
0100
0010
0001
0010
0001
0100
,
0010
0000
1000
0000
0010
0000
0100
0000
0001
0000
0100
0001
0100
0000
MMMM
0000
,
1000
0100
0010
1000
0001
0100
0010
0100
,
0010
1000
0010
0001
1000
0100
0001
0100
,
1000
0010
0100
0001
1000
0100
0010
0001
,
1000
0000
0001
0100
0001
0000
1000
0100
1000
0000
MMMM
0000
0010
0100
0010
0000
,
2001
0000
3001
0100
0001
0010
0001
0100
,
0201
0000
0310
1000
0001
1000
1010
0001
,
0110
1000
0100
1000
0001
0010
0001
0010
,
1100
0000
0010
0000
0100
0000
1000
0000
0010
0000
0000
1000
0001
0000
0001
0010
,
0002
0000
1003
0100
1000
0010
1000
0100
,
1200
0000
0310
0001
0101
0000
0011
0000
,
2100
0001
0010
3010
,
0110
0000
MMMM
0000
0101
0000
MMMM
0000
1010
0000
0000
0000
0000
0000
0100
0010
,
0100
0000
MMMM
0000
0100
0000
MMMM
0000
0100
0000
0010
1000
0100
0000
0000
0000
,
1100
0000
0010
0000
0101
0000
0000
0000
0100
0000
0010
0000
1000
0000
0001
0100
,
0001
0010
0100
1000
0010
0010
0101
0000
,
0210
0000
1300
0000
0120
0100
0031
0000
,
1000
0000
0001
0000
1000
0000
0010
0000
1000
0000
0001
1000
0100
0000
0100
0000
,
0011
0100
1010
0000
0100
0010
1000
0001
,
1000
0000
0001
0010
0001
0000
0010
0100
1000
0000
0001
0000
0100
0000
0100
0000
,
2010
0000
0001
3002
0000
0100
0103
0010
,
MMMM
0101
MMMM
0110
MMMM
1010
MMMM
MMMM
,
0011
0000
0100
0000
1010
0000
0000
0000
0010
0000
0100
0000
0001
0000
1000
0010
,
1000
0100
0010
0001
0100
0100
1010
0000
,
0120
0100
0031
0100
0210
0010
1300
0100
,
0001
0000
1000
0000
0001
0000
0100
0000
0001
0000
1000
0001
0010
0000
0010
0000
,
1100
0010
0101
0000
0010
0100
0001
1000
,
0001
0000
1000
0100
1000
0000
0100
0010
0001
0000
1000
0000
0010
0000
0010
0000
,
0102
0000
1000
2003
0000
0010
3010
0100
,
MMMM
1010
MMMM
0110
MMMM
0101
MMMM
MMMM
,
0001
0100
0000
0100
0010
0000
0010
1000
0100
0000
0010
0000
0011
0000
0001
0000
,
0010
0100
0000
0100
1000
0000
1000
0001
0100
0000
0010
0000
1010
0000
0100
0000
,
0010
1000
0000
1000
0001
0000
0010
0100
1000
0000
0001
0000
1001
0000
0000
0000
,
0011
0000
0000
0100
0001
0000
0001
0000
1000
0000
0000
0010
1000
0000
1000
0000
,
0001
0100
0000
0100
1000
0000
0100
0001
1000
0000
0010
0000
1010
0000
1000
0000
,
0010
0100
0000
0100
0001
0000
1000
0100
0010
0000
0100
0000
0110
0000
0001
0000
,
0010
0001
0000
0001
1000
0000
0010
1000
0100
0000
0010
0000
1001
0000
0000
0000
,
1010
0000
0000
0110
0000
0000
1100
0000
0011
0000
0000
0110
0000
0000
0101
0000
,
1001
0000
0000
0110
0000
0000
0110
0000
1010
0000
0000
0000
MMMM
0000
0000
0000
,
0011
0000
0000
0000
,
0000
0000
0000
0000
;

//---------------dance-double - ----------------
#NOTES:
     dance-double:
     :
     Easy:
     5:
     :
00000000
00000000
00000000
00000000
,
00000000
00000000
00000000
00000000
,
00000000
00000000
00000000
00000000
,
00000000
00000000
00000000
00000000
,
01000000
00000000
00100000
00000000
,
00200000
00000000
00000000
00300000
,
10000000
00000000
10000000
00000000
,
01000000
00000000
01000000
00000000
,
00010000
00000000
00010000
00000000
,
00010000
00000000
00000000
00000000
,
00001000
00000000
00000100
00000000
,
00000010
00000010
00000010
00000000
,
00000100
00000000
00000100
00000000
,
00000001
00000001
00000001
00000000
,
00000100
00000000
00001000
00000000
,
00010000
00010000
00010000
00000000
,
00001000
00000000
00001000
00000000
,
00010000
00000000
00011000
00000000
,
01000000
00000000
00000000
00000000
,
10000000
01000000
10000000
01000000
,
00100000
00000000
00010000
00010000
,
01000000
00000000
01000000
01000000
,
00001000
00000000
00000000
00000000
,
00010000
00001000
00010000
00001000
,
00010000
00000000
00000100
00000000
,
00001000
00000001
00001000
00000000
,
00000010
00000000
00000010
00000000
,
00000100
00000100
00000001
00000000
,
00000100
00000000
00001000
00001000
,
00010000
00000000
00001000
00100000
,
00100000
00000000
01000000
00000000
,
10000000
10000000
00100000
00000000
,
10000000
00010000
10000000
00000000
,
00010000
00010000
00010000
00000000
,
00000000
00000000
00000000
00000000
,
00010000
00001000
00001000
00010000
,
00001000
00000000
00000100
00000000
,
00000010
00000000
00000010
00000000
,
00001000
00001000
00000001
00000000
,
00001000
00000001
00000001
00001000
,
00000001
00000000
00000100
00000000
,
00002000
00003000
00020000
00030000
,
00200000
00000000
00300000
00000000
,
00010000
10000000
10000000
00010000
,
10000000
00000000
01000000
00000000
,
01000000
00000000
00100000
00000000
,
00010000
00010000
01000000
00000000
,
00001000
00010000
00010000
00001000
,
00010000
00000000
00001000
00000000
,
00000200
00000300
00000020
00000030
,
00002002
00000000
00003003
00000000
,
00000100
00000000
00000110
00000000
,
00000100
00000100
00000100
00000000
,
00001000
00000000
00011000
00000000
,
00010000
00010000
00010000
00000000
,
01000000
00000000
00100000
00000000
,
01000000
01000000
01000000
00000000
,
10000000
00000000
10000000
00000000
,
02000000
03000000
00200000
00300000
,
02000000
03000000
00010000
00000000
,
00011000
00000000
00000000
00000000
,
00000000
00000000
00000000
00000000
;

//---------------dance-double - ----------------
#NOTES:
     dance-double:
     :
     Medium:
     8:
     :
00000000
00000000
00000000
00000000
,
00000000
00000000
00000000
00000000
,
00000000
00000000
00000000
00000000
,
00000000
00000000
00000000
00000000
,
00000010
00001000
00000001
00000100
,
00002000
00010000
00013000
00011000
,
00201000
00001000
00001000
00301000
,
01020000
01000000
01000000
01030000
,
20100000
00100000
00100000
30100000
,
10010000
00000000
00000000
00000000
,
00100000
00000000
10000000
00000000
00010000
01000000
00010000
00000000
,
10000000
00100000
00010000
00010000
,
00001000
00000000
00010000
00000000
00000010
00001000
00000010
00000000
,
00000100
00000001
00000001
00000010
,
00000001
00000000
00000100
00000000
00000001
00001000
00000001
00000000
,
00000100
00000010
00001000
00001000
,
00000100
00000000
00010000
00000000
00001000
00010000
00001000
00000000
,
00100000
00010000
01100000
00000000
,
10000000
00000000
10000000
00000000
01000000
00100000
01000000
00000000
,
10000000
00100000
10000000
00000000
00010000
01000000
00010000
00000000
,
00100000
00000000
00010000
00010000
,
00001000
00000000
00001000
00010000
,
00000100
00000000
00000100
00000000
00001000
00000010
00001000
00000000
,
00000001
00000010
00000001
00000000
00001000
00000100
00001000
00000000
,
00000002
00000103
00002000
00013000
,
00001000
00010000
00100000
01010000
,
00000000
00000000
10000000
00000000
00100000
10000000
01000000
00000000
,
00010000
00001000
00010000
00000100
,
00001100
00000000
00000000
00000000
00000010
00000001
00000010
00000000
,
00001100
00000000
00000000
00000000
00000010
00001000
00000010
00000000
,
00000000
00000000
00000001
00000000
00000100
00000000
00000010
00001000
,
00000100
00000010
00000001
00000100
,
00002000
00010000
00000000
00013000
,
00011000
00011000
00011000
00000000
,
00000000
00000000
00000000
00000000
,
00100000
00000000
00010000
00000000
01000000
00010000
01000000
00000000
,
00100000
10000000
01000000
00010000
,
00002000
01003000
00002000
00103000
,
00001000
00000000
00010000
00000000
00000100
00001000
00000100
00000000
,
00000010
00000000
00000001
00000000
00000100
00000010
00001000
00000000
,
00000010
00000100
00001000
00010000
,
00002000
00000000
00000000
00023000
00000000
00000000
00130000
00000000
,
10000000
01000000
01000000
10010000
,
00100000
00000000
10000000
00000000
01000000
00100000
01000000
00000000
,
10000000
00100000
00010000
00001000
,
00020000
00031000
00020000
00030100
,
00010000
00000000
00000010
00000000
00001000
00000100
00001000
00000100
,
00001000
00000000
00000001
00000000
00000100
00000010
00000100
00000000
,
00001000
00000001
00000100
00001000
,
00020000
00000000
00000000
02030000
00000000
00000000
13000000
00000000
,
00000000
00100000
00000000
00010000
00000000
00001000
00010000
00000000
,
00000100
00000000
00000100
00000000
00001000
00000010
00001000
00000000
,
00000001
00000100
00001000
00001000
,
00010000
00000000
00001000
00000000
01000000
00010000
01000000
00000000
,
00100000
10000000
10000000
01000000
,
10000000
00000000
00100000
00000000
10000000
00010000
10000000
00000000
,
00100000
01000000
00010000
00010000
,
00100000
00000000
00001000
00000000
00010000
00001000
00010000
00000000
,
00000010
00000000
00000000
00000100
00000010
00000000
00000000
00001000
,
00010000
00000000
00000000
00100000
01000000
00000000
00000000
00000000
,
10010000
00000000
00000000
00000000
,
00000000
00000000
00000000
00000000
;

//---------------dance-double - ----------------
#NOTES:
     dance-double:
     :
     Hard:
     12:
     :
00000000
00000000
00000000
00000000
,
00000000
00000000
00000000
00000000
,
00000000
00000000
00000000
00000000
,
00000000
00000000
00000000
00000000
,
00010000
00001000
00100000
00010000
01000000
00001000
00010000
00000100
,
00002000
00000000
00000002
00003003
,
00002000
00000000
00000100
00000000
00000001
00000001
00003001
00000000
,
00002000
00000000
00000010
00000000
00010000
00010000
00013000
00000000
,
00020000
00000000
01000000
00000000
10000000
10000000
10030000
00000000
,
00220000
00000000
00000000
00330000
,
10000000
00000000
00000000
01000000
10000000
00000000
00100000
00000000
01000000
00000000
00000000
00000000
10100000
00000000
00000000
00000000
,
00010000
00000000
00000000
01000000
00010000
00000000
00100000
00000000
00110000
00000000
00000000
00000000
00101000
00000000
00000000
00000000
,
00010000
00000000
00000000
00001000
00010000
00000000
00000100
00000000
00000010
00000000
00000000
00000000
00001001
00000000
00000000
00000000
,
00000011
00000000
00000100
00001000
00000001
00000010
00000001
00000000
,
00000100
00000000
00000000
00000010
00000100
00000000
00000001
00000000
00000100
00000000
00000000
00000000
00001010
00000000
00000000
00000000
,
00000010
00000000
00000000
00000100
00001000
00000000
00010000
00000000
00011000
00000000
00000000
00000000
00101000
00000000
00000000
00000000
,
00010000
00000000
00000000
01000000
00010000
00000000
00100000
00000000
01000000
00000000
00000000
00000000
10010000
00000000
00000000
00000000
,
10000000
00000000
00000000
00100000
00000000
00000000
00010000
00000000
00011000
00000000
00000000
00000000
00000000
00000000
00000000
00000000
,
00001000
00000000
00100000
00001000
00010000
00000000
00000100
00001000
,
00000100
00000001
00000000
00000100
00000000
00000010
00000001
00000100
,
00002000
00000000
00000100
00013000
,
00021000
00000000
00001000
01030000
,
10000000
00000000
00100000
10000000
00010000
00000000
00100000
01000000
,
00100000
10000000
00000000
00100000
00000000
00010000
00001000
00000000
,
00001000
00000100
00010000
00001000
00010000
00000010
00000100
00000000
,
00000001
00000000
00000010
00000100
00000010
00000000
00000100
00001000
00000100
00000000
00001000
00000001
00001000
00000000
00000000
00000000
,
00002000
00000000
00003001
00000100
00000010
00000001
00000010
00000000
,
00000200
00000310
00001000
00001010
,
00010100
00000000
00000100
00010000
00001000
00010000
00000100
00000000
,
00011000
00000000
01000000
00001000
00010000
00001000
01000000
00000000
,
00200000
00000000
10300000
01000000
00010000
01000000
00100000
00000000
,
00020000
01030000
10000000
00110000
,
00012000
00000100
00000100
00003100
,
00010010
00001010
00001001
00000000
,
00000000
00000000
00000000
00000000
,
00000100
00000000
00000001
00001000
00000100
00000010
00000100
00001000
,
00000001
00000100
00000010
00001000
00000100
00000000
00010100
00000000
,
00002000
00003100
00002000
00013000
,
00001000
00100000
00010000
00100000
00001000
00010000
01000000
00000000
,
00100000
00000000
10000000
00010000
01000000
00100000
10000000
00010000
,
01000000
00010000
00100000
00001000
00010000
00000000
00010100
00000000
,
00002000
00000000
00000000
00003020
00000000
00000000
00000031
00000000
,
00000100
00001000
00000000
00011000
00000000
01001000
00000000
00000000
,
00100000
00000000
10000000
00010000
00100000
01000000
00100000
00010000
,
10000000
00100000
01000000
00010000
00100000
00000000
00101000
00000000
,
00020000
00130000
00020000
00031000
,
00010000
00000100
00001000
00000100
00010000
00001000
00000010
00000000
,
00000100
00000000
00000001
00001000
00000010
00000100
00000001
00001000
,
00000010
00001000
00000100
00010000
00001000
00000000
00101000
00000000
,
00020000
00000000
00000000
02030000
00000000
00000000
13000000
00000000
,
00010000
01000000
00000000
10100000
00000000
10000000
01000000
00000000
,
00100000
01000000
00000000
01000000
00100000
00000000
00010000
00000000
01000000
00000000
00000000
00000000
00110000
00000000
00000000
00000000
,
00001000
00010000
00000000
00010000
00001000
00000000
00000100
00000000
00000010
00000000
00000000
00000000
00001010
00000000
00000000
00000000
,
00000001
00000010
00000000
00000010
00000001
00000000
00000100
00000000
00000010
00000000
00000000
00000000
00001001
00000000
00000000
00000000
,
00000101
00000000
00000100
00000010
00001000
00000100
00010000
00000000
,
00001000
00000000
00000000
00010000
00001000
00000000
00010000
00000000
00100000
00000000
00000000
00000000
10100000
00000000
00000000
00000000
,
01000000
00000000
00000000
10000000
00100000
00000000
01000000
00000000
01010000
00000000
00000000
00000000
10100000
00000000
00000000
00000000
,
10000000
00000000
00000000
01000000
00100000
00000000
01000000
00000000
00010000
00000000
00000000
00000000
00011000
00000000
00000000
00000000
,
00010020
00000000
00000000
00001000
00000000
00000000
00000130
00000000
00002001
00000000
00000000
00000010
00000000
00000000
00003100
00000000
,
00020100
00000000
00000000
00001000
00000000
00000000
00000010
00000000
00030010
00000000
00000000
00000000
00000000
00000000
00000000
00000000
,
00011000
00000000
00000000
00000000
,
00000000
00000000
00000000
00000000
;

//---------------dance-double - ----------------
#NOTES:
     dance-double:
     :
     Challenge:
     14:
     :
00000000
00000000
00000000
00000000
,
00000000
00000000
00000000
00000000
,
00000000
00000000
00000000
00000000
,
00000000
00000000
00000000
00000000
,
00001000
00010000
00000100
00001000
00000010
00010000
00001000
00100000
,
00020000
00000000
10030000
MMMMMMMM
,
01020000
00000000
10000000
00000000
00100000
00100000
00130000
00000000
,
00012000
00000000
00000100
00000000
00000001
00000001
00003010
00000000
,
00021000
00000000
01000000
00000000
10000000
10000000
00130000
00000000
,
MMMMMMMM
00000000
00001000
00010000
00000000
00001000
00010000
00000000
00000010
00000000
00001000
00000100
00000010
00000000
00000001
00000000
,
00000100
00000010
00000000
00000010
00000200
00000000
00000001
00000000
00000301
00000000
00000000
00000000
MMMMMMMM
00000000
00000000
00000000
,
00000010
00000100
00000000
00000100
00001000
00000000
00010000
00000000
00011000
00000000
00000000
00000000
00101000
00000000
00001000
00000000
,
00010000
01000000
00000000
01000000
00100000
00000000
00010000
00000000
10000000
00000000
00100000
00000000
01100000
00000000
00000000
00000000
,
00110000
00000000
00000000
00100000
10000000
00000000
01000000
00000000
00100000
00000000
00010000
00000000
10010000
00000000
00000000
00000000
,
01000000
00010000
00000000
00010000
00002000
00000000
00010000
00000000
00013000
00000000
00000000
00000000
MMMMMMMM
00000000
00000000
00000000
,
00000100
00000010
00000000
00000010
00000001
00000000
00000100
00000000
00000101
00000000
00000010
00000000
00001001
00000000
00000000
00000000
,
00000100
00010000
00000000
00010000
00001000
00000000
00000100
00000000
00000001
00000000
00001000
00000000
00001001
00000000
00000000
00000000
,
00000010
00000000
00000000
00000100
00000000
00000000
00001100
00000000
00011000
00000000
00000000
00000000
MMMMMMMM
00000000
00000000
00000000
,
00010000
00000010
00010000
00001000
00000100
00000010
00001000
00000100
,
00010000
00000010
00010000
00001000
00010000
01000000
00100000
01000000
,
10000000
01000000
00010000
00001000
00000100
00000010
00000100
00000001
,
00001000
00000000
00000001
00000000
00000100
00000000
00001000
00000000
00010000
00000000
00001000
00010000
00001000
00000000
MMMMMMMM
00000000
,
00001000
01000000
00001000
00100000
00001000
00010000
01000000
00100000
,
00001000
00010000
00000100
00001000
00000010
00000100
00000001
00000010
,
00000001
00000100
00000010
00010000
00000010
00000100
00001000
00010000
,
00000100
00000000
00010000
00000010
00010000
00000000
00001000
00100000
00001000
00000000
MMMMMMMM
00000000
00001000
00010000
00001000
00000000
,
00021000
00000000
01030000
10000000
01000000
00100000
00001000
00012000
,
00000000
00003100
00000001
00001000
00000100
00000010
00000001
00002001
,
00000000
00003001
00000010
00001000
00010000
00001000
00010000
00021000
,
00000000
00000000
01030000
00000000
10000000
00000000
00010000
00000000
01000000
00000000
00000000
00100000
10000000
00000000
00010000
10000000
,
00020000
00000000
00130000
01000000
00100000
00001000
00010000
00012000
,
00000000
00003010
00000001
00000010
00000100
00001000
00001001
00000000
,
00002100
00000001
00000010
00013000
,
01010000
00000000
MMMMMMMM
00000000
10010000
00000000
MMMMMMMM
00000000
00110000
00000000
00000000
00000000
00000000
00000000
00010000
01000000
,
00010000
00000000
MMMMMMMM
00000000
00001000
00000000
MMMMMMMM
00000000
00000100
00000000
00001000
00000100
00001000
00000000
00000000
00000000
,
00000011
00000000
00000100
00000000
00001010
00000000
00000000
00000000
00000010
00000000
00000001
00000000
00001000
00000000
00000010
00000100
,
00000010
00000100
00001000
00010000
00001000
00001000
00010100
00000000
,
00021000
00001000
00130000
00000000
00012000
00010000
00003010
00000000
,
00001000
00000000
00010000
00000000
00100000
00000000
01000000
00000000
00010000
00000000
10000000
01000000
00100000
00000000
00010000
00000000
,
01010000
00000000
00100000
00000000
11000000
00000000
00000000
00000000
00100000
00000000
10000000
00000000
01000000
00000000
00100000
01000000
,
00100000
00000000
01000000
00000000
00010000
00000000
00001000
00010000
00001000
00000000
00100000
00000000
00001000
00000000
00010000
00000000
,
00010200
00000000
00000010
00000320
00000000
00000001
00000031
00000100
,
MMMMMMMM
00001100
MMMMMMMM
00011000
MMMMMMMM
01010000
MMMMMMMM
MMMMMMMM
,
11000000
00000000
00100000
00000000
01010000
00000000
00000000
00000000
01000000
00000000
10000000
00000000
00010000
00000000
01000000
00100000
,
01000000
00100000
00010000
00001000
00010000
00010000
00101000
00000000
,
00012000
00010000
00003100
00001000
00021000
00001000
01030000
00010000
,
00010000
00000000
00001000
00000000
00000100
00000000
00000010
00000000
00001000
00000000
00000001
00000010
00000100
00000000
00001000
00000000
,
00001010
00000000
00000100
00000000
00000011
00000000
00000000
00000000
00000100
00000000
00000001
00000000
00000010
00000000
00000100
00000010
,
00000100
00000000
00000010
00000000
00001000
00000000
00010000
00001000
00010000
00000000
00000100
00000000
00010000
00000000
00001000
00000000
,
00201000
00000000
01000000
02300000
00000000
10000000
13000000
00100000
,
MMMMMMMM
00110000
MMMMMMMM
00011000
MMMMMMMM
00001010
MMMMMMMM
MMMMMMMM
,
00000001
00000010
00000000
00000010
00000100
00000000
00000100
00001000
00000001
00000000
00000100
00000000
00000101
00000000
00000000
00000000
,
00000010
00000100
00000000
00000100
00001000
00000000
00001000
00010000
00000100
00000000
00010000
00000000
00011000
00000000
00001000
00000000
,
00001000
00010000
00000000
00010000
01000000
00000000
00100000
00010000
10000000
00000000
01000000
00000000
11000000
00000000
00000000
00000000
,
10010000
00000000
00000000
01000000
00100000
00000000
00100000
00000000
00010000
00000000
00000000
00010000
01000000
00000000
01000000
00000000
,
10000000
01000000
00000000
01000000
00010000
00000000
00100000
00001000
00010000
00000000
00001000
00000000
00010100
00000000
00000000
00000000
,
00001000
00000010
00000000
00000010
00000100
00000000
00000001
00001000
00000100
00000000
00000010
00000000
00000011
00000000
00000001
00000000
,
00000001
00000100
00000000
00000100
00001000
00000000
00010000
00001000
00010000
00000000
00001000
00000000
00101000
00000000
00000000
00000000
,
01010000
00000000
00000000
11000000
00000000
00000000
01010000
00000000
00110000
00000000
00000000
00011000
00000000
00000000
00001010
00000000
,
00001100
00000000
00000000
00000101
00000000
00000000
00001100
00000000
00001001
00000000
00000000
00000000
MMMMMMMM
00000000
00000000
00000000
,
00011000
00000000
00000000
00000000
,
00000000
00000000
00000000
00000000
;
