#TITLE:The Island Song;
#ARTIST:TAG feat. Eric Anthony;
#BANNER:The Island Song.png;
#BACKGROUND:The Island Song-bg.png;
#CDTITLE:./CDTITLES/DanceDanceRevolution 2010.png;
#MUSIC:The Island Song.ogg;
#SAMPLESTART:47.96;
#SAMPLELENGTH:15;
#DISPLAYBPM:85;
#BPMS:0=84.65,4=85;

//---------------dance-single - ----------------
#NOTES:
     dance-single:
     :
     Beginner:
     2:
     :
0000
0000
0000
0000
,
0000
0000
0000
0000
,
0000
0000
0000
0000
,
0001
0000
0001
0000
,
1000
0000
1000
0000
,
0010
0000
0010
0000
,
0100
0000
0100
0000
,
0001
0001
0001
0001
,
0001
0000
0000
0000
,
1000
1000
1000
0000
,
0010
0010
0010
0000
,
0100
0100
0100
0100
,
0100
0000
0000
0000
,
0001
0000
0001
0000
,
0100
0000
0100
0000
,
0010
0000
0010
0000
,
0000
0000
0000
0000
,
0010
0000
0010
0000
,
0001
0000
0001
0000
,
0010
0000
0010
0000
,
1000
0000
1000
0000
,
0100
0000
0100
0000
,
0001
0001
0001
0000
,
1000
1000
1000
0000
,
0010
0010
0010
0010
,
0010
0000
0000
0000
,
0000
0000
0000
0000
,
0001
0000
0001
0000
,
1000
0000
1000
0000
,
0010
0000
0010
0000
,
0100
0000
0100
0000
,
1001
0000
0000
0000
,
0000
0000
0000
0000
;

//---------------dance-single - ----------------
#NOTES:
     dance-single:
     :
     Easy:
     3:
     :
0000
0000
0000
0000
,
0000
0000
0000
0000
,
0000
0000
0000
0000
,
1000
0000
0001
0000
,
1000
0000
0001
0000
,
0010
0010
0001
0000
,
1000
1000
0100
0000
,
1000
0100
0001
0100
,
0001
0000
0000
0000
,
0010
1000
0010
0000
,
0001
0010
0001
0000
,
0010
0001
1000
0100
,
0002
0003
0000
0000
,
2000
3000
0002
0003
,
0010
1000
0001
0000
,
2000
3000
0002
0003
,
0000
0000
0000
0000
,
0001
0010
1000
0000
,
0001
0100
1000
0000
,
0001
0000
1000
0000
,
2002
0000
0000
3003
,
1000
0010
0001
0000
,
1000
0100
0001
0000
,
1000
0000
0001
0000
,
1000
0000
0001
0000
,
2002
3003
0000
0000
,
0000
0000
0000
0000
,
2000
3000
0000
0000
,
1000
0100
0001
0100
,
1000
0100
0001
0100
,
1000
0100
0001
0000
,
2000
0000
0000
3000
,
0000
0000
0000
0000
;

//---------------dance-single - ----------------
#NOTES:
     dance-single:
     :
     Medium:
     7:
     :
0000
0000
0000
0000
,
0000
0000
0000
0000
,
0000
0000
0000
0000
,
0001
0000
0100
0000
1000
0100
0001
0100
,
1000
0000
0100
0000
0001
0100
1000
0100
,
0001
0010
0100
1000
,
0001
0000
0200
0000
1300
0100
0000
0000
,
0001
0000
0010
0000
1000
0000
0010
0001
,
0010
1000
0010
0001
,
0010
0001
0010
0001
1000
0000
0001
0000
,
1000
0100
1000
0100
0010
0000
0001
0000
,
0020
0031
0100
0001
,
0010
0001
0010
0000
1000
0100
1000
0000
,
0200
0000
0000
0000
0000
1300
0000
0000
0000
0000
0000
0000
0002
0000
0000
0000
0000
0103
0000
0000
0000
0000
0000
0000
,
2000
0000
0000
0000
0000
3100
0000
0000
0000
0000
0000
0000
0002
0000
0000
0000
0000
0103
0000
0000
0000
0000
0000
0000
,
2000
0000
0000
0000
0000
3001
0000
0000
0000
0000
0000
0000
0002
0000
0000
0000
0000
1003
0000
0000
0000
0000
0000
0000
,
0001
1000
0001
1000
0001
1000
0001
0000
0000
0000
0000
0000
,
1000
0100
0001
0100
,
1000
0100
1000
0100
1000
0100
1000
0000
0000
0000
0000
0000
,
0010
0000
0000
0000
0000
0010
0000
0000
0000
0000
0000
0000
1000
0000
0000
0000
0000
1000
0000
0000
0000
0000
0000
0000
,
0001
0000
0000
0000
0000
0001
0000
0000
0000
0000
0000
0000
1000
0000
0000
0100
0000
0000
0001
0000
0000
1000
0000
0000
,
0001
0000
0000
0000
0000
0001
0000
0000
0000
0000
0000
0000
0100
0000
0000
0000
0000
0100
0000
0000
0000
0000
0000
0000
,
0001
0100
0001
0100
0001
0100
0001
0000
0000
0000
0000
0000
,
0010
1000
0001
0000
0010
0001
1000
0000
,
0100
1000
0001
0000
0100
0001
1000
0100
,
0002
0000
0103
0000
1000
0000
0001
1000
,
0001
0010
0100
1000
,
0002
0013
1000
0100
,
0002
0103
2000
3100
,
2000
3100
0002
0103
,
0200
0001
1300
0001
,
0200
0000
0000
0300
,
0000
0000
0000
0000
;

//---------------dance-single - ----------------
#NOTES:
     dance-single:
     :
     Hard:
     9:
     :
0000
0000
0000
0000
,
0000
0000
0000
0000
,
0000
0000
0000
0000
,
0010
0000
0000
0001
0000
0000
0000
0000
0000
0010
0000
0000
0000
0000
0000
0100
0000
0000
0000
0000
0000
0001
0000
1000
,
0010
0000
0000
0100
0000
0000
0000
0000
0000
0001
0000
0000
0000
0000
0000
1000
0000
0000
0000
0000
0000
0100
0000
0010
,
1000
0000
0000
0100
0000
0000
0000
0000
0000
0010
0000
0000
0000
0000
0000
0100
0000
0000
0000
0000
0000
0001
0000
0010
,
0100
0000
0000
0001
0000
0000
0000
0000
0000
1000
0000
0000
0000
0000
0000
0010
0000
0000
0000
0000
0000
1000
0000
0100
,
0001
0000
0000
0010
0000
0000
0000
0000
0000
0100
0000
0000
0000
0000
0000
0010
0000
0000
0000
0000
0000
0100
0000
0010
,
1000
0000
0000
0001
0000
0000
0000
0000
0000
0010
0000
0000
0000
0000
0000
1000
0000
0000
0000
0000
0000
0010
0000
0001
,
1000
0000
0000
0001
0000
0000
0100
0000
0000
0010
0000
0000
0000
0000
0000
0010
0000
0000
0100
0000
0000
0001
0000
1000
,
0001
0000
0000
0010
0000
0000
0100
0000
0000
1000
0000
0000
0000
0000
0000
0010
0000
0000
1000
0000
0000
0100
0000
0010
,
0001
0000
0000
0100
0000
0000
1000
0000
0000
0010
0000
0000
0000
0000
0000
0010
0000
0000
0100
0000
0000
1000
0000
0100
,
0001
0000
0000
0010
0000
0000
0100
0000
0000
1000
0000
0000
0000
0000
0000
1000
0000
0000
0010
0000
0000
0100
0000
0010
,
1000
0000
0000
0100
0000
0000
0000
0000
0000
0010
0000
0000
0000
0000
0000
0100
0000
0000
0000
0000
0000
0001
0000
1000
,
0100
0000
0000
0010
0000
0000
0000
0000
0000
0001
0000
0000
0000
0000
0000
0100
0000
0000
0000
0000
0000
1000
0000
0001
,
0010
0000
0000
1000
0000
0000
0000
0000
0000
1000
0000
0000
0000
0000
0000
0100
0000
0000
0000
0000
0000
0010
0000
0100
,
0001
0000
1000
0000
1000
0000
0010
0000
0100
0000
0100
0000
0001
0000
0000
0010
0000
0000
0100
0000
0000
0010
0000
0000
,
1000
0100
0000
0010
0000
1000
0010
0010
,
1000
0000
0100
0000
0100
0000
0001
0000
0010
0000
0010
0000
1000
0000
0000
0100
0000
0000
0000
0000
0100
0010
0000
0000
,
0001
0000
0000
0010
0000
0000
0000
0000
0000
1000
0000
0000
0000
0000
0000
0001
0000
0000
0000
0000
0100
0010
0000
0000
,
1000
0000
0000
0100
0000
0000
0000
0000
0000
0010
0000
0000
0000
0000
0000
1000
0000
0000
0000
0000
0010
0100
0000
0000
,
0001
0010
0000
1000
0000
0010
0000
0100
,
0001
0000
0010
0000
0010
0000
1000
0000
0100
0000
0100
0000
0001
0000
0000
0010
0000
0000
0000
0000
0100
0010
0000
0000
,
1000
0100
0010
0001
0000
1000
0000
0100
,
0001
0010
1000
0100
0000
1000
0000
0100
,
0010
0000
0000
0001
0000
0000
1000
0000
0000
0100
0000
0000
0000
0000
0000
0100
0000
0000
1000
0000
0000
0010
0000
0001
,
0010
0000
0000
0100
0000
0000
0000
0000
0000
0001
0000
0000
0100
0000
0000
0100
0000
0000
0010
0000
0000
0100
0000
0010
,
0001
0000
0000
0010
0000
0000
1000
0000
0000
0100
0000
0000
0000
0000
0000
0010
0000
0000
1000
0000
0000
0001
0000
1000
,
0100
0000
0000
0010
0000
0000
0001
0000
0000
0100
0000
0000
0000
0000
0000
0010
0000
0000
0100
0000
0000
0001
0000
1000
,
0010
0000
0000
0001
0000
0000
1000
0000
0000
0100
0000
0000
0000
0000
0000
0010
0000
0000
0100
0000
0000
1000
0000
0010
,
0001
0000
0000
0010
0000
0000
1000
0000
0000
0100
0000
0000
0000
0000
0000
0010
0000
0000
0100
0000
0000
0010
0000
0100
,
2002
0000
0000
3003
,
0000
0000
0000
0000
;

//---------------dance-single - ----------------
#NOTES:
     dance-single:
     :
     Challenge:
     13:
     :
0000
0000
0000
0000
,
0000
0000
0000
0000
,
0000
0000
0000
0000
,
0110
0000
0000
0001
0000
0010
0001
0000
0000
0100
0000
0010
0100
0000
0010
1000
0000
0000
1001
0000
0000
1000
0000
0001
,
0100
0000
0000
0000
0000
0000
0001
0000
0000
0000
0010
0000
0100
0000
0000
0000
0000
0000
1000
0000
0000
0000
0010
0000
0100
0000
0000
0000
0001
0000
0100
0000
0000
0000
0001
1000
0001
0000
0000
0000
1000
0000
0010
0000
0000
0000
1000
0000
,
0100
0000
0000
0010
0000
0001
0100
0000
0000
0010
0000
1000
0100
0000
0000
0010
0000
0001
0100
0000
0000
0010
0000
0100
,
0001
0000
0000
0010
0000
0100
1000
0000
0000
0010
0000
0100
0001
0000
0001
0010
0000
0010
0100
0000
0100
1000
0000
0000
,
1001
0000
0000
0100
0000
0010
0001
0000
0000
0100
0000
0010
1000
0000
0000
0100
0000
0010
0001
0000
0000
0100
0000
0010
,
1000
0000
0000
0100
0000
1000
0010
0000
0000
0100
0000
0001
0010
0000
0010
0100
0000
0100
1000
0000
1000
0010
0000
0000
,
0110
0000
0000
1010
0000
2000
0001
0000
0000
3100
0000
1001
0000
0000
0000
0100
0000
0100
0010
0000
0000
0001
0000
0000
,
0110
0000
0000
0011
0000
0002
1000
0000
0000
0103
0000
1001
0000
0000
0000
0100
0000
0100
0010
0000
0000
1000
0000
0000
,
0101
0000
0000
1010
0000
0002
0100
0000
0000
1003
0000
1100
0000
0000
0010
0100
0000
0010
0001
0000
0000
1000
0000
0000
,
1010
0000
0000
0101
0000
2000
0010
0000
0000
3001
0000
0010
0001
0000
0001
0100
0000
0100
1000
0000
1000
0100
0000
0000
,
0102
0000
0000
0010
0000
0010
0003
0000
0000
0010
0000
0100
2000
0000
0000
0010
0000
0010
3000
0000
0000
1000
0000
0100
,
0010
0000
0000
0010
0000
0001
0100
0000
0000
0100
0000
0100
0010
0000
0010
1000
0000
1000
0001
0000
0000
1000
0000
0100
,
2000
0000
0000
0010
0000
0010
3000
0000
0000
0010
0000
0100
0002
0000
0000
0010
0000
0010
0003
0000
0100
0010
0000
0000
,
0011
0000
0000
0000
0011
0000
0000
0000
0101
0000
0000
0000
1010
0000
0000
0000
1010
0000
0000
0000
0110
0000
0000
0000
1001
0000
0000
0000
0000
0000
0000
0000
0000
0000
0010
0100
0010
0000
0000
0000
1000
0000
0100
0000
0000
0000
0000
0000
,
1001
0000
0000
0012
0000
0100
0103
0000
0000
0010
0000
1000
0100
0000
0000
0021
0000
0100
0130
0000
0000
1000
0000
1000
,
0010
0000
0001
0000
1000
0000
0100
0000
0001
0000
1000
0000
1001
0000
0000
0010
0000
0001
0100
0000
1000
0010
0000
0000
,
0110
0000
0000
1200
0000
0001
0301
0000
0000
0010
0000
0100
1000
0000
0000
1020
0000
0001
0031
0000
0000
0010
0000
1000
,
0020
0000
0000
1000
0000
0000
0100
0000
0000
0001
0000
0130
0000
0000
0100
0010
0000
0010
1000
0000
1000
0001
0000
0000
,
1002
0000
0000
0010
0000
0100
0103
0000
0100
0001
0000
0001
0020
0000
0000
0100
0000
1000
1030
0000
1000
0010
0000
0010
,
0001
0000
0100
0000
0110
0000
1000
0000
0010
0000
0110
0000
2001
0000
0000
3100
0000
0000
0000
0000
0000
0100
0000
0010
,
0001
0000
0001
0010
0100
0010
0100
0000
0000
1000
0000
1000
0010
0000
0100
0001
0100
0001
0010
0000
0000
0100
0000
0100
,
1000
0000
0001
0010
0100
0010
0001
0000
0000
0100
0000
0100
0001
0000
0001
0010
0000
0010
1000
0000
1000
0100
0000
0100
,
0020
0000
0000
0001
0000
0100
0130
0000
0000
0010
0000
1100
0000
0000
0001
0010
0000
0000
0101
0000
0000
0010
0000
0010
,
0200
0000
0000
0000
0000
0000
1000
0000
0000
0000
0010
0000
0310
0000
0000
0000
0000
0000
0100
0000
0000
0000
0101
0000
0000
0000
0000
0000
0010
0000
0100
0000
0000
0000
0001
1000
0001
0000
0000
0000
0010
0000
0100
0000
0000
0000
1000
0000
,
1001
0000
0000
1000
0000
0100
1000
0000
0000
0010
0000
0100
0010
0000
0100
0001
0000
0000
1001
0000
0000
0001
0000
1000
,
0010
0000
0000
1000
0000
0100
0010
0000
0000
0001
0000
0100
0010
0000
1000
0010
0000
0001
0010
0000
0100
0010
0000
1000
,
0100
0000
0000
0001
0000
0100
1000
0000
0000
0010
0000
0001
0010
0000
0100
0010
0000
1000
0100
0000
0001
1000
0000
0010
,
0001
0000
0000
0000
0000
0000
0100
0000
0000
0000
0010
0000
1000
0000
0000
0000
0000
0000
0001
0000
0000
0000
0010
0000
1000
0000
0000
0000
0100
0000
0001
0000
0000
0000
0010
1000
0100
0000
0000
0000
0100
0000
0010
0000
0000
0000
0010
0000
,
2002
0000
0000
3003
,
0000
0000
0000
0000
;

//---------------dance-double - ----------------
#NOTES:
     dance-double:
     :
     Easy:
     4:
     :
00000000
00000000
00000000
00000000
,
00000000
00000000
00000000
00000000
,
00000000
00000000
00000000
00000000
,
10000000
00100000
01000000
00010000
,
00001000
00000100
00000010
00000001
,
00000010
00000010
00000001
00000001
,
00000100
00000100
00001000
00001000
,
00010000
00100000
00010000
10000000
,
01000000
00000000
00000000
00000000
,
00100000
00010000
00100000
00000000
,
01000000
10000000
01000000
00000000
,
00100000
00010000
00001000
00000010
,
00000002
00000003
00000000
00001000
,
00000001
00000100
00001000
00000100
,
00000010
00000001
00001000
00000100
,
00001000
00001000
00010000
00010000
,
00100000
00100000
00100000
00000000
,
00010000
00100000
01000000
10000000
,
00100000
00010000
10000000
01000000
,
00100000
00010000
00001000
00000100
,
00002000
00000000
00000001
00003100
,
00000010
00000010
00000001
00000001
,
00000010
00000010
00001000
00001000
,
00000010
00001000
00010000
01000000
,
00100000
00010000
10000000
01000000
,
20020000
30030000
00000000
00000000
,
00000000
00000000
00000000
00010000
,
20000000
30000000
00000000
00000000
,
00100000
00010000
00001000
00000100
,
00000010
00001000
00000010
00000001
,
00001000
00010000
00000000
00001000
,
00022000
00000000
00000000
00033000
,
00000000
00000000
00000000
00000000
;

//---------------dance-double - ----------------
#NOTES:
     dance-double:
     :
     Medium:
     7:
     :
00000000
00000000
00000000
00000000
,
00000000
00000000
00000000
00000000
,
00000000
00000000
00000000
00000000
,
00010000
00000000
01000000
00000000
10000000
01000000
00010000
01000000
,
10000000
00000000
01000000
00000000
00010000
00001000
00000100
00000010
,
00000001
00000010
00000100
00001000
,
00010000
00000000
02000000
00000000
03100000
01000000
00000000
00000000
,
00100000
10000000
01000000
00010000
,
00001000
00000100
00000001
00000100
,
00000001
00000100
00000010
00001000
00010000
00000000
00000000
00000000
,
00010000
01000000
00010000
01000000
10000000
00000000
00000000
00000000
,
00200000
00310000
01000000
00010000
,
00001000
00000100
00001000
00000000
00000001
00000100
00000001
00000000
,
00002000
00000000
00000000
00000000
00000000
00003100
00000000
00000000
00000000
00000000
00000000
00000000
00020000
00000000
00000000
00000000
00000000
00031000
00000000
00000000
00000000
00000000
00000000
00000000
,
00200000
00000000
00000000
00000000
00000000
10300000
00000000
00000000
00000000
00000000
00000000
00000000
00020000
00000000
00000000
00000000
00000000
01030000
00000000
00000000
00000000
00000000
00000000
00000000
,
20000000
00000000
00000000
00000000
00000000
30010000
00000000
00000000
00000000
00000000
00000000
00000000
00020000
00000000
00000000
00000000
00000000
10030000
00000000
00000000
00000000
00000000
00000000
00000000
,
00010000
10000000
00010000
10000000
00010000
10000000
00010000
00000000
00000000
00000000
00000000
00000000
,
00001000
00000100
00000010
00000001
,
00000010
00000001
00000010
00000001
00000010
00000001
00000010
00000000
00000000
00000000
00000000
00000000
,
00000100
00000000
00000000
00000000
00000000
00000100
00000000
00000000
00000000
00000000
00000000
00000000
00001000
00000000
00000000
00000000
00000000
00001000
00000000
00000000
00000000
00000000
00000000
00000000
,
00010000
00000000
00000000
00000000
00000000
00010000
00000000
00000000
00000000
00000000
00000000
00000000
00100000
00000000
00000000
01000000
00000000
00000000
10000000
00000000
00000000
00010000
00000000
00000000
,
00001000
00000000
00000000
00000000
00000000
00001000
00000000
00000000
00000000
00000000
00000000
00000000
00000100
00000000
00000000
00000000
00000000
00000100
00000000
00000000
00000000
00000000
00000000
00000000
,
00001000
00000100
00001000
00000100
00001000
00000100
00001000
00000000
00000000
00000000
00000000
00000000
,
00010000
00100000
00010000
00000000
10000000
01000000
10000000
00000000
,
01000000
10000000
00010000
00000000
00001000
00000100
00000001
00000100
,
00000002
00000000
00000003
00000000
00000010
00000000
00000100
00001000
,
00000001
00000010
00000100
00001000
,
00020000
00130000
10000000
01000000
,
00200000
00310000
20000000
31000000
,
02000000
13000000
00020000
00031000
,
00002000
00000100
00003001
00000100
,
00000002
00000000
00000000
00000003
,
00000000
00000000
00000000
00000000
;

//---------------dance-double - ----------------
#NOTES:
     dance-double:
     :
     Hard:
     9:
     :
00000000
00000000
00000000
00000000
,
00000000
00000000
00000000
00000000
,
00000000
00000000
00000000
00000000
,
00100000
00000000
00000000
00010000
00000000
00000000
00000000
00000000
00000000
00100000
00000000
00000000
00000000
00000000
00000000
01000000
00000000
00000000
00000000
00000000
00000000
00010000
00000000
00001000
,
00000100
00000000
00000000
00000010
00000000
00000000
00000000
00000000
00000000
00000100
00000000
00000000
00000000
00000000
00000000
00000001
00000000
00000000
00000000
00000000
00000000
00000010
00000000
00000100
,
00001000
00000000
00000000
00010000
00000000
00000000
00000000
00000000
00000000
00100000
00000000
00000000
00000000
00000000
00000000
01000000
00000000
00000000
00000000
00000000
00000000
00010000
00000000
00001000
,
00000100
00000000
00000000
00000010
00000000
00000000
00000000
00000000
00000000
00000100
00000000
00000000
00000000
00000000
00000000
00000001
00000000
00000000
00000000
00000000
00000000
00000100
00000000
00000010
,
00001000
00000000
00000000
00000100
00000000
00000000
00000000
00000000
00000000
00000100
00000000
00000000
00000000
00000000
00000000
00001000
00000000
00000000
00000000
00000000
00000000
00001000
00000000
00010000
,
01000000
00000000
00000000
00010000
00000000
00000000
00000000
00000000
00000000
01000000
00000000
00000000
00000000
00000000
00000000
00100000
00000000
00000000
00000000
00000000
00000000
00100000
00000000
00010000
,
00001000
00000000
00000000
00001000
00000000
00000000
00000100
00000000
00000000
00000010
00000000
00000000
00000000
00000000
00000000
00000100
00000000
00000000
00001000
00000000
00000000
00010000
00000000
00001000
,
00010000
00000000
00000000
01000000
00000000
00000000
00100000
00000000
00000000
00100000
00000000
00000000
00000000
00000000
00000000
00100000
00000000
00000000
10000000
00000000
00000000
01000000
00000000
00100000
,
00010000
00000000
00000000
00001000
00000000
00000000
00000100
00000000
00000000
00000010
00000000
00000000
00000000
00000000
00000000
00000100
00000000
00000000
00000010
00000000
00000000
00001000
00000000
00000010
,
00010000
00000000
00000000
00001000
00000000
00000000
00010000
00000000
00000000
01000000
00000000
00000000
00000000
00000000
00000000
10000000
00000000
00000000
00100000
00000000
00000000
01000000
00000000
00100000
,
00010000
00000000
00000000
00001000
00000000
00000000
00000000
00000000
00000000
00000100
00000000
00000000
00000000
00000000
00000000
00000010
00000000
00000000
00000000
00000000
00000000
00000100
00000000
00000010
,
00001000
00000000
00000000
00010000
00000000
00000000
00000000
00000000
00000000
00010000
00000000
00000000
00000000
00000000
00000000
01000000
00000000
00000000
00000000
00000000
00000000
10000000
00000000
00010000
,
00100000
00000000
00000000
00010000
00000000
00000000
00000000
00000000
00000000
00001000
00000000
00000000
00000000
00000000
00000000
00000100
00000000
00000000
00000000
00000000
00000000
00001000
00000000
00000001
,
00000100
00000000
00000010
00000000
00000010
00000000
00001000
00000000
00010000
00000000
00010000
00000000
01000000
00000000
00000000
00100000
00000000
00000000
01000000
00000000
00000000
00010000
00000000
00000000
,
10000000
01000000
00000000
00100000
00000000
00010000
00001000
00000100
,
00000010
00000000
00000100
00000000
00000100
00000000
00001000
00000000
00000001
00000000
00000001
00000000
00001000
00000000
00000000
00010000
00000000
00000000
00000000
00000000
01000000
00100000
00000000
00000000
,
00010000
00000000
00000000
00100000
00000000
00000000
00000000
00000000
00000000
01000000
00000000
00000000
00000000
00000000
00000000
00010000
00000000
00000000
00000000
00000000
00010000
00001000
00000000
00000000
,
00000100
00000000
00000000
00000010
00000000
00000000
00000000
00000000
00000000
00000100
00000000
00000000
00000000
00000000
00000000
00000001
00000000
00000000
00000000
00000000
00000010
00000100
00000000
00000000
,
00001000
00010000
00000000
01000000
00000000
00100000
00000000
01000000
,
00010000
00000000
00100000
00000000
00100000
00000000
10000000
00000000
01000000
00000000
01000000
00000000
00010000
00000000
00000000
00001000
00000000
00000000
00000000
00000000
00000100
00000010
00000000
00000000
,
00000100
00000010
00000001
00001000
00000000
00010000
00000000
00001000
,
00010000
00100000
10000000
01000000
00000000
10000000
00000000
01000000
,
00100000
00000000
00000000
00010000
00000000
00000000
00001000
00000000
00000000
00000100
00000000
00000000
00000000
00000000
00000000
00000010
00000000
00000000
00000001
00000000
00000000
00000100
00000000
00000010
,
00001000
00000000
00000000
00000100
00000000
00000000
00000000
00000000
00000000
00001000
00000000
00000000
00010000
00000000
00000000
01000000
00000000
00000000
00010000
00000000
00000000
01000000
00000000
00100000
,
00010000
00000000
00000000
00001000
00000000
00000000
00000100
00000000
00000000
00000010
00000000
00000000
00000000
00000000
00000000
00001000
00000000
00000000
00000010
00000000
00000000
00000100
00000000
00000010
,
00001000
00000000
00000000
00001000
00000000
00000000
00010000
00000000
00000000
01000000
00000000
00000000
00000000
00000000
00000000
00100000
00000000
00000000
01000000
00000000
00000000
00010000
00000000
10000000
,
00100000
00000000
00000000
00010000
00000000
00000000
00001000
00000000
00000000
00000100
00000000
00000000
00000000
00000000
00000000
00000010
00000000
00000000
00001000
00000000
00000000
00000100
00000000
00000010
,
00001000
00000000
00000000
00010000
00000000
00000000
01000000
00000000
00000000
00100000
00000000
00000000
00000000
00000000
00000000
00010000
00000000
00000000
01000000
00000000
00000000
00100000
00000000
01000000
,
20020000
00000000
00000000
30030000
,
00000000
00000000
00000000
00000000
;

//---------------dance-double - ----------------
#NOTES:
     dance-double:
     :
     Challenge:
     13:
     :
00000000
00000000
00000000
00000000
,
00000000
00000000
00000000
00000000
,
00000000
00000000
00000000
00000000
,
00001100
00000000
00000000
00000010
00000000
00000001
00000100
00000000
00000000
00001000
00000000
00010000
00001000
00000000
00010000
01000000
00000000
00000000
11000000
00000000
00000000
00100000
00000000
00100000
,
00010000
00000000
00000000
00000000
00000000
00000000
00001000
00000000
00000000
00000000
00010000
00000000
01000000
00000000
00000000
00000000
00000000
00000000
00100000
00000000
00000000
00000000
00001000
00000000
00010000
00000000
00000000
00000000
00001000
00000000
00000100
00000000
00000000
00000000
00000010
00000100
00000010
00000000
00000000
00000000
00001000
00000000
00000100
00000000
00000000
00000000
00000000
00000000
,
00000011
00000000
00000000
00001000
00000000
00000010
00000001
00000000
00000000
00000010
00000000
00001000
00000001
00000000
00000100
00001000
00000000
00010000
01000000
00000000
00010000
00001000
00000000
00010000
,
00100000
00000000
00000000
10000000
00000000
00010000
01000000
00000000
00000000
00100000
00000000
10000000
01000000
00000000
01000000
00100000
00000000
00100000
00010000
00000000
00010000
00001000
00000000
00001000
,
00000100
00000000
00000000
00000010
00000000
00000001
00000100
00000000
00000000
00000001
00000000
00000010
00001000
00000000
00000010
00000001
00000000
00000100
00001000
00000000
00010000
00001000
00000000
00010000
,
01000000
00000000
00000000
00010000
00000000
00001000
00100000
00000000
00000000
00010000
00000000
10000000
00100000
00000000
00100000
00010000
00000000
00010000
00001000
00000000
00001000
00010000
00000000
00000000
,
00011000
00000000
00000000
00010010
00000000
00000020
00001000
00000000
00000000
00000130
00000000
00000101
00000000
00000000
00000001
00000010
00000000
00000100
00001000
00000000
00010000
00000010
00000000
00000000
,
00011000
00000000
00000000
00101000
00000000
00200000
00010000
00000000
00000000
01300000
00000000
11000000
00000000
00000000
00100000
01000000
00000000
10000000
00100000
00000000
00010000
00001000
00000000
00000000
,
00011000
00000000
00010000
00000010
00000000
00002000
00000100
00000000
00000000
00003010
00000000
00010010
00000000
00000000
00001000
00000100
00000000
00000001
00000010
00000000
00000100
00010000
00000000
00000000
,
00011000
00000000
00001000
00100000
00000000
00020000
00100000
00000000
00000000
01030000
00000000
00001000
00100000
00000000
00110000
00000000
00000000
01000000
10000000
00000000
00100000
00010000
00000000
00010000
,
02000000
00000000
00000000
00100000
00000000
00100000
03000000
00000000
00000000
10000000
00000000
10000000
00020000
00000000
00000000
00100000
00000000
00100000
00030000
00000000
00000000
00001000
00000000
00000100
,
00000001
00000000
00000000
00000010
00000000
00000001
00000100
00000000
00000000
00001000
00000000
00000010
00000100
00000000
00001000
00010000
00000000
00100000
01000000
00000000
00100000
10000000
00000000
01000000
,
20000000
00000000
00000000
00100000
00000000
00100000
30000000
00000000
00000000
01000000
00000000
01000000
00020000
00000000
00000000
00001000
00000000
00001000
00030000
00000000
00001000
01000000
00000000
00000000
,
01000000
00000000
00000000
00000000
10010000
00000000
00000000
00000000
01000000
00000000
00000000
00000000
00011000
00000000
00000000
00000000
00000100
00000000
00000000
00000000
00001001
00000000
00000000
00000000
00000100
00000000
00000000
00000000
00000000
00000000
00000000
00000000
00000000
00000000
00000010
00000100
00000010
00000000
00000000
00000000
00000001
00000000
00000100
00000000
00000000
00000000
00000000
00000000
,
00000110
00000000
00000000
00020010
00000000
00031000
00000100
00000000
00000000
00001000
00000000
00010000
01000000
00000000
00000000
21000000
00000000
30100000
01000000
00000000
00000000
00010000
00000000
00100000
,
00010000
00000000
00001000
00000000
00000010
00000000
00000100
00000000
00001000
00000000
00010000
00000000
02000000
00000000
00000000
00100000
00000000
13000000
00010000
00000000
01000000
00100000
00000000
00000000
,
01100000
00000000
00000000
02001000
00000000
03100000
00010000
00000000
00000000
00001000
00000000
00010000
00000100
00000000
00000000
00000021
00000000
00000130
00001000
00000000
00000000
00000010
00000000
00000010
,
00002000
00000000
00000000
00000100
00000000
00000000
00000001
00000000
00000000
00003010
00000000
00011000
00000000
00000000
01010000
00000000
00000000
10010000
00000000
00000000
00100000
00010000
00000000
00000000
,
01100000
00000000
00000000
01002000
00000000
00013000
00100000
00000000
00000000
00010000
00000000
00001000
00000010
00000000
00000000
00000012
00000000
00000103
00000010
00000000
00000000
00001000
00000000
00000100
,
00001000
00000000
00010000
00000000
01000000
00000000
00100000
00000000
00010000
00000000
00001000
00000000
00000020
00000000
00000000
00000100
00000000
00000031
00001000
00000000
00000010
00000100
00000000
00000000
,
00000001
00000000
00001000
00000100
00001000
00000100
00010000
00000000
00000000
00000010
00000000
00000100
00001000
00000000
00010000
00001000
00100000
00010000
00100000
00000000
00000000
00001000
00000000
00100000
,
01000000
00000000
00001000
00010000
01000000
00010000
01000000
00000000
00000000
10000000
00000000
10000000
00100000
00000000
00100000
00010000
00000000
00010000
00001000
00000000
00001000
00000100
00000000
00000100
,
00000002
00000000
00000000
00000010
00000000
00000100
00000103
00000000
00000000
00000010
00000000
00001100
00000000
00000000
00010000
00000100
00000000
00000000
01001000
00000000
00000000
00001000
00000000
00001000
,
00020000
00000000
00000000
00000000
00000000
00000000
00000010
00000000
00000000
00000000
00000100
00000000
00030100
00000000
00000000
00000000
00000000
00000000
00010000
00000000
00000000
00000000
00101000
00000000
00000000
00000000
00000000
00000000
00010000
00000000
01000000
00000000
00000000
00000000
00100000
01000000
00100000
00000000
00000000
00000000
10000000
00000000
01000000
00000000
00000000
00000000
00010000
00000000
,
00011000
00000000
00000000
00001000
00000000
00010000
00000010
00000000
00000000
00000001
00000000
00000010
00000100
00000000
00001000
00010000
00000000
00000000
00010100
00000000
00000000
00000010
00000000
00001000
,
00010000
00000000
00000000
00001000
00000000
01000000
00100000
00000000
00000000
10000000
00000000
01000000
00010000
00000000
00001000
00100000
00000000
00010000
01000000
00000000
00100000
10000000
00000000
00010000
,
01000000
00000000
00000000
00100000
00000000
00010000
00001000
00000000
00000000
00010000
00000000
00001000
00000010
00000000
00000001
00001000
00000000
00000010
00000001
00000000
00000010
00000100
00000000
00001000
,
00010000
00000000
00000000
00000000
00000000
00000000
00000100
00000000
00000000
00000000
00000010
00000000
00001000
00000000
00000000
00000000
00000000
00000000
00010000
00000000
00000000
00000000
00001000
00000000
00010000
00000000
00000000
00000000
00010000
00000000
00100000
00000000
00000000
00000000
00100000
10000000
01000000
00000000
00000000
00000000
01000000
00000000
00010000
00000000
00000000
00000000
00010000
00000000
,
00022000
00000000
00000000
00033000
,
00000000
00000000
00000000
00000000
;
