#TITLE:THE REASON;
#ARTIST:Black Rose Garden;
#BANNER:THE REASON.png;
#BACKGROUND:THE REASON-bg.png;
#CDTITLE:./CDTITLES/Dance Dance Revolution HOTTEST PARTY.png;
#MUSIC:THE REASON.ogg;
#SAMPLESTART:67.414;
#SAMPLELENGTH:15;
#BPMS:0=85,39.75=98;
#STOPS:39.75=0.176,101.75=1.224;
#STAGE:2;

//---------------dance-single - ----------------
#NOTES:
     dance-single:
     :
     Beginner:
     3:
     :
0000
0000
0000
0000
,
0000
0000
0000
0000
,
0000
0000
0000
0000
,
0000
0000
0000
0000
,
0010
0000
0100
0000
,
0001
0000
0001
0000
,
1001
0000
1000
0000
,
0001
0000
0000
0000
,
1000
0000
1000
0000
,
1001
0000
0000
0000
,
0000
0000
0000
0000
0000
0000
0000
0000
0000
0000
0000
1000
0000
0000
0000
0000
,
0000
0000
0000
0000
0000
0000
0000
0000
0000
0000
0000
0001
0000
0000
0000
0000
,
0000
0000
0000
1000
0000
0000
0000
0000
0000
0000
0000
1000
0000
0000
0000
0000
,
0000
0000
0000
0001
0000
0000
0000
0000
0000
0000
0000
0001
0000
0000
0000
0000
,
0000
0000
0000
0000
0000
0000
0000
0000
0000
0000
0000
0010
0000
0000
0000
0000
,
0000
0000
0000
0000
0000
0000
0000
0000
0000
0000
0000
0100
0000
0000
0000
0000
,
0000
0000
0000
0000
0000
0000
0000
0000
0000
0000
0000
0100
0000
0000
0000
0000
,
0000
0000
0000
0000
0000
0000
0000
0000
0000
0000
0000
0010
0000
0000
0000
0000
,
0000
0000
0000
1000
0000
0000
0000
0000
0000
0000
0000
1000
0000
0000
0000
0000
,
0000
0000
0000
0001
0000
0000
0000
0000
0000
0000
0000
0001
0000
0000
0000
0000
,
0000
0000
0000
0001
0000
0000
0000
0000
0000
0000
0000
1000
0000
0000
0000
0000
,
0000
0000
0000
1000
0000
0000
0000
0000
0000
0000
0000
0001
0000
0000
0000
0000
,
0000
0000
0000
1000
0000
0000
0000
0000
0000
0000
0000
1000
0000
0000
0000
0000
,
0000
0000
0000
0001
0000
0000
0000
0000
0000
0000
0000
0001
0000
0000
0000
0000
,
0000
0000
0000
1001
0000
0000
0000
0000
0000
0000
0000
0000
0000
0000
0000
0110
,
0000
0000
0000
0000
0000
0000
0000
0000
0000
0000
0000
0000
0000
0000
0000
0110
,
0000
0000
0000
0000
0000
0000
0000
0000
0000
0000
0000
0000
0000
0000
0000
1001
,
0000
0000
0000
0000
0000
0000
0000
0000
0000
0000
0000
0000
0000
0000
0000
0001
,
0000
0000
0000
0000
0000
0000
0000
1000
0000
0000
0000
1000
0000
0000
0000
1000
,
0000
0000
0000
0000
0000
0000
0000
0000
0000
0000
0000
0000
0000
0000
0000
0110
,
0000
0000
0000
0000
0000
0000
0000
0000
0000
0000
0000
0000
0000
0000
0000
1001
,
0000
0000
0000
0000
0000
0000
0000
0000
0000
0000
0000
0000
0000
0000
0000
1000
,
0000
0000
0000
0000
0000
0000
0000
0001
0000
0000
0000
0001
0000
0000
0000
0001
,
0000
0000
0000
0000
0000
0000
0000
1001
0000
0000
0000
0000
0000
0000
0000
0000
,
0000
0000
0000
0001
0000
0000
0000
0000
0000
0000
0000
0001
0000
0000
0000
0000
,
0000
0000
0000
1000
0000
0000
0000
0000
0000
0000
0000
1000
0000
0000
0000
0000
,
0000
0000
0000
0001
0000
0000
0000
0000
0000
0000
0000
0110
0000
0000
0000
0000
,
0000
0000
0000
0000
0000
0000
0000
1001
0000
0000
0000
0000
0000
0000
0000
0000
,
0000
0000
0000
0000
;

//---------------dance-single - ----------------
#NOTES:
     dance-single:
     :
     Easy:
     4:
     :
0000
0000
0000
0000
,
0000
0000
0000
0000
,
0000
0000
0000
0000
,
0000
0000
0000
0000
,
0200
0300
0020
0030
,
0001
0000
1000
0000
,
0002
0000
0000
0003
,
2000
0000
0000
3000
,
0002
0000
0000
0003
,
2002
0000
0000
0000
0000
0000
0000
3003
,
0000
0000
0000
1000
0000
0000
0000
0001
0000
0000
0000
1000
0000
0000
0000
0000
,
0000
0000
0000
0001
0000
0000
0000
0000
0000
1000
0000
1000
0000
0000
0000
0000
,
0000
0000
0000
0001
0000
0000
0000
1000
0000
0000
0000
0001
0000
0000
0000
0000
,
0000
0000
0000
1000
0000
0000
0000
0000
0000
0001
0000
0001
0000
0000
0000
0000
,
0000
0000
0000
0010
0000
0000
0000
0000
0000
0000
0000
0010
0000
0000
0000
0000
,
0000
0000
0000
0100
0000
0000
0000
0000
0000
0000
0000
0010
0000
0000
0000
0000
,
0000
0000
0000
0100
0000
0000
0000
0000
0000
0000
0000
0100
0000
0000
0000
0000
,
0000
0000
0000
0010
0000
0000
0000
0000
0000
0000
0000
0100
0000
0000
0000
0000
,
0000
0000
0000
0010
0000
0000
0000
0000
0000
0000
0000
1000
0000
0000
0000
0000
,
0000
0000
0000
0100
0000
0000
0000
0000
0000
0000
0000
0001
0000
0000
0000
0000
,
0000
0000
0000
0001
0000
0000
0000
0000
0000
0000
0000
0000
0000
0000
0000
0000
,
0000
0000
0000
0000
0000
0000
0000
1000
0000
0001
0000
1000
0000
0010
0000
0000
,
0000
0000
0000
0000
0000
0000
0000
0000
0000
0000
0000
1001
0000
0000
0000
0000
,
0000
0000
0000
0110
0000
0000
0000
0000
0000
0000
0000
0000
0000
0000
0000
0000
,
0000
0000
0000
0110
0000
0000
0000
0100
0000
0000
0000
0110
0000
0000
0000
0200
,
0000
0000
0000
0000
0000
0000
0000
0000
0000
0000
0000
0000
0000
0000
0000
0000
0000
0000
0000
0000
0000
0000
0000
0000
0000
0000
0000
0300
0000
0000
0000
0000
0000
0000
0000
0000
0000
0000
0000
0000
0000
0000
0000
0000
1000
0000
0000
0000
0000
0000
0000
0000
0000
0000
0000
0000
0000
0000
0000
0000
0000
0000
0000
0000
,
0000
0000
0000
0100
0000
0000
0000
0010
0000
0000
0000
0001
0000
0000
0000
0000
,
0000
0000
0000
0000
0000
0000
0000
0020
0000
0000
0000
0000
0000
0000
0000
0230
,
0000
0000
0000
0300
0000
0000
0000
0000
0000
0000
0000
0000
0000
0000
0000
1001
,
0000
0000
0000
0000
0000
0000
0000
0000
0000
0000
0000
0001
0000
0000
0000
0000
,
0000
0000
0000
0010
0000
0000
0000
0100
0000
0000
0000
1000
0000
0000
0000
0000
,
0000
0000
0000
0000
0000
0000
0000
0200
0000
0000
0000
0000
0000
0000
0000
0320
,
0000
0000
0000
0030
0000
0000
0000
0000
0000
0000
0000
0000
0000
0000
0000
1001
,
0000
0000
0000
0110
0000
0000
0000
1001
0000
0000
0000
0000
0000
0000
0000
1000
,
0000
0000
0000
0000
0000
0000
0000
0001
0000
0000
0000
0000
0000
1000
0000
1000
,
0000
0000
0000
0000
0000
0000
0000
0001
0000
0000
0000
1000
0000
0000
0000
0001
,
0000
0000
0000
0000
0000
0000
0000
1000
0000
0000
0000
0000
0000
0001
0000
0001
,
0000
0000
0000
0010
0000
0000
0000
0200
0000
0000
0000
0000
0000
0000
0000
0000
,
0300
0000
0000
0000
,
0000
0000
0000
0000
;

//---------------dance-single - ----------------
#NOTES:
     dance-single:
     :
     Medium:
     7:
     :
0000
0000
0000
0000
,
0000
0000
0000
0000
,
0000
0000
0000
0000
,
0000
0000
0000
0000
,
0200
0000
0000
0300
0020
0000
0030
0000
,
0001
0100
0010
1000
,
0002
1000
0000
1003
,
0000
0001
0000
0001
,
0000
1000
0000
1000
,
2002
0000
0000
0000
0000
0000
0000
3003
,
0000
0000
0000
0001
0000
0000
0000
1000
0000
0000
0000
1000
0000
0100
0000
0010
,
0000
0000
0000
0100
0000
0000
0000
0010
0000
0000
0000
1000
0000
0010
0000
0001
,
0000
0000
0000
1000
0000
0000
0000
0001
0000
0000
0000
0001
0000
0010
0000
0100
,
0000
0000
0000
0010
0000
0000
0000
0100
0000
0001
0000
0100
0000
1000
0000
0001
,
0000
0000
0000
1000
0000
0000
0000
0010
0000
0000
0000
1000
0000
0001
0000
0001
,
0000
0000
0000
0100
0000
0000
0000
1000
0000
0000
0000
0100
0000
0001
0000
1000
,
0000
0000
0000
0001
0000
0000
0000
0100
0000
0000
0000
0001
0000
1000
0000
1000
,
0000
0000
0000
0010
0000
0000
0000
0001
0000
0000
0000
0010
0000
1000
0000
0001
,
0000
0000
0000
1000
0000
0000
0000
0100
0000
0000
0000
1000
0000
0001
0000
0001
,
0000
0000
0000
0010
0000
0000
0000
1000
0000
0000
0000
0010
0000
0001
0000
0001
,
0000
0000
0000
1000
0000
0000
0000
0010
0000
0000
0000
1000
0000
0001
0000
1000
,
0000
0000
0000
0000
0000
0000
0000
1000
0001
1000
0001
1000
0001
1000
0001
1000
,
0000
0000
0000
1000
0000
0100
0000
1000
0000
0000
0000
0001
0000
0010
0000
0001
,
0000
0000
0000
1000
0000
0010
0000
1000
0000
0000
0000
0001
0000
0100
0000
0001
,
0000
0000
0000
0110
0000
0100
0000
0010
0000
0000
0000
0110
0000
0010
0000
0200
,
0000
0000
0000
0000
0000
0000
0000
0000
0000
0000
0000
0000
0010
0000
0000
0000
0000
0000
0000
0000
0000
0000
0000
0000
0000
0000
0000
0300
0000
0000
0000
0000
0000
0000
0000
0000
0000
0000
0000
0000
0000
0000
0000
0000
0010
0000
0000
0000
0000
0000
0000
0000
0001
0000
0000
0000
0000
0000
0000
0000
0100
0000
0000
0000
,
0000
0100
0001
0000
0010
0000
0000
0100
0000
1000
0000
0100
0000
1000
0000
0010
,
0000
0010
1000
0000
0100
0000
0000
0020
0000
0000
0000
0001
0000
0001
0000
0230
,
0000
0000
0000
1300
0000
0000
0000
1100
0000
0000
0000
0110
0000
0000
0000
1100
,
0000
0100
0000
0101
0000
0000
0000
0100
0000
0001
0000
0100
0000
0001
0000
0010
,
0000
0010
0001
0000
0100
0000
0000
0010
0000
1000
0000
0010
0000
1000
0000
0100
,
0000
0100
0001
0000
0010
0000
0000
0200
0000
0000
0000
1000
0000
1000
0000
0320
,
0000
0000
0000
0031
0000
0000
0000
0011
0000
0000
0000
0110
0000
0000
0000
0011
,
0000
0001
0000
1000
0000
1000
0000
1010
0000
0000
0000
1000
0000
0000
0000
0001
,
0000
0000
0000
0001
0000
0010
0000
0100
0000
0000
0000
0010
0000
0000
0000
0100
,
0000
0000
0000
0001
0000
0100
0000
1000
0000
0000
0000
0001
0000
0000
0000
1000
,
0000
0000
0000
1000
0000
0100
0000
0010
0000
0000
0000
0100
0000
0000
0000
0010
,
0000
1000
0000
0010
0001
0010
0000
0200
0000
0000
0000
0000
0000
0000
0000
0000
,
0300
0000
0000
0000
,
0000
0000
0000
0000
;

//---------------dance-single - ----------------
#NOTES:
     dance-single:
     :
     Hard:
     12:
     :
0000
0000
0000
0000
,
0000
0000
0000
0000
,
0000
0000
0000
0000
,
0000
0000
0000
0000
,
0002
0000
0000
0103
0200
0000
0300
0000
,
0001
0010
0100
1000
,
2001
0001
0001
3001
,
1000
1000
1000
1000
,
0001
0001
0001
0001
,
0220
0000
0000
0000
0000
0000
0000
0330
,
0001
0000
1000
1000
0000
0001
0001
0000
1000
0010
0100
0001
0000
1000
0000
0010
,
0010
0000
0100
0100
0000
0001
0001
0000
0010
0001
1000
0100
0000
0010
0000
1000
,
1000
0000
0001
0001
0000
1000
1000
0000
0001
0100
0010
1000
0000
0001
0000
0100
,
0100
0000
0010
0010
0000
1000
1000
0000
0100
1000
0001
0010
0000
0100
0000
1000
,
0100
0000
0010
0001
0000
0010
0100
0000
0001
1000
0001
0100
0000
0010
0000
1000
,
1000
0000
0001
0001
0000
0100
0100
0000
0010
0100
1000
0100
0000
0010
0000
0001
,
0010
0000
0100
1000
0000
0010
0100
0000
1000
0001
1000
0010
0000
0100
0000
0001
,
0001
0000
1000
1000
0000
0010
0010
0000
0100
1000
0100
0010
0000
0001
0000
1000
,
0010
0000
0010
1000
0000
0100
0010
0000
0001
1000
0001
0010
0000
0100
0000
1000
,
1000
0000
0001
0001
0000
0010
0010
0000
0100
0001
0100
0010
0000
1000
0000
0001
,
0010
0000
0010
0001
0000
0100
0010
0000
1000
0001
1000
0010
0000
0100
0000
0001
,
0001
0000
1000
1000
0000
0100
0100
0000
0010
1000
0010
0100
0001
1000
0000
1000
,
0000
0100
0000
1000
0000
0010
0000
1000
0000
0100
0000
1000
0000
0001
0000
0010
,
0000
1000
0000
0010
0000
0001
0000
0010
0000
1000
0000
0010
0000
0100
0000
1000
,
0000
0001
0000
1000
0000
0010
0000
1000
0000
0001
0000
1000
0000
0100
0000
0010
,
0000
0001
1000
0001
0100
0010
0100
0000
0000
0001
0010
0100
0000
1000
0000
0010
,
0000
0000
1000
0000
0000
0010
0000
0100
0000
1000
0100
0010
0000
0001
0000
0100
,
0000
0000
0001
0000
0000
0100
0000
0010
0000
1000
0000
0000
0000
0010
0000
0000
,
0000
0001
0000
0010
0000
1000
0000
0010
0000
0000
0000
0001
0000
0100
0000
1000
,
0000
0100
0000
0001
0000
0100
0000
1000
0000
0001
0010
0100
0000
1000
0000
0010
,
0000
0000
1000
0000
0000
0010
0000
0100
0000
1000
0100
0010
0000
0001
0000
0100
,
0000
0000
0001
0000
0000
0100
0000
0010
0000
1000
0000
0000
0000
0010
0000
0000
,
0000
0001
0000
0010
0000
1000
0000
0010
0000
0000
0000
0001
0000
1000
0000
0100
,
0000
0001
0000
0010
0000
1000
0000
1000
1000
0000
0001
0001
0000
1000
1000
0000
,
0001
0000
0100
0010
0100
0000
1000
0000
0000
0000
0001
0000
0000
0000
0010
0000
0010
0000
0000
0000
0100
0000
0100
0000
0000
0000
0001
0000
0001
0000
0000
0000
,
0010
0000
0001
1000
0001
0000
0100
0000
0000
0000
0010
0000
0000
0000
1000
0000
1000
0000
0000
0000
0001
0000
0001
0000
0000
0000
1000
0000
1000
0000
0000
0000
,
0001
0000
0010
0100
0010
0000
0001
0000
0000
0000
1000
0000
0000
0000
0100
0000
0100
0000
0000
0000
0010
0000
0010
0000
0000
0000
1000
0000
1000
0000
0000
0000
,
0100
1000
0100
0010
0001
0010
0100
2000
0000
0000
0000
0000
0000
0000
0000
0000
,
3000
0000
0000
0000
,
0000
0000
0000
0000
;

//---------------dance-single - ----------------
#NOTES:
     dance-single:
     :
     Challenge:
     15:
     :
0000
0000
0000
0000
,
0000
0000
0000
0000
,
0000
0000
0000
0000
,
0000
0000
0000
0000
,
1020
0000
0000
0130
2002
0000
3003
0000
,
2000
3200
0320
0031
,
0001
0100
1000
0100
0001
0100
1000
0100
,
0001
0010
1000
0010
0001
0010
1000
0010
,
0001
0100
0001
0010
0001
0100
0001
0010
,
0220
0000
0000
0000
0000
0000
0000
0330
,
1000
0000
0101
0001
0000
1100
1000
0000
0101
0100
0010
1010
1000
1100
0000
0101
,
0100
0000
1010
0010
0000
0011
0010
0000
1010
0010
0100
0101
0001
1001
0000
0011
,
0001
0000
1100
1000
0000
0011
0001
0000
1100
1000
0010
0110
0100
0101
0000
1010
,
1000
0000
0101
0001
0000
1010
0010
0000
0101
0100
0010
0110
1000
1001
0000
0011
,
0000
0010
0100
1100
0000
0010
0110
0000
1000
0001
0010
0001
0100
0101
0000
1001
,
0000
0010
1000
1100
0000
0010
0011
0000
0100
0010
0001
0010
1000
1100
0000
1010
,
0000
0001
0010
1001
0000
0100
0110
0000
0001
0010
0100
0010
1000
1100
0000
1001
,
0000
0010
0001
1010
0000
0010
1100
0000
1000
0010
0001
0010
0100
1001
0000
0001
,
0001
0000
0000
0000
0110
0000
0010
0000
0000
0000
0100
0000
0100
0000
0000
0000
1001
0000
1000
0000
0010
0100
0001
0000
0100
0000
0110
0000
0000
0000
0100
0000
,
0100
0000
0000
0000
1010
0000
1000
0000
0000
0000
0100
0000
0100
0000
0000
0000
0011
0000
0010
0000
0001
0100
0010
0000
1000
0000
1100
0000
0000
0000
1000
0000
,
1000
0000
0000
0000
0010
0000
0101
0000
0000
0000
0001
0000
0001
0000
0000
0000
0100
0000
1010
0000
0010
1000
0001
0000
0000
0000
0011
0000
0010
0000
0001
0000
,
0011
0000
0000
0000
0010
0000
0110
0000
0000
0000
0100
0000
1100
0000
0000
0000
0010
0100
0001
0000
0010
0100
1000
0000
0001
0000
1000
0000
0001
0000
0010
0000
,
0001
0010
0001
0100
0001
0100
1000
0100
1000
0100
0001
0100
1000
0100
0010
1000
,
0100
0010
0100
1000
0010
0100
0001
0100
1000
0100
0001
0010
0001
1001
0000
0011
,
0000
1100
1000
0010
0100
0010
1000
0100
0010
0001
0100
0010
0100
0010
0100
0001
,
0001
0000
0000
0000
0010
0000
0000
0000
0100
0000
0000
0000
1000
0000
0000
0000
0001
0000
1000
0000
0001
0000
0000
0000
1000
0000
0000
0000
2002
3003
0000
0000
0000
0000
0000
0000
1010
0000
0000
0000
0100
0000
0000
0000
0010
0000
0000
0000
0000
0000
0000
0000
0100
0000
0000
0000
0000
0000
0000
0000
0011
0000
0000
0000
,
0000
0101
0101
0000
1100
1100
0000
0110
0000
0101
0010
0100
0000
1000
0000
1010
,
0000
1100
1100
0000
0101
0101
0000
0120
0000
0001
0000
0230
0000
1000
0000
0310
,
0000
0000
0001
0000
0100
0000
0101
0000
0000
0000
0011
0000
0000
0000
1100
0000
1000
0000
0010
0000
0000
0000
0101
0000
0001
0000
0010
0000
0001
0000
1000
0001
,
1000
0010
0100
0101
0001
1001
1000
0110
0000
1100
0100
0110
0000
0001
0000
0101
,
0000
1001
0001
0100
0010
1000
0100
1100
0000
0011
0001
0101
0000
0010
0000
1010
,
0000
1100
0100
0001
0100
0010
0001
0201
0000
0010
0000
1000
0000
0310
1000
1100
,
0000
0000
0000
0000
0011
0000
0000
0000
0000
0000
0000
0000
1000
0000
0000
0000
0000
0000
0000
0000
0001
0000
0000
0000
0000
0000
0000
0000
0010
0000
0001
0000
0010
0000
0001
0000
0100
0000
0000
0000
0000
0000
0010
0000
1000
0000
0000
0100
0000
0000
0010
0000
0000
0001
0000
0000
0020
0000
0000
0000
0000
0000
0000
0130
,
0000
0000
0000
0000
0000
1000
0000
0000
1000
0000
0000
1000
0000
0000
0000
0000
0000
0000
0000
0000
0000
0000
0000
0000
0000
0000
0000
0000
0101
0000
0000
0000
0101
0000
0000
0000
0000
0000
0000
0000
1100
0000
0000
0000
1100
0000
0000
0000
0000
0000
0000
0000
0101
0000
0000
0000
0101
0000
0000
0000
0000
0000
0000
0000
,
1010
0000
1010
0000
0010
0100
0001
0000
1000
0000
1100
0000
0010
0000
0101
0000
0101
0000
0000
0000
1010
0000
1010
0000
0000
0000
0011
0000
0011
0000
0000
0000
,
1100
0000
1100
0000
1000
0010
0100
0000
0001
0000
1001
0000
0100
0000
0011
0000
0011
0000
0000
0000
1100
0000
1100
0000
0000
0000
0101
0000
0101
0000
0000
0000
,
0110
0000
0110
0000
0100
0010
1000
0000
0100
0000
0110
0000
0001
0000
0011
0000
0101
0000
0000
0000
1010
0000
1100
0000
0000
0000
1010
0000
0110
0000
0000
0000
,
0001
0100
0010
0000
1000
0100
0010
0000
0001
0000
0011
0000
0110
0000
2200
0000
0000
0000
0000
0000
0000
0000
0000
0000
0000
0000
0000
0000
0000
0000
0000
0000
,
3300
0000
0000
0000
,
0000
0000
0000
0000
;

//---------------dance-double - ----------------
#NOTES:
     dance-double:
     :
     Easy:
     4:
     :
00000000
00000000
00000000
00000000
,
00000000
00000000
00000000
00000000
,
00000000
00000000
00000000
00000000
,
00000000
00000000
00000000
00000000
,
00000200
00000300
00000020
00000030
,
00001000
00000000
00010000
00000000
,
00200000
00000000
00000000
00300000
,
20000000
00000000
00000000
30000000
,
00020000
00000000
00000000
00030000
,
00022000
00000000
00000000
00000000
00000000
00000000
00000000
00033000
,
00000000
00000000
00000000
00010000
00000000
00000000
00000000
00001000
00000000
00000000
00000000
00010000
00000000
00000000
00000000
00000000
,
00000000
00000000
00000000
00000100
00000000
00000000
00000000
00000000
00000000
00000010
00000000
00000010
00000000
00000000
00000000
00000000
,
00000000
00000000
00000000
00000001
00000000
00000000
00000000
00001000
00000000
00000000
00000000
00000001
00000000
00000000
00000000
00000000
,
00000000
00000000
00000000
00000100
00000000
00000000
00000000
00000000
00000000
00001000
00000000
00001000
00000000
00000000
00000000
00000000
,
00000000
00000000
00000000
00010000
00000000
00000000
00000000
00000000
00000000
00000000
00000000
00001000
00000000
00000000
00000000
00000000
,
00000000
00000000
00000000
00100000
00000000
00000000
00000000
00000000
00000000
00000000
00000000
01000000
00000000
00000000
00000000
00000000
,
00000000
00000000
00000000
10000000
00000000
00000000
00000000
00000000
00000000
00000000
00000000
01000000
00000000
00000000
00000000
00000000
,
00000000
00000000
00000000
00010000
00000000
00000000
00000000
00000000
00000000
00000000
00000000
00001000
00000000
00000000
00000000
00000000
,
00000000
00000000
00000000
00100000
00000000
00000000
00000000
00000000
00000000
00000000
00000000
00010000
00000000
00000000
00000000
00000000
,
00000000
00000000
00000000
00000100
00000000
00000000
00000000
00000000
00000000
00000000
00000000
00000010
00000000
00000000
00000000
00000000
,
00000000
00000000
00000000
00000001
00000000
00000000
00000000
00000000
00000000
00000000
00000000
00000100
00000000
00000000
00000000
00000000
,
00000000
00000000
00000000
00001000
00000000
00000000
00000000
00010000
00000000
00010000
00000000
00001000
00000000
00000000
00000000
00020000
,
00000000
00000000
00000000
00000000
00000000
00000000
00000000
00030000
00000000
00000000
00000000
00010000
00000000
00000000
00000000
02000000
,
00000000
00000000
00000000
00000000
00000000
00000000
00000000
03000000
00000000
00000000
00000000
00000000
00000000
00000000
00000000
00100000
,
00000000
00000000
00000000
00100000
00000000
00000000
00000000
01000000
00000000
00000000
00000000
01000000
00000000
00000000
00000000
20020000
,
00000000
00000000
00000000
00000000
00000000
00000000
00000000
30030000
00000000
00000000
00000000
10000000
00000000
00000000
00000000
00000000
,
00000000
00000000
00000000
01000000
00000000
00000000
00000000
00100000
00000000
00000000
00000000
00010000
00000000
00000000
00000000
00000000
,
00000000
00000000
00000000
00100000
00000000
00000000
00000000
00002000
00000000
00000000
00000000
00000000
00000000
00000000
00000000
00023000
,
00000000
00000000
00000000
00030000
00000000
00000000
00000000
00000000
00000000
00000000
00000000
00000000
00000000
00000000
00000000
00011000
,
00000000
00000000
00000000
00000000
00000000
00000000
00000000
00001000
00000000
00000000
00000000
00000010
00000000
00000000
00000000
00000000
,
00000000
00000000
00000000
00001000
00000000
00000000
00000000
00000100
00000000
00000000
00000000
00000010
00000000
00000000
00000000
00000000
,
00000000
00000000
00000000
00000001
00000000
00000000
00000000
00000002
00000000
00000000
00000000
00000000
00000000
00000000
00000000
00000203
,
00000000
00000000
00000000
00000300
00000000
00000000
00000000
00000000
00000000
00000000
00000000
00000000
00000000
00000000
00000000
00001000
,
00000000
00000000
00000000
00010000
00000000
00000000
00000000
00011000
00000000
00000000
00000000
00000000
00000000
00000000
00000000
00010000
,
00000000
00000000
00000000
00000000
00000000
00000000
00000000
00100000
00000000
00000000
00000000
00000000
00000000
00000000
00000000
01000000
,
00000000
00000000
00000000
00000000
00000000
00000000
00000000
00100000
00000000
00000000
00000000
10000000
00000000
00000000
00000000
00010000
,
00000000
00000000
00000000
00000000
00000000
00000000
00000000
00100000
00000000
00000000
00000000
00000000
00000000
01000000
00000000
01000000
,
00000000
00000000
00000000
00010000
00000000
00000000
00000000
00002000
00000000
00000000
00000000
00000000
00000000
00000000
00000000
00000000
,
00003000
00000000
00000000
00000000
,
00000000
00000000
00000000
00000000
;

//---------------dance-double - ----------------
#NOTES:
     dance-double:
     :
     Medium:
     7:
     :
00000000
00000000
00000000
00000000
,
00000000
00000000
00000000
00000000
,
00000000
00000000
00000000
00000000
,
00000000
00000000
00000000
00000000
,
02000000
00000000
00000000
03000000
00200000
00000000
00300000
00000000
,
00010000
00001000
00000100
00000010
,
00000002
00000100
00000000
00000103
,
00002000
00010000
00000000
00013000
,
02000000
10000000
00000000
13000000
,
20020000
00000000
00000000
00000000
00000000
00000000
00000000
30030000
,
00000000
00000000
00000000
10000000
00000000
00000000
00000000
00100000
00000000
00000000
00000000
10000000
00000000
01000000
00000000
00010000
,
00000000
00000000
00000000
00001000
00000000
00000000
00000000
00010000
00000000
00000000
00000000
00000100
00000000
00001000
00000000
00000010
,
00000000
00000000
00000000
00000100
00000000
00000000
00000000
00000010
00000000
00000000
00000000
00001000
00000000
00000001
00000000
00000100
,
00000000
00000000
00000000
00001000
00000000
00000000
00000000
00010000
00000000
00001000
00000000
00010000
00000000
01000000
00000000
00100000
,
00000000
00000000
00000000
01000000
00000000
00000000
00000000
00100000
00000000
00000000
00000000
00010000
00000000
01000000
00000000
10000000
,
00000000
00000000
00000000
01000000
00000000
00000000
00000000
00010000
00000000
00000000
00000000
00100000
00000000
00010000
00000000
00001000
,
00000000
00000000
00000000
00000100
00000000
00000000
00000000
00001000
00000000
00000000
00000000
00000010
00000000
00000100
00000000
00000100
,
00000000
00000000
00000000
00000001
00000000
00000000
00000000
00000100
00000000
00000000
00000000
00001000
00000000
00010000
00000000
00001000
,
00000000
00000000
00000000
00100000
00000000
00000000
00000000
01000000
00000000
00000000
00000000
00100000
00000000
00010000
00000000
00010000
,
00000000
00000000
00000000
10000000
00000000
00000000
00000000
00100000
00000000
00000000
00000000
00010000
00000000
00100000
00000000
10000000
,
00000000
00000000
00000000
01000000
00000000
00000000
00000000
10000000
00000000
00000000
00000000
01000000
00000000
00010000
00000000
00010000
,
00000000
00000000
00000000
00000000
00000000
00000000
00000000
00001000
00010000
00001000
00010000
00001000
00010000
00001000
00010000
00001000
,
00000000
00000000
00000000
00010000
00000000
00000100
00000000
00010000
00000000
00000000
00000000
00000010
00000000
00001000
00000000
00000100
,
00000000
00000000
00000000
00000010
00000000
00000001
00000000
00000010
00000000
00000000
00000000
00000001
00000000
00000100
00000000
00000100
,
00000000
00000000
00000000
00000010
00000000
00000100
00000000
00001000
00000000
00000000
00000000
00010000
00000000
00001000
00000000
00020000
,
00000000
00000000
00000000
00000000
00000000
00000000
00000000
00130000
00000000
00000000
00000000
00100000
00000000
00000000
00000000
01000000
,
00000000
00010000
01000000
00000000
00010000
00000000
00000000
10000000
00000000
00000000
00000000
01000000
00000000
00000000
00000000
10000000
,
00000000
00100000
10000000
00000000
01000000
00000000
00000000
00200000
00000000
00000000
00000000
00010000
00000000
00010000
00000000
00302000
,
00000000
00000000
00000000
00013000
00000000
00000000
00000000
00011000
00000000
00000000
00000000
00010100
00000000
00000000
00000000
00001100
,
00000000
00000100
00000000
00000110
00000000
00000000
00000000
00000001
00000000
00000000
00000000
00000100
00000000
00000000
00000000
00000010
,
00000000
00001000
00000010
00000000
00001000
00000000
00000000
00000001
00000000
00000000
00000000
00000010
00000000
00000000
00000000
00000001
,
00000000
00000100
00000001
00000000
00000010
00000000
00000000
00000200
00000000
00000000
00000000
00001000
00000000
00001000
00000000
00020300
,
00000000
00000000
00000000
00031000
00000000
00000000
00000000
00011000
00000000
00000000
00000000
00101000
00000000
00000000
00000000
00110000
,
00000000
00100000
00000000
01100000
00000000
00000000
00000000
11000000
00000000
00000000
00000000
10000000
00000000
00000000
00000000
00010000
,
00000000
00000000
00000000
10000000
00000000
01000000
00000000
00010000
00000000
00000000
00000000
00001000
00000000
00000000
00000000
00010000
,
00000000
00000000
00000000
00001000
00000000
00010000
00000000
00001000
00000000
00000000
00000000
00000100
00000000
00000000
00000000
00000001
,
00000000
00000000
00000000
00001000
00000000
00000100
00000000
00000001
00000000
00000000
00000000
00000100
00000000
00000000
00000000
00001000
,
00000000
00000100
00000000
00010000
00000100
00010000
00000000
00002000
00000000
00000000
00000000
00000000
00000000
00000000
00000000
00000000
,
00003000
00000000
00000000
00000000
,
00000000
00000000
00000000
00000000
;

//---------------dance-double - ----------------
#NOTES:
     dance-double:
     :
     Hard:
     12:
     :
00000000
00000000
00000000
00000000
,
00000000
00000000
00000000
00000000
,
00000000
00000000
00000000
00000000
,
00000000
00000000
00000000
00000000
,
00000020
00000000
00000000
00001030
00002000
00000000
00003000
00000000
,
00010000
00100000
01000000
10000000
,
20010000
00010000
00010000
30010000
,
00001000
00001000
00001000
00001000
,
00010000
00010000
00010000
00010000
,
00022000
00000000
00000000
00000000
00000000
00000000
00000000
00033000
,
00001000
00000000
00000100
00000100
00000000
00000010
00000010
00000000
00001000
00000001
00000100
00000010
00000000
00000100
00000000
00000001
,
00000001
00000000
00000100
00000100
00000000
00001000
00001000
00000000
00010000
00001000
00100000
00010000
00000000
01000000
00000000
10000000
,
10000000
00000000
01000000
01000000
00000000
00010000
00010000
00000000
10000000
00100000
01000000
00010000
00000000
10000000
00000000
01000000
,
01000000
00000000
00010000
00010000
00000000
00001000
00001000
00000000
00010000
00000100
00001000
00000010
00000000
00000100
00000000
00000001
,
00000100
00000000
00000010
00001000
00000000
00000001
00000010
00000000
00000100
00001000
00000100
00010000
00000000
00001000
00000000
00010000
,
00010000
00000000
00001000
00001000
00000000
00100000
00100000
00000000
00010000
01000000
10000000
01000000
00000000
00100000
00000000
10000000
,
00100000
00000000
01000000
00010000
00000000
00100000
01000000
00000000
10000000
01000000
10000000
00100000
00000000
01000000
00000000
00100000
,
00100000
00000000
00010000
00010000
00000000
00001000
00001000
00000000
00010000
00001000
00010000
00000100
00000000
00000010
00000000
00000001
,
00001000
00000000
00000010
00000100
00000000
00001000
00010000
00000000
00000100
00010000
00001000
00100000
00000000
01000000
00000000
10000000
,
10000000
00000000
00100000
00100000
00000000
00010000
00010000
00000000
00100000
01000000
00001000
00010000
00000000
00001000
00000000
00100000
,
01000000
00000000
10000000
00010000
00000000
01000000
00001000
00000000
00100000
00010000
00100000
00001000
00000000
00010000
00000000
00000100
,
00000100
00000000
00001000
00001000
00000000
00000010
00000010
00000000
00000001
00000010
00001000
00000010
00000100
00000001
00000000
00000001
,
00000000
00000100
00000000
00001000
00000000
00000100
00000000
00000010
00000000
00001000
00000000
00000100
00000000
00010000
00000000
00001000
,
00000000
00100000
00000000
00010000
00000000
00100000
00000000
10000000
00000000
00010000
00000000
01000000
00000000
10000000
00000000
01000000
,
00000000
00100000
00000000
00010000
00000000
00100000
00000000
00001000
00000000
00010000
00000000
00001000
00000000
00000100
00000000
00000010
,
00000000
00001000
00000100
00000010
00000001
00000100
00000010
00000000
00000000
00000100
00001000
00010000
00000000
00001000
00000000
00100000
,
00000000
00000000
10000000
00000000
00000000
00100000
00000000
00010000
00000000
10000000
01000000
00100000
00000000
01000000
00000000
00010000
,
00000000
00000000
00000100
00000000
00000000
00010000
00000000
00001000
00000000
00010000
00000000
01000000
00000000
10000000
00000000
00100000
,
00000000
00010000
00000000
00001000
00000000
00010000
00000000
00001000
00000000
00000000
00000000
00000100
00000000
00000100
00000000
00000001
,
00000000
00000010
00000000
00000100
00000000
00001000
00000000
00000001
00000000
00000001
00000010
00001000
00000000
00010000
00000000
00001000
,
00000000
00000000
01000000
00000000
00000000
00001000
00000000
00100000
00000000
00010000
01000000
00100000
00000000
10000000
00000000
01000000
,
00000000
00000000
00001000
00000000
00000000
01000000
00000000
10000000
00000000
00100000
00000000
00000000
00000000
01000000
00000000
00000000
,
00000000
00010000
00000000
00100000
00000000
00001000
00000000
00010000
00000000
00000000
00000000
00001000
00000000
00000100
00000000
00000001
,
00000000
00000010
00000000
00000200
00000000
00000000
00000000
00001300
00001000
00000000
00000001
00000001
00000000
00001000
00001000
00000000
,
00000010
00000000
00010000
00001000
00010000
00000000
00001000
00000000
00000000
00000000
00100000
00000000
00000000
00000000
00010000
00000000
00010000
00000000
00000000
00000000
10000000
00000000
10000000
00000000
00000000
00000000
00010000
00000000
00010000
00000000
00000000
00000000
,
00100000
00000000
00010000
10000000
00010000
00000000
01000000
00000000
00000000
00000000
00100000
00000000
00000000
00000000
10000000
00000000
10000000
00000000
00000000
00000000
01000000
00000000
01000000
00000000
00000000
00000000
00010000
00000000
00010000
00000000
00000000
00000000
,
00001000
00000000
00010000
00001000
00010000
00000000
00001000
00000000
00000000
00000000
00000100
00000000
00000000
00000000
00000001
00000000
00000001
00000000
00000000
00000000
00000010
00000000
00000010
00000000
00000000
00000000
00001000
00000000
00001000
00000000
00000000
00000000
,
00000010
00000001
00000100
00000010
00001000
00000100
00010000
00002000
00000000
00000000
00000000
00000000
00000000
00000000
00000000
00000000
,
00003000
00000000
00000000
00000000
,
00000000
00000000
00000000
00000000
;

//---------------dance-double - ----------------
#NOTES:
     dance-double:
     :
     Challenge:
     15:
     :
00000000
00000000
00000000
00000000
,
00000000
00000000
00000000
00000000
,
00000000
00000000
00000000
00000000
,
00000000
00000000
00000000
00000000
,
00000201
00000000
00000000
00000310
00020200
00000000
00030300
00000000
,
00002000
00023000
00230000
01300000
,
10000000
01000000
00010000
01000000
10000000
01000000
00010000
01000000
,
10000000
00100000
00010000
00100000
10000000
00100000
00010000
00001000
,
00000100
00000001
00000100
00001000
00000100
00000001
00000100
00001000
,
00022000
00000000
00000000
00000000
00000000
00000000
00000000
00033000
,
01000000
00000000
10100000
10000000
00000000
11000000
01000000
00000000
00110000
00100000
00001000
00011000
00000000
00010100
00000000
00001010
,
00000010
00000000
00000101
00000100
00000000
00000011
00000001
00000000
00000101
00000100
00000010
00001010
00000000
00001100
00000000
00010100
,
00010000
00000000
00011000
00001000
00000000
00110000
00100000
00000000
01001000
00001000
00100000
00110000
00000000
01010000
00000000
10010000
,
10000000
00000000
01100000
00100000
00000000
11000000
10000000
00000000
01100000
00100000
00001000
00101000
00000000
00011000
00000000
00010100
,
00000000
00000100
00001000
00001100
00000000
00000010
00000011
00000000
00000001
00000100
00000010
00001000
00000001
00001001
00000000
00000101
,
00000000
00000010
00001000
00001010
00000000
00000100
00010100
00000000
00001000
00010000
00001000
00100000
00010000
00110000
00000000
11000000
,
00000000
00100000
00010000
01010000
00000000
10000000
11000000
00000000
00100000
10000000
01000000
00010000
00001000
00011000
00000000
00010010
,
00000000
00001000
00010000
00010100
00000000
00001000
00001010
00000000
00000001
00000010
00000100
00001000
00000001
00001001
00000000
00000100
,
00000100
00000000
00000000
00000000
00001010
00000000
00001000
00000000
00000000
00000000
00000100
00000000
00000100
00000000
00000000
00000000
00011000
00000000
00010000
00000000
00001000
00100000
00010000
00000000
00100000
00000000
00110000
00000000
00000000
00000000
01000000
00000000
,
01000000
00000000
00000000
00000000
11000000
00000000
10000000
00000000
00000000
00000000
00100000
00000000
00100000
00000000
00000000
00000000
01010000
00000000
00010000
00000000
10000000
00010000
01000000
00000000
00100000
00000000
01100000
00000000
00000000
00000000
10000000
00000000
,
10000000
00000000
00000000
00000000
01000000
00000000
01100000
00000000
00000000
00000000
00010000
00000000
00010000
00000000
00000000
00000000
00001000
00000000
00011000
00000000
00010000
00000100
00001000
00000000
00000000
00000000
00000110
00000000
00000010
00000000
00000001
00000000
,
00000101
00000000
00000000
00000000
00000100
00000000
00000110
00000000
00000000
00000000
00000010
00000000
00001010
00000000
00000000
00000000
00001000
00000001
00000010
00000000
00000001
00001000
00000010
00000000
00000100
00000000
00000010
00000000
00000100
00000000
00000010
00000000
,
00001000
00000010
00001000
00000010
00000001
00000010
00000001
00000010
00000100
00000010
00000100
00000010
00001000
00000100
00001000
00000010
,
00010000
00000100
00001000
00000010
00000100
00001000
00010000
00001000
00100000
00010000
00100000
00001000
00010000
00011000
00000000
01010000
,
00000000
10100000
10000000
01000000
10000000
01000000
00100000
00010000
01000000
00010000
00100000
00001000
00010000
00001000
00000100
00000010
,
00001000
00000000
00000000
00000000
00000010
00000000
00000000
00000000
00000100
00000000
00000000
00000000
00000001
00000000
00000000
00000000
00001000
00000000
00000001
00000000
00001000
00000000
00000000
00000000
00000001
00000000
00000000
00000000
00002002
00003003
00000000
00000000
00000000
00000000
00000000
00000000
00000101
00000000
00000000
00000000
00000100
00000000
00000000
00000000
00001000
00000000
00000000
00000000
00000000
00000000
00000000
00000000
00000100
00000000
00000000
00000000
00000000
00000000
00000000
00000000
00001010
00000000
00000000
00000000
,
00000000
00010000
00010010
00000000
00000100
00010100
00000000
00011000
00000000
00101000
01000000
10000000
00000000
01000000
00000000
00110000
,
00000000
01000000
11000000
00000000
10000000
10100000
00000000
01020000
00000000
01000000
00000000
10000000
00000000
00100000
00000000
00031000
,
00000000
00000000
00000100
00000000
00001000
00000000
00001001
00000000
00000000
00000000
00000011
00000000
00000000
00000000
00000011
00000000
00000010
00000000
00000100
00000000
00000000
00000000
00001010
00000000
00000010
00000000
00000100
00000000
00000001
00000000
00001000
00000001
,
00000100
00000010
00000100
00001000
00001000
00010000
00010000
00011000
00000000
01001000
01000000
01100000
00000000
01010000
00000000
10100000
,
00000000
10010000
10000000
01000000
00100000
00001000
00010000
00101000
00000000
00011000
00001000
00010100
00000000
00001000
00000000
00010100
,
00000000
00001100
00000100
00000010
00000001
00000100
00000001
00002001
00000000
00000100
00000000
00000001
00000000
00003010
00000100
00001000
,
00000000
00000000
00000000
00000000
00010000
00000000
00000000
00000000
00000000
00000000
00000000
00000000
00001000
00000000
00000000
00000000
00000000
00000000
00000000
00000000
00100000
00000000
00000000
00000000
00000000
00000000
00000000
00000000
01000000
00000000
10000000
00000000
01000000
00000000
10000000
00000000
00100000
00000000
00000000
00000000
00000000
00000000
01000000
00000000
00010000
00000000
00000000
00100000
00000000
00000000
00001000
00000000
00000000
00010000
00000000
00000000
00002000
00000000
00000000
00000000
00000000
00000000
00000000
00003100
,
00000000
00000000
00000000
00000000
00000000
00000010
00000000
00000000
00000010
00000000
00000000
00000100
00000000
00000000
00000000
00000000
00000000
00000000
00000000
00000000
00000000
00000000
00000000
00000000
00000000
00000000
00000000
00000000
00001010
00000000
00000000
00000000
00001010
00000000
00000000
00000000
00000000
00000000
00000000
00000000
00000011
00000000
00000000
00000000
00000011
00000000
00000000
00000000
00000000
00000000
00000000
00000000
00001010
00000000
00000000
00000000
00001010
00000000
00000000
00000000
00000000
00000000
00000000
00000000
,
00000101
00000000
00000101
00000000
00000100
00000010
00001000
00000000
00000100
00000000
00001100
00000000
00010000
00000000
00011000
00000000
00011000
00000000
00000000
00000000
00101000
00000000
00101000
00000000
00000000
00000000
01100000
00000000
01100000
00000000
00000000
00000000
,
10100000
00000000
10100000
00000000
01000000
00100000
10000000
00000000
00010000
00000000
01010000
00000000
00100000
00000000
00110000
00000000
00110000
00000000
00000000
00000000
01001000
00000000
01001000
00000000
00000000
00000000
00011000
00000000
00011000
00000000
00000000
00000000
,
00001100
00000000
00001100
00000000
00000010
00000100
00001000
00000000
00000001
00000000
00000101
00000000
00000010
00000000
00000110
00000000
00000110
00000000
00000000
00000000
00001001
00000000
00001001
00000000
00000000
00000000
00010010
00000000
00010010
00000000
00000000
00000000
,
00001000
00010000
00000100
00000000
00010000
00000000
00011000
00000000
00010000
00000000
01000000
00000000
10000000
00000000
22000000
00000000
00000000
00000000
00000000
00000000
00000000
00000000
00000000
00000000
00000000
00000000
00000000
00000000
00000000
00000000
00000000
00000000
,
33000000
00000000
00000000
00000000
,
00000000
00000000
00000000
00000000
;
