#TITLE:Synergy For Angels;
#ARTIST:TAG×U1-ASAMi;
#BANNER:Synergy For Angels.png;
#BACKGROUND:Synergy For Angels-bg.png;
#CDTITLE:./CDTitles/DanceDanceRevolution 2013.png;
#MUSIC:Synergy For Angels.ogg;
#SAMPLESTART:28.5;
#SAMPLELENGTH:15;
#BPMS:0=160;
#STAGE:15;

//---------------dance-single - ----------------
#NOTES:
     dance-single:
     :
     Beginner:
     3:
     :
0000
0000
0000
0000
,
0000
0000
0000
0000
,
0000
0000
0000
0000
,
0000
0000
0000
0000
,
0000
0000
0000
0000
,
1000
0000
1000
0000
,
0001
0000
0001
0000
,
0110
0000
0000
0000
,
1001
0000
0000
0000
,
0110
0000
0000
0000
,
0001
0000
0001
0000
,
1000
0000
1000
0000
,
0100
0000
0100
0000
,
0010
0000
0010
0000
,
0001
0000
0001
0000
,
0100
0000
0100
0000
,
0010
0000
0010
0000
,
1000
0000
1000
0000
,
1001
0000
0000
0000
,
0010
0000
0010
0000
,
0100
0000
0100
0000
,
0002
0000
0000
0000
,
0003
0000
0000
0000
,
0001
0000
0001
0000
,
1000
0000
1000
0000
,
0020
0000
0030
0000
,
0200
0000
0300
0000
,
0001
0000
0001
0000
,
0010
0000
0000
0000
,
1000
0000
1000
0000
,
0010
0000
0000
0000
,
0001
0000
0001
0000
,
0100
0000
0000
0000
,
1000
0000
1000
0000
,
0100
0000
0000
0000
,
0002
0000
0000
0000
,
0000
0000
0003
0000
,
0020
0000
0000
0000
,
0000
0000
0030
0000
,
0200
0000
0000
0000
,
0000
0000
0300
0000
,
2000
0000
0000
0000
,
0000
0000
3000
0000
,
0001
0000
1000
0000
,
0100
0000
0100
0000
,
1000
0000
0001
0000
,
0100
0000
0100
0000
,
0010
0000
1000
0000
,
0100
0000
0000
0000
,
1001
0000
0000
0000
,
0110
0000
0000
0000
,
1001
0000
0000
0000
,
0110
0000
0000
0000
,
0100
0000
1000
0000
,
0001
0000
0010
0000
,
0100
0000
0000
0000
,
0110
0000
0000
0000
,
1001
0000
0000
0000
,
0010
0000
0010
0000
,
0100
0000
0100
0000
,
0002
0000
0000
0000
,
0003
0000
0000
0000
,
0001
0000
0001
0000
,
1000
0000
1000
0000
,
0020
0000
0030
0000
,
0200
0000
0300
0000
,
0010
0000
1000
0000
,
0001
0000
0100
0000
,
0010
0010
0010
0000
,
0010
0010
0010
0000
,
0010
0000
1000
0000
,
0001
0000
0100
0000
,
0010
0010
0010
0000
,
0010
0010
0010
0000
,
0100
0000
0000
0000
,
0000
0000
0000
0000
;

//---------------dance-single - ----------------
#NOTES:
     dance-single:
     :
     Easy:
     7:
     :
0000
0000
0000
0000
,
0000
0000
0000
0000
,
0000
0000
0000
0000
,
0000
0000
0000
0000
,
0000
0000
0000
0000
,
0010
1000
0001
0100
,
0010
0010
0100
0100
,
0002
0003
2000
3000
,
0001
0010
0100
1000
,
0020
0000
0100
0130
,
0001
0010
0001
0001
,
0100
0010
1000
0100
,
1000
0100
1000
1000
,
0100
0010
0001
0100
,
0001
0000
1000
0000
0001
0100
0010
0000
,
1000
0100
0010
0001
,
1000
0000
0001
0000
1000
0100
0010
0000
,
0001
0100
0010
1000
,
2002
0000
0000
3003
,
0010
1001
0100
1001
,
0010
0010
0100
0100
,
0001
0100
0100
0001
,
1000
0100
0100
1000
,
0001
0110
1000
0110
,
1000
1000
0001
0001
,
1000
0001
1000
0001
,
0010
0001
1000
0100
,
0020
0031
0200
0301
,
0020
0031
0200
0301
,
0010
0010
0100
1000
,
0010
1000
0100
0000
0110
0000
0000
0000
,
0200
1300
0020
1030
,
0200
1300
0020
1030
,
0100
0100
0010
0001
,
0100
0001
0010
0000
0110
0000
0000
0000
,
0002
0000
0000
0000
1003
1000
1000
0000
,
0010
0100
0001
0010
,
0200
0000
0000
0000
0310
0010
0010
0000
,
0001
0100
0010
1001
,
2000
0000
0000
0000
3001
0001
0001
0000
,
1000
0010
0100
1001
,
0010
0100
0010
1001
,
0200
0000
0000
0300
,
0001
0010
0001
0010
0100
0000
0000
0000
,
0010
0100
0010
0000
,
1000
0010
1000
0010
0100
0000
0000
0000
,
0010
0100
0010
0000
,
1000
0001
1000
0001
0100
0000
0000
0000
,
0001
1000
0001
0000
,
0010
0010
0001
0001
,
1000
1000
0100
0100
,
0010
0001
1000
0100
,
0010
0100
1001
0000
,
0100
0100
1000
1000
,
0001
0001
0010
0010
,
0100
1000
0001
0010
,
0200
0000
0000
0000
,
0010
0000
0000
0010
0000
0000
0010
0000
0000
0010
0000
0000
0310
0000
0000
0000
,
0010
1001
0100
1001
,
0010
0010
0100
0100
,
0001
0010
0100
0000
0100
0000
0100
0000
,
1000
0010
0100
0000
0100
0000
0100
0000
,
0001
0010
0000
0100
0000
1000
0000
0010
,
0000
0100
0000
0010
0000
1000
0000
0001
,
1000
1000
0001
0001
,
0010
0001
1000
0100
,
0010
0001
0100
0010
,
1000
0001
1000
0001
,
0100
0100
0010
0010
,
1000
0001
0110
0110
,
0001
1000
0001
1000
,
0010
0100
0010
0000
0100
0010
0100
0000
,
0001
1000
0001
1000
,
0110
1001
0110
0000
,
1001
0000
0000
0000
,
0000
0000
0000
0000
;

//---------------dance-single - ----------------
#NOTES:
     dance-single:
     :
     Medium:
     10:
     :
0000
0000
0000
0000
,
0000
0000
0000
0000
,
0000
0000
0000
0000
,
0000
0000
0000
0000
,
0000
0000
0000
0000
,
0010
1000
0100
0000
1000
0000
0101
0000
,
0010
0001
0100
0000
0001
0000
1100
0000
,
0010
1000
0001
0010
,
0100
0100
0010
0010
,
0100
0000
0000
0100
0000
0000
0100
0000
0000
0100
0000
0000
1001
0000
0000
0000
,
0001
0010
0001
0000
0100
0100
0010
0010
,
1000
0100
1000
0000
0100
0010
0001
0000
,
1000
0010
1000
0000
0100
0100
0010
0010
,
0001
0100
0001
0000
0100
0010
1000
0001
,
0100
0010
1000
0000
0010
1000
0100
1000
,
0001
0100
0010
0000
0100
0001
1000
0000
,
0100
0010
0001
0000
0010
0001
0100
0001
,
1000
0000
0000
0100
0000
0000
0010
0000
0000
0001
0000
0000
2000
0000
0002
0000
,
0000
0000
3003
0110
,
0020
0100
0130
0000
0002
0010
0013
0000
,
1000
0000
0000
0010
0000
0000
0100
0000
0002
0000
1000
0000
1003
0000
0000
0000
,
0010
0100
0001
0000
0100
0010
1000
0000
,
0010
1000
0100
0000
0010
0001
0100
0000
,
0200
0010
0310
0000
2000
0100
3100
0000
,
0001
0000
0000
0100
0000
0000
0010
0000
2000
0000
0001
0000
3001
0000
0000
0000
,
0100
0010
1000
0000
0010
0100
0001
0010
,
0100
1100
0001
0011
,
0200
0000
0310
0000
0001
1000
0100
0000
,
0010
1000
0100
0000
0100
1000
0010
0000
,
0100
1100
0010
0110
,
0100
0000
0101
0000
0001
1000
0100
0000
,
0020
0000
0130
0000
1000
0001
0010
0000
,
0100
0001
0010
0000
0010
0001
0100
0000
,
0010
0011
0100
0110
,
0010
0000
0000
1000
0000
0000
0001
0000
0100
0000
0010
0000
0010
0000
0000
0000
,
1000
0000
0100
0000
1000
0100
1000
0000
,
0010
0100
0010
0000
0200
0000
0302
0000
,
0013
0001
0010
0000
0100
0010
0100
0000
,
2000
3100
0002
0103
,
0001
0000
0010
0000
0001
0010
0001
0000
,
0100
0010
0100
0000
0020
0000
2030
0000
,
3100
1000
0100
0000
0010
0100
0010
0000
,
0002
0010
1000
0103
,
0001
0010
0100
1000
0010
0100
0010
0000
,
0100
0001
0010
0100
1000
0010
0100
0000
,
0010
1000
0001
0100
0010
1000
0100
0000
,
0010
0001
0100
0010
1000
0000
0101
0000
,
1000
0100
0010
0001
0100
0010
0100
0000
,
0010
1000
0100
0010
0001
0100
0010
0000
,
0100
0001
1000
0000
0100
1000
0010
0000
,
0100
0001
0010
0000
0100
1000
0001
0000
,
1000
0001
0010
0000
0100
0010
0001
0000
,
1000
0100
0010
0000
0001
0100
1000
0000
,
0010
0011
0100
1100
,
0010
0000
0110
0000
0001
1000
0010
0100
,
0002
1003
2000
3001
,
0020
0130
0200
0310
,
0010
0000
0000
0010
0000
0000
0010
0000
0000
0010
0000
0000
1001
0000
0000
0000
,
1000
0100
1000
0000
0010
0010
0100
0100
,
0001
0010
0001
0000
0010
0100
1000
0000
,
0001
0100
0001
0000
0010
0010
0100
0100
,
1000
0010
1000
0000
0010
0100
0001
1000
,
0010
0100
0000
0001
0000
1000
0000
0010
,
0000
0100
0000
0001
0000
1000
0000
0001
,
0010
0100
1000
0000
0010
0100
1000
0000
,
0010
0100
1000
0010
0100
0000
1001
0000
,
0010
0000
0000
0100
0000
0000
0010
0000
1000
0000
0100
0000
0100
0000
0000
0000
,
0010
0001
0001
0000
0100
0010
0010
0000
,
1100
1010
1100
1000
,
0011
0101
0011
0001
,
0100
0000
0000
0010
0000
0000
0100
0000
0001
0000
0010
0000
0010
0000
0000
0000
,
0100
1000
1000
0000
0010
0100
0100
0010
,
1000
0100
0010
0000
0001
0010
0100
0000
,
1000
0000
0010
0000
0100
0000
0000
0000
0010
0000
0000
0100
0000
0000
0010
0000
,
2002
0000
0000
0000
,
3003
0000
0000
0000
,
0000
0000
0000
0000
;

//---------------dance-single - ----------------
#NOTES:
     dance-single:
     :
     Hard:
     14:
     :
0000
0000
0000
0000
,
0000
0000
0000
0000
,
0000
0000
0000
0000
,
0000
0000
0000
0000
,
0000
0000
0000
0000
,
0001
0010
1000
0000
0010
0000
0011
0000
,
1000
0010
0001
0000
0010
0000
1010
0000
,
0001
0100
1000
0000
0100
0001
0010
0000
,
1002
0100
0010
0103
,
0001
0000
0000
0010
0000
0000
0100
0000
0000
1000
0000
0000
0010
0000
0100
0000
,
0010
0000
1000
0000
0010
0100
0000
0000
0001
0000
0100
0000
1000
0000
0100
0000
,
0010
0000
1000
0000
0010
0100
0000
0000
1000
0000
0100
0000
0001
0000
0100
0000
,
0010
0000
1000
0000
0010
0100
0000
0000
1000
0000
0100
0000
0001
0000
0100
0000
,
0010
0000
0001
0000
0010
0100
0000
0000
0001
0000
0001
0000
1000
0000
1000
0000
,
0001
0000
0100
0000
0010
1000
0001
0000
1000
0000
0100
0000
0001
0000
0100
0000
,
1000
0000
0001
0000
0100
0001
1000
0000
0001
0000
0010
0000
1000
0000
0010
0000
,
0001
0000
0100
0000
0010
1000
0001
0000
1000
0000
0100
0000
0001
0000
0100
0000
,
1000
0000
0000
1100
0000
0000
0001
0000
0000
0101
0000
0000
0010
0000
0100
0000
,
0010
0000
0100
0010
0100
0000
0001
0000
0010
0100
0010
0000
1001
0000
0000
0000
,
2000
3100
0002
0103
,
1000
0000
0000
0010
1000
0000
0100
0000
1000
0000
0000
0100
1000
0000
0010
0000
,
1000
0001
0100
0010
1000
0100
0001
0000
,
0001
0100
1000
0010
0100
0001
0010
0000
,
0002
0103
2000
3100
,
0001
0000
0000
0010
0001
0000
0100
0000
0001
0000
0000
0100
0001
0000
0010
0000
,
0001
1000
0100
0010
0001
0100
1000
0001
,
1000
0000
0100
0000
0001
0000
0010
0000
0200
0000
0000
1300
0010
0000
0000
0000
,
1000
0000
0000
0100
0000
0000
0010
0000
0001
0010
0000
0010
0001
0000
0100
0000
,
0010
0100
0000
0100
0010
0000
1000
0000
0100
1000
0000
1000
0100
0000
0010
0000
,
0100
0010
0000
0010
0001
0000
0100
0000
0010
1000
0000
1000
0100
0000
0010
0000
,
1000
0010
0001
0100
1000
0100
0001
0000
,
0001
0000
0000
0010
0000
0000
0100
0000
1000
0100
0000
0100
1000
0000
0010
0000
,
0100
0010
0000
0010
0100
0000
0001
0000
0010
0001
0000
0001
0010
0000
0100
0000
,
0010
0100
0000
0100
1000
0000
0010
0000
0100
0001
0000
0001
0010
0000
0100
0000
,
0010
0100
0000
0100
0010
0001
0100
0000
0001
0000
0010
0000
0001
0000
0000
0000
,
2000
0000
0000
3010
0100
0000
0010
0000
1000
0000
0010
0000
0001
0000
0000
0000
,
1000
0010
0001
0100
1000
0010
0100
0000
,
0002
0000
0000
0103
0010
0000
0100
0000
0001
0000
0100
0000
1000
0000
0000
0000
,
0001
0100
1000
0010
0001
0100
0010
0000
,
2000
0000
0000
3100
1000
0000
0100
0000
1000
0000
0010
0000
0100
0000
0001
0000
,
0010
1000
0010
0001
0200
0000
0320
0000
,
1030
0100
0010
1000
0001
0100
1000
0000
,
0020
2030
3002
0203
,
0310
1000
0010
0000
0100
0000
0001
0000
0010
0000
0100
1000
0100
0000
0010
0000
,
0100
0010
0100
0000
0010
0000
0001
0000
0100
0000
0010
1000
0010
0000
0100
0000
,
0010
0100
0001
0000
0010
0000
0100
0000
1000
0000
0100
0010
1000
0000
0010
0000
,
0001
0100
0010
0000
0100
0000
1000
0000
0100
0000
0001
0100
0001
0000
0000
0000
,
0100
0001
0100
0000
0010
0000
1000
0000
0100
0000
0010
0001
0010
0000
0100
0000
,
0010
0100
0010
0000
0100
0000
1000
0000
0010
0000
0100
0001
0100
0000
0010
0000
,
1001
0010
0100
0010
0001
0010
0100
0100
,
0010
1000
0010
0100
0010
1000
0010
0010
,
1000
0100
0001
0100
0010
0100
0001
0001
,
1000
0010
0001
0100
0010
0100
1000
1000
,
0100
0000
0000
0010
0000
0000
1000
0000
0001
0000
0000
0100
0000
0000
0010
0000
,
1000
0000
0000
0001
0000
0000
0010
0000
0100
0000
1000
0000
0001
0000
0100
0000
,
0020
0000
0000
0000
0230
0000
0000
0000
0301
0000
0000
1000
0000
0000
0001
0000
,
1000
0000
0000
0010
0000
0000
0100
0000
0000
0010
0000
0000
0001
0000
0010
0000
,
0100
0001
0000
0001
0010
0000
0010
0100
0000
0100
1000
0000
1001
0000
0000
0000
,
0002
0013
2000
3010
,
0001
0000
0000
0100
0001
0000
0010
0000
0001
0000
0000
0010
0001
0000
0100
0000
,
0001
1000
0010
0100
0001
0010
1000
0000
,
1000
0000
0010
0000
0001
0000
0100
0000
0010
0000
0000
1000
0100
0000
1000
0001
,
0000
1001
0000
0010
1000
0100
0000
0010
,
0001
1000
0000
0010
0100
0001
0000
0010
,
0100
1000
0010
0100
0001
0100
0010
1000
,
0001
0000
0010
0000
0100
0000
1000
0000
0010
0100
0010
0100
0001
0000
0000
0000
,
0001
0000
0000
0010
0000
0000
0001
0010
0001
0000
0000
1000
0000
0000
0010
0000
,
0100
0000
0001
0000
0100
0000
1000
0000
0100
0000
0001
0010
0001
0010
0001
0000
,
1000
0010
0000
0010
1000
0000
1000
0100
0000
0100
1000
0000
1000
0001
0000
0001
,
0010
0000
0010
0001
0000
0001
0010
0000
0001
0100
0010
0000
1000
0100
0010
0000
,
0001
0000
0000
0010
0000
0000
0001
0010
0001
0000
0000
1000
0000
0000
0010
0000
,
0100
0000
0001
0000
0100
0000
1000
0000
0100
0000
0001
0010
0001
0010
0001
0010
,
0100
1000
0000
1000
0100
0000
0100
0010
0000
0010
0001
0000
0001
0100
0000
0100
,
0010
0000
0010
1000
0000
1000
0100
0000
1100
0000
0000
0101
0000
0000
0110
0000
,
2002
0000
0000
0000
,
3003
0000
0000
0000
,
0000
0000
0000
0000
;

//---------------dance-double - ----------------
#NOTES:
     dance-double:
     :
     Easy:
     7:
     :
00000000
00000000
00000000
00000000
,
00000000
00000000
00000000
00000000
,
00000000
00000000
00000000
00000000
,
00000000
00000000
00000000
00000000
,
00000000
00000000
00000000
00000000
,
00000010
00000001
00000100
00000000
,
00001000
00010000
00100000
00000000
,
02000000
03000000
00200000
00300000
,
10000000
01000000
00010000
00001000
,
00000200
00000000
00000010
00000310
,
00000001
00000010
00000001
00000100
,
00000010
00001000
00000100
00010000
,
00001000
00100000
00010000
01000000
,
00100000
10000000
01000000
00100000
,
00010000
00000000
00100000
00000000
00001000
00010000
00000010
00000000
,
00001000
00000100
00000010
00000001
,
00000100
00000000
00000010
00000000
00010000
00001000
00100000
00000000
,
00010000
00100000
00010000
01000000
,
20020000
00000000
00000000
30030000
,
00100000
10010000
00001000
00011000
,
00000100
00000100
00000010
00000010
,
00000001
00000100
00001000
00010000
,
00001000
00000100
00000001
00001000
,
00000010
00001001
00010000
00011000
,
01000000
01000000
00100000
00100000
,
10000000
01000000
00010000
00001000
,
00010000
01000000
10000000
00010000
,
00200000
00310000
02000000
03001000
,
00020000
00030100
00002000
00003010
,
00001000
00000010
00000100
00000010
,
00000100
00000001
00000010
00000000
00001001
00000000
00000000
00000000
,
00000020
00001030
00000200
00010300
,
00002000
01003000
00020000
00130000
,
00010000
00100000
01000000
00100000
,
01000000
10000000
00100000
00000000
10010000
00000000
00000000
00000000
,
20000000
00000000
00000000
00000000
31000000
00010000
00001000
00000000
,
00010000
00000000
00001000
00000000
00010000
00000100
00000010
00000000
,
00000002
00000000
00000000
00000000
00000103
00001000
00010000
00000000
,
00001000
00000000
00010000
00000000
00001000
01000000
00100000
00000000
,
20000000
00000000
00000000
00000000
30100000
00010000
00001000
00000000
,
00010000
00000000
00001000
00000000
00010000
00000010
00000100
00000000
,
00000001
00000010
00000100
00001001
,
00000200
00000000
00000000
00000300
,
00000001
00000010
00000100
00001000
00000100
00000000
00000000
00000000
,
00010000
00001000
00100000
00000000
,
10000000
00100000
01000000
00010000
01000000
00000000
00000000
00000000
,
00001000
00010000
00000100
00000000
,
00000010
00001000
00000010
00001000
00000100
00000000
00000000
00000000
,
00010000
00001000
00010000
00000000
,
00001000
00001000
00010000
00010000
,
01000000
01000000
10000000
10000000
,
00100000
00010000
00001000
00000100
,
00000001
00000010
00001001
00000000
,
00010000
00010000
00001000
00001000
,
00000100
00000100
00000001
00000001
,
00000010
00001000
00010000
01000000
,
10000000
00100000
01000000
00010000
,
00100000
00000000
00000000
00100000
00000000
00000000
00100000
00000000
00000000
00100000
00000000
00000000
00100000
00000000
00000000
00000000
,
00100000
10010000
00001000
00011000
,
00000100
00000100
00000010
00000010
,
00000001
00000100
00001000
00010000
,
00001000
00000100
00000001
00001000
,
00000010
00000100
00000000
00000001
00000000
00001000
00000000
00000010
,
00000000
00000100
00000000
00000010
00000000
00001000
00000000
00000100
,
00000000
00010000
00000000
01000000
00000000
00100000
00000000
00010000
,
10000000
01000000
00100000
10010000
,
00100000
00100000
10000000
10000000
,
00010000
00010000
01000000
01000000
,
00010000
00100000
00001000
00000100
,
00000001
00000010
00000100
00000110
,
00000010
00000010
00000001
00000001
,
00001000
00001000
00000100
00000100
,
00001000
00000010
00010000
01000000
,
10000000
00100000
01000000
01100000
,
10010000
00000000
00000000
00000000
,
00000000
00000000
00000000
00000000
;

//---------------dance-double - ----------------
#NOTES:
     dance-double:
     :
     Medium:
     10:
     :
00000000
00000000
00000000
00000000
,
00000000
00000000
00000000
00000000
,
00000000
00000000
00000000
00000000
,
00000000
00000000
00000000
00000000
,
00000000
00000000
00000000
00000000
,
00100000
10000000
01000000
00000000
00100000
00000000
00110000
00000000
,
00100000
00001000
00010000
00000000
00001000
00000000
00011000
00000000
,
00000100
00000001
00000010
00000100
,
00001000
00001000
00000100
00000100
,
00010000
00000000
00000000
00001000
00000000
00000000
00010000
00000000
00000000
00001000
00000000
00000000
00011000
00000000
00000000
00000000
,
00001000
00010000
01000000
00000000
00100000
00010000
01000000
00100000
,
10000000
01000000
10000000
00000000
10000000
01000000
00010000
00000000
,
00010000
00001000
00000100
00000000
00000010
00001000
00000100
00000010
,
00000001
00000100
00000001
00000000
00000001
00000100
00001000
00000100
,
00001000
00010000
00100000
00000000
01000000
00010000
00100000
01000000
,
10000000
00100000
10000000
00000000
10000000
00100000
00010000
00000000
,
00010000
00001000
00000010
00000000
00000100
00001000
00000010
00000100
,
00000001
00000010
00000001
00000000
00000001
00000010
00001000
00000000
,
00001000
00010000
01000000
00000000
00010000
00000000
00011000
00000000
,
00002000
00010000
00013000
00000000
00020000
00001000
00031000
00000000
,
00010000
00000000
00000000
00000100
00000000
00000000
00000010
00000000
00000002
00000000
00001000
00000000
00001003
00000000
00000000
00000000
,
00000100
00000001
00000010
00000000
00000100
00010000
00001000
00000000
,
00010000
00001000
00100000
00000000
00001000
00010000
00011000
00000000
,
00020000
00001000
00031000
00000000
00002000
00010000
00013000
00000000
,
00001000
00000000
00000000
01000000
00000000
00000000
00100000
00000000
20000000
00000000
00010000
00000000
30010000
00000000
00000000
00000000
,
01000000
10000000
00100000
00000000
01000000
00001000
00010000
00000010
,
00001000
00001010
00001100
00011000
,
00020000
01030000
00020000
00031000
,
00001000
01000000
00100000
00000000
01000000
00010000
00100000
00000000
,
00010000
00110000
00001000
00011000
,
00000100
00000000
00000110
00000000
00000100
00001000
00010000
00000000
,
00002000
00003100
00002000
00013000
,
00010000
00000100
00000010
00000000
00000100
00001000
00000010
00000000
,
00001000
00001010
00010000
00011000
,
01000000
00000000
00000000
00100000
00000000
00000000
00010000
00000000
01000000
00000000
01000000
00000000
01000000
00000000
00000000
00000000
,
10000000
00000000
01000000
00000000
10000000
01000000
10000000
00000000
,
00100000
01000000
00100000
00000000
02000000
00000000
03020000
00000000
,
00130000
00001000
00010000
00000000
00001000
00000100
00000001
00000000
,
00000010
00000001
00000100
00000000
00000010
00000000
00000110
00000000
,
00000001
00000000
00000100
00000000
00000001
00000100
00000001
00000000
,
00000010
00000100
00000010
00000000
00000200
00000000
00002300
00000000
,
00003010
00010000
00001000
00000000
00010000
01000000
10000000
00000000
,
00020000
00130000
00002000
00003010
,
00000100
00000001
00000010
00000001
00000100
00001000
00000100
00000000
,
00000100
00001000
00010000
01000000
10000000
00100000
01000000
00000000
,
00100000
10000000
00010000
01000000
00100000
00010000
00001000
00000000
,
00001000
00010000
00100000
10000000
01000000
00000000
01100000
00000000
,
01000000
10000000
00100000
10000000
01000000
00010000
01000000
00000000
,
01000000
00010000
00001000
00000100
00000001
00000010
00000100
00000000
,
00000010
00000001
00001000
00000100
00000010
00001000
00010000
00000000
,
00010000
00001000
00000010
00000000
00000001
00000100
00000010
00000000
,
00001000
00000100
00000010
00000000
00000001
00000100
00001000
00000000
,
00000100
00000001
00000010
00000000
00000110
00000000
00001001
00000000
,
00000020
00000130
00002000
00003100
,
00020000
00000000
00031000
00000000
00010000
01000000
10000000
00100000
,
02000000
03010000
20000000
30010000
,
00100000
10000000
00010000
00100000
,
00001000
00000000
00000000
00010000
00000000
00000000
00001000
00000000
00000000
00010000
00000000
00000000
00011000
00000000
00000000
00000000
,
00002000
00010000
00013000
00000000
00020000
00001000
00031000
00000000
,
00010000
00000000
00000000
00000100
00000000
00000000
00000010
00000000
00000002
00000000
00001000
00000000
00001003
00000000
00000000
00000000
,
00000100
00000001
00000010
00000000
00000100
00010000
00001000
00000000
,
00010000
00001000
00100000
00000000
00001000
00010000
00011000
00000000
,
00010000
00011000
00000000
00110000
00000000
00011000
00000000
00001010
,
00000000
00011000
00000000
01010000
00000000
00011000
00000000
00001000
,
00000100
00000010
00001000
00000000
00000010
00001000
00000100
00000010
,
00000001
00000011
00000110
00001100
,
00020000
01030000
00020000
00031000
,
00100000
00010000
00010000
00000000
01000000
00100000
00100000
00000000
,
11000000
10100000
01010000
00001000
,
00011000
00001100
00011000
00010000
,
00002000
00003100
00002000
00013000
,
00000010
00001000
00001000
00000000
00000100
00000010
00000010
00000000
,
00000101
00000011
00001100
00010000
,
00011000
00000000
00000000
00000000
01010000
00000000
00000000
00000000
00110000
00000000
00000000
01000000
00000000
00000000
00100000
00000000
,
20020000
00000000
00000000
00000000
,
30030000
00000000
00000000
00000000
,
00000000
00000000
00000000
00000000
;

//---------------dance-double - ----------------
#NOTES:
     dance-double:
     :
     Hard:
     14:
     :
00000000
00000000
00000000
00000000
,
00000000
00000000
00000000
00000000
,
00000000
00000000
00000000
00000000
,
00000000
00000000
00000000
00000000
,
00000000
00000000
00000000
00000000
,
00000001
00000010
00000100
00000000
00001000
00000000
00001100
00000000
,
00010000
00001000
01000000
00000000
00100000
00000000
01010000
00000000
,
00010000
01000000
10000000
00000000
01000000
00001000
00100000
00000000
,
00002000
00003100
00020000
01030000
,
00010000
00000000
00000000
01000000
00000000
00000000
10000000
00000000
00000000
00100000
00000000
00000000
01000000
00000000
00100000
00000000
,
10000000
00000000
01000000
00000000
00100000
01000000
00000000
00000000
00010000
00000000
00001000
00000000
00000100
00000000
00000001
00000000
,
00000010
00000000
00001000
00000000
00000010
00000100
00000000
00000000
00000001
00000000
00000100
00000000
00010000
00000000
00001000
00000000
,
00100000
00000000
01000000
00000000
10000000
00100000
00000000
00000000
10000000
00000000
01000000
00000000
00100000
00000000
01000000
00000000
,
00010000
00000000
00001000
00000000
00000010
00000100
00000000
00000000
00001000
00000000
00000001
00000000
00001000
00000000
00000001
00000000
,
00000010
00000000
00000100
00000000
00001000
00000100
00001000
00000000
00000100
00000000
00010000
00000000
00001000
00000000
00100000
00000000
,
01000000
00000000
00100000
00000000
00010000
01000000
00010000
00000000
01000000
00000000
00001000
00000000
00010000
00000000
00000010
00000000
,
00000100
00000000
00001000
00000000
00000100
00001000
00010000
00000000
00100000
00000000
01000000
00000000
00010000
00000000
01000000
00000000
,
10000000
00000000
00000000
11000000
00000000
00000000
00010000
00000000
00000000
01010000
00000000
00000000
00100000
00000000
00001000
00000000
,
00020000
00000000
00000000
00031000
00010000
00000000
00001000
00000000
00010000
00001000
00010000
00000000
00011000
00000000
00000000
00000000
,
00020000
01030000
00002000
00003100
,
00000001
00000000
00000000
00000010
00000001
00000000
00000100
00000000
00001000
00000000
00000000
00010000
01000000
00000000
10000000
00000000
,
00100000
00010000
00100000
10000000
01000000
00010000
00001000
01000000
,
00100000
00010000
00001000
00000100
00000001
00000010
00000100
00000000
,
00002000
01003000
00020000
00030100
,
00010000
00000000
00000000
00100000
00010000
00000000
00001000
00000000
00000100
00000000
00000000
00000010
00000100
00000000
00000001
00000000
,
00000010
00001000
00010000
00000100
00000010
00000100
00010000
01000000
,
10000000
00100000
01000000
00100000
01000000
00000000
10010000
00000000
,
10000000
00000000
00000000
01000000
00000000
00000000
00100000
00000000
00010000
00100000
00000000
00100000
00010000
00000000
01000000
00000000
,
00001000
00010000
00000000
00010000
00001000
00000000
00000100
00000000
00000010
00000100
00000000
00000100
00000010
00000000
00000001
00000000
,
00000020
00000000
00000000
00000230
00000000
00000000
00000301
00000000
00000010
00000100
00000000
00000100
00000010
00000000
00000001
00000000
,
00000100
00000010
00000000
00000010
00000100
00000000
00001000
00000000
00000100
00000000
00000100
00000000
00000100
00000000
00000000
00000000
,
00000001
00000000
00000000
00000100
00000000
00000000
00000010
00000000
00001000
00000010
00000000
00000010
00001000
00000000
00000100
00000000
,
00010000
00001000
00000000
00001000
00010000
00000000
01000000
00000000
00100000
01000000
00000000
01000000
00100000
00000000
10000000
00000000
,
00200000
00000000
00000000
02300000
00000000
00000000
13000000
00000000
00100000
01000000
00000000
01000000
00100000
00000000
10000000
00000000
,
01000000
00100000
00000000
00100000
01000000
00000000
00010000
00000000
01000000
00000000
00000000
00000000
10010000
00000000
00000000
00000000
,
20000000
00000000
00000000
30100000
01000000
00000000
00100000
00000000
10000000
00000000
00100000
00000000
00010000
00000000
00000000
00000000
,
10000000
01000000
00000000
00000000
00010000
00001000
00000000
00000000
00000100
00000001
00000000
00000000
00000100
00001000
00000000
00000000
,
00000002
00000000
00000000
00000013
00000100
00000000
00000010
00000000
00000001
00000000
00000010
00000000
00001000
00000000
00000000
00000000
,
00000001
00000100
00000000
00000000
00001000
00010000
00000000
00000000
01000000
10000000
00000000
00000000
01000000
00010000
00000000
00000000
,
00020000
00000000
00000000
01030000
10000000
00000000
01000000
00000000
10000000
00000000
00100000
00000000
01000000
00000000
00010000
00000000
,
00100000
00001000
00010000
00000100
00000020
00000000
00000032
00000000
,
00001003
00000100
00000001
00000100
00000010
00000001
00000100
00000000
,
00002000
02003000
03200000
02300000
,
03100000
10000000
00100000
00000000
01000000
00000000
00010000
00000000
00100000
00000000
00001000
00010000
00001000
00000000
00010000
00000000
,
00000100
00000010
00000100
00000000
00010000
00000000
00001000
00000000
00000100
00000000
00000010
00000100
00000010
00000000
00000000
00000000
,
00000100
00000001
00000100
00000000
00000010
00000000
00001000
00000000
00000010
00000000
00010000
00001000
00010000
00000000
00001000
00000000
,
01000000
00100000
01000000
00000000
00010000
00000000
10000000
00000000
00010000
00000000
00100000
01000000
00100000
00000000
00000000
00000000
,
01000000
00010000
01000000
00000000
00100000
00000000
00001000
00000000
00010000
00000000
00001000
00000100
00001000
00000000
00000100
00000000
,
00000010
00000100
00000010
00000000
00001000
00000000
00000100
00000000
00000010
00000000
00000100
00001000
00000100
00000000
00000010
00000000
,
00000001
00000000
00000000
00000001
00000100
00000000
00000000
00000100
00001000
00000000
00000000
00001000
00010000
00000000
00000000
00010000
,
01000000
00000000
00000000
01000000
10000000
00000000
00000000
10000000
00100000
00000000
10000000
00000000
01000000
00000000
00100000
00000000
,
10000000
00000000
00000000
10000000
00100000
00000000
00000000
00100000
00010000
00000000
00000000
00010000
00001000
00000000
00000000
00001000
,
00000010
00000000
00000000
00000010
00000001
00000000
00000000
00000001
00000100
00000000
00000001
00000000
00000010
00000000
00000100
00000000
,
00000020
00000000
00000000
00000031
00000100
00000000
00000010
00000000
00002000
00000000
00000000
00003100
00001000
00000000
00000100
00000000
,
00020000
00000000
00000000
00031000
00100000
00000000
10000000
00000000
00100000
00000000
00010000
00000000
01000000
00000000
00100000
00000000
,
02000000
00000000
00000000
00000000
03010000
00000000
00000000
00000000
00100000
00000000
00000000
00001000
00000000
00000000
00010000
00000000
,
00001000
00000000
00000000
00000100
00000000
00000000
00000010
00000000
00000000
00001000
00000000
00000000
00000001
00000000
00000010
00000000
,
00000100
00000000
00000000
00001000
00000000
00000000
00000100
00000000
00010000
00001000
00010000
00000000
00011000
00000000
00000000
00000000
,
00020000
01030000
00002000
00003100
,
00000001
00000000
00000000
00000010
00000001
00000000
00000100
00000000
00001000
00000000
00000000
00010000
01000000
00000000
10000000
00000000
,
00100000
00010000
00100000
10000000
01000000
00010000
00001000
01000000
,
00100000
00010000
00001000
00000100
00000001
00000010
00000100
00000000
,
00000010
00000110
00000000
00001100
00000000
00011000
00000000
00001010
,
00000000
00011000
00000000
01010000
00000000
00011000
00000000
00110000
,
00000000
01100000
00000000
11000000
00000000
01010000
00000000
01100000
,
01000000
00000000
00100000
00000000
10000000
00000000
01000000
00000000
00100000
00000000
00010000
01000000
00100000
00000000
00000000
00000000
,
10000000
00000000
00000000
00100000
00000000
00000000
00010000
00100000
00010000
00000000
00000000
00001000
00000000
00000000
00000010
00000000
,
00000100
00000000
00000010
00000000
00000001
00000000
00000100
00000000
00000010
00000000
00000100
00000010
00000100
00000010
00001000
00000000
,
00000010
00001000
00000000
00001000
00000100
00000000
00000100
00010000
00000000
00010000
00001000
00000000
00001000
00010000
00000000
00010000
,
01000000
00000000
01000000
10000000
00000000
10000000
01000000
00000000
10000000
01000000
00100000
00000000
00010000
01000000
00100000
00000000
,
10000000
00000000
00000000
01000000
00000000
00000000
00010000
01000000
00010000
00000000
00000000
00001000
00000000
00000000
00000100
00000000
,
00000010
00000000
00000100
00000000
00000001
00000000
00000010
00000000
00000100
00000000
00000010
00000100
00000010
00000100
00001000
00000000
,
00000100
00001000
00000000
00001000
00000010
00000000
00000010
00010000
00000000
00010000
00001000
00000000
00001000
00010000
00000000
00010000
,
00100000
00000000
00100000
10000000
00000000
10000000
00100000
00000000
10100000
00000000
00000000
01010000
00000000
00000000
00100000
00000000
,
00022000
00000000
00000000
00000000
,
00033000
00000000
00000000
00000000
,
00000000
00000000
00000000
00000000
;
