#TITLE:Summer Fairytale;
#ARTIST:Design-MAD crew;
#BANNER:Summer Fairytale.png;
#BACKGROUND:Summer Fairytale-bg.png;
#CDTITLE:./CDTITLES/DanceDanceRevolution II.png;
#MUSIC:Summer Fairytale.ogg;
#SAMPLESTART:85.14;
#SAMPLELENGTH:15;
#DISPLAYBPM:141;
#BPMS:0=139.5,4=141;
#STAGE:2;

//---------------dance-single - ----------------
#NOTES:
     dance-single:
     :
     Beginner:
     2:
     :
0000
0000
0000
0000
,
0000
0000
0000
0000
,
0000
0000
0000
0000
,
0000
0000
0000
0000
,
0000
0000
0000
0000
,
0000
0000
0000
0000
,
0000
0000
0000
0000
,
0000
0000
0000
0000
,
0000
0000
0000
0000
,
0000
0000
0000
0000
,
0001
0000
1000
0000
,
0001
0000
0000
0000
,
1000
0000
0100
0000
,
0010
0000
0000
0000
,
0001
0000
0001
0000
,
0010
0000
0000
0000
,
1000
0000
0001
0000
,
0100
0000
0000
0000
,
0002
0000
0003
0000
,
2000
0000
3000
0000
,
0002
0000
0003
0000
,
0020
0000
0030
0000
,
2000
0000
3000
0000
,
0002
0000
0003
0000
,
0020
0000
0030
0000
,
0100
0000
0000
0000
,
1000
0000
0000
0000
,
0010
0010
0010
0000
,
1000
0000
0001
0000
,
0010
0000
0000
0000
,
0001
0000
0001
0000
,
0001
0000
1000
0000
,
0100
0000
0000
0000
,
0000
0000
0000
0000
,
0100
0000
0000
0000
,
0001
0000
0000
0000
,
0010
0010
0010
0000
,
0001
0000
1000
0000
,
0010
0000
0000
0000
,
1000
0000
1000
0000
,
1000
0000
0001
0000
,
0100
0000
0000
0000
,
1000
0000
1001
0000
,
1000
0000
1001
0000
,
0001
0000
1001
0000
,
1001
0000
0000
0000
,
0010
0000
0110
0000
,
0010
0000
0110
0000
,
0010
0000
0110
0000
,
0110
0000
0000
0000
,
0010
0000
1000
0000
,
0001
0000
0000
0000
,
0001
0000
0100
0000
,
0010
0000
0000
0000
,
1000
0000
0100
0000
,
0010
0000
0000
0000
,
0001
0000
1000
0000
,
0001
0000
0000
0000
,
0001
0000
1000
0000
,
0001
0000
0000
0000
,
1000
0000
0100
0000
,
0010
0000
0000
0000
,
0001
0000
0001
0000
,
0010
0000
0000
0000
,
1000
0000
0001
0000
,
0100
0000
0000
0000
,
0000
0000
0000
0000
;

//---------------dance-single - ----------------
#NOTES:
     dance-single:
     :
     Easy:
     5:
     :
0000
0000
0000
0000
,
0000
0000
0000
0000
,
0000
0000
0000
0000
,
0000
0000
0000
0000
,
0000
0000
0000
0000
,
0000
0000
0000
0000
,
0000
0000
0000
0000
,
0000
0000
0000
0000
,
0000
0000
0000
0000
,
0000
0000
0000
0000
,
1000
1000
0100
0000
,
0010
0010
0001
0000
,
0200
0300
0020
0030
,
2000
0000
3000
0000
,
0100
0100
0010
0000
,
0001
0001
0100
0000
,
1000
0001
1001
0000
,
0200
0000
0000
0300
,
0020
0000
0030
0000
,
2000
0000
3000
0000
,
0200
0000
0300
0000
,
0002
0000
0003
0000
,
0020
0000
0030
0000
,
0002
0000
0003
0000
,
0200
0000
0300
0000
,
0100
0000
0000
0000
,
0001
0000
0001
0000
,
1000
0000
0001
0000
,
0100
0010
0100
0000
,
0010
0010
0100
0000
,
0002
0000
2003
0000
,
3020
0000
0230
0000
,
0302
0000
0000
0003
,
2000
0000
0000
3000
,
1000
0000
1000
0000
,
0001
0000
1000
0000
,
0100
0010
0100
0000
,
0010
0010
0100
0000
,
2000
0000
3002
0000
,
0013
0010
0100
0100
,
2000
0000
3100
0000
,
0002
0000
0103
0000
,
1000
1000
1000
1000
,
0100
0100
0100
0100
,
0001
0001
0001
0001
,
0010
0010
0010
0010
,
0001
1000
0001
1000
,
0010
0100
0010
0100
,
0110
0110
0110
0110
,
1001
1001
1001
0000
,
0001
1000
0100
0000
,
0010
0001
1000
0000
,
0002
0003
0200
0300
,
0020
0000
0030
0000
,
1000
0100
0010
0000
,
0001
0100
0010
0000
,
2000
0000
3002
0000
,
0203
0000
0000
0300
,
0001
0001
0100
0000
,
0010
0010
1000
0000
,
0200
0300
0020
0030
,
0002
0000
0003
0000
,
0100
0100
0010
0000
,
1000
1000
0100
0000
,
0001
1000
1001
0000
,
0200
0000
0000
0300
,
0000
0000
0000
0000
;

//---------------dance-single - ----------------
#NOTES:
     dance-single:
     :
     Medium:
     7:
     :
0000
0000
0000
0000
,
0000
0000
0000
0000
,
0000
0000
0000
0000
,
0000
0000
0000
0000
,
0000
0000
0000
0000
,
0000
0000
0000
0000
,
0000
0000
0000
0000
,
0000
0000
0000
0000
,
0000
0000
0000
0000
,
0000
0000
0000
0000
,
0100
0100
0010
0110
,
0001
0100
1000
0000
,
0020
0000
0031
0010
,
0200
1000
1300
0000
,
0010
0001
0011
1000
,
0010
0000
1000
0001
1001
0000
0000
0000
,
0100
0000
0010
0000
1000
0100
0010
0002
,
0000
0000
0000
0003
,
0200
0000
0000
0010
0000
0000
0300
0000
,
0002
0000
0000
0010
0000
0000
0003
0000
,
2000
0000
0000
0001
0000
0000
3000
0000
,
0200
0320
2030
3001
,
0100
0000
0000
1100
0000
0000
0000
0000
,
0010
0000
0000
0011
0000
0000
0000
0000
,
0100
0000
0000
1001
0000
0000
0000
0000
,
0010
0000
0000
0000
,
1000
0100
1000
0100
,
0010
0002
0103
0020
,
2030
3100
0002
0103
,
1000
0010
0100
0000
,
0001
0000
0100
0000
0010
0100
0020
0000
,
1030
0000
0001
0000
0010
0100
0020
0000
,
0032
0000
0100
0013
,
2000
0000
0100
3100
,
0001
0100
0001
0100
,
0010
2000
3100
0020
,
0032
0103
2000
3100
,
0001
0010
0100
0000
,
2000
0000
0100
0100
,
3020
0000
0100
0100
,
2030
3002
0023
0230
,
2300
3002
0103
0000
,
0001
0001
0101
0101
,
1000
1000
1100
1100
,
0010
0010
0011
0011
,
0100
0100
0110
0110
,
1000
0001
1001
1001
,
0010
0100
0110
0110
,
1000
1100
0100
0110
,
0010
0011
0100
1100
,
1000
0100
0010
0011
,
0001
1000
0100
0000
,
2000
0000
3001
0100
,
0020
1000
1030
0000
,
0100
1000
1100
0010
,
0001
0000
0100
0010
0110
0000
0000
0000
,
1000
0000
0100
0000
0010
0001
1000
0020
,
0000
0000
0000
0030
,
0100
0100
0010
0110
,
1000
0100
0001
0000
,
0020
0000
1030
0010
,
0200
0001
0301
0000
,
0010
1000
1010
0001
,
0010
0000
0001
1000
1001
0000
0000
0000
,
0100
0000
0010
0000
0001
0100
0010
2000
,
0000
0000
0000
3000
,
0000
0000
0000
0000
;

//---------------dance-single - ----------------
#NOTES:
     dance-single:
     :
     Hard:
     9:
     :
0000
0000
0000
0000
,
0000
0000
0000
0000
,
0000
0000
0000
0000
,
0000
0000
0000
0000
,
0000
0000
0000
0000
,
0000
0000
0000
0000
,
0000
0000
0000
0000
,
0000
0000
0000
0000
,
0000
0000
0000
0000
,
0000
0000
0000
0000
,
0001
0101
1000
1010
,
0100
0000
0001
1000
0100
0000
0000
0000
,
0010
0000
0001
0100
0010
0000
1000
0100
,
0002
0203
1300
1100
,
0001
0100
0010
1000
,
0100
0010
0100
0010
0200
0000
0310
0000
,
0001
0100
0001
0000
1000
0100
1000
0020
,
0000
0000
0000
0030
,
0100
0000
0000
0012
0000
0000
0000
0000
,
1003
0000
0000
0201
0000
0000
0000
0000
,
0310
0000
0000
2001
0000
0000
0000
0000
,
3200
0302
0023
2030
,
3100
0000
0000
0012
0000
0000
0000
0000
,
1003
0000
0000
0210
0000
0000
0000
0000
,
0301
0000
0000
2010
0000
0000
0000
0000
,
3100
0000
0000
0000
,
0010
0010
0001
0001
,
0100
0000
0100
0000
0010
1000
0010
0000
,
0200
0000
0310
0001
0020
0000
0130
1000
,
0200
1300
0001
0000
,
0010
0000
1000
0010
0100
0000
0001
0010
,
1000
0000
0100
0001
0010
0000
0100
0000
,
2000
0000
0000
0020
0000
0000
3000
0000
,
0230
0000
0000
0002
0000
0000
0303
0000
,
0010
0010
1000
1000
,
0100
0000
0100
0000
0010
0001
0010
0000
,
0200
0000
0310
1000
0020
0000
0130
0001
,
0200
0301
1000
0000
,
0200
0000
0010
1000
,
0320
0001
1000
0100
,
0032
0000
0203
0010
,
0301
1000
0100
0000
,
0011
0120
0031
0110
,
1000
0102
0013
0101
,
0010
1200
0310
1100
,
0010
2001
3100
1001
,
0100
1020
0031
1010
,
0100
0201
0310
0101
,
1000
0012
1000
0013
,
0100
2001
0100
3100
,
0001
0110
0001
0011
,
0100
1000
0100
0001
,
0100
0000
1000
0001
0010
0000
0100
1000
,
0002
0203
0310
1001
,
0010
0001
0100
1000
,
0100
0001
0100
0001
0020
0000
0130
0000
,
1000
0100
0001
0000
1000
0010
0001
0200
,
0000
0000
0000
0300
,
1000
1100
0001
0011
,
0100
0000
1000
0001
0100
0000
0000
0000
,
0010
0000
1000
0100
0010
0000
0001
0100
,
2000
3200
0301
0101
,
1000
0100
0010
0001
,
0100
0010
0100
0010
0200
0000
0310
0000
,
1000
0100
1000
0000
0001
0100
0001
0020
,
0000
0000
0000
0030
,
0000
0000
0000
0000
;

//---------------dance-single - ----------------
#NOTES:
     dance-single:
     :
     Challenge:
     14:
     :
0000
0000
0000
0000
,
0000
0000
0000
0000
,
0000
0000
0000
0000
,
0000
0000
0000
0000
,
0000
0000
0000
0000
,
0000
0000
0000
0000
,
0000
0000
0000
0000
,
0000
0000
0000
0000
,
0000
0000
0000
0000
,
0000
0000
0000
0000
,
0010
0000
0001
0100
0001
0000
0100
0001
0100
0001
0010
0000
0100
0000
1000
0000
,
0010
0000
1000
0100
1000
0000
0100
0000
0100
0000
0010
0000
0001
0000
0100
0010
,
0100
0000
0010
0000
1000
0000
0001
0100
0001
0000
1000
0000
0001
0000
0010
0100
,
0010
0001
0010
0100
0010
0100
0110
0000
,
0101
0000
0001
1000
0001
0000
0100
0000
0100
0000
0100
0000
0010
0000
1000
0000
,
0010
0000
0100
0001
0100
0001
0100
0001
0010
0000
1000
0000
0010
0000
0001
0000
,
1001
0000
1010
0100
0100
0001
0100
0100
,
0201
0000
0000
0000
0310
0000
0201
0000
0000
0000
0010
0000
0300
0010
0000
0000
,
2100
0000
3010
2100
0000
0001
3000
0000
,
1020
0000
0000
0000
0130
0000
1020
0000
0000
0000
0100
0000
0030
0100
0000
0000
,
1002
0000
0103
1002
0000
0010
0003
0000
,
1200
0000
0000
0000
0310
0000
1200
0000
0000
0000
0010
0000
0300
0010
0000
0000
,
0102
0000
0013
0102
0000
0013
0100
0100
,
1020
0000
0000
0000
0130
0000
1020
0000
0000
0000
1030
0000
0001
1000
0000
0000
,
2100
0000
0000
0000
3010
0000
2100
0000
0000
0000
3010
0000
0100
0001
0100
0001
,
0010
0000
0100
0000
,
0100
0000
0010
0001
0010
0000
0100
0000
0000
0000
0100
0000
0100
0000
1000
0000
,
0010
0000
1000
0001
1000
0000
0100
0000
0000
0000
0100
0000
1000
0000
0010
0000
,
1000
0000
0000
1000
0001
0000
0010
0000
0100
0000
0100
0000
0010
0000
1000
0000
,
0010
0000
0000
0010
1000
0000
0100
0000
0010
0000
0000
0000
0001
0000
0000
0000
,
0010
0000
0001
0010
0001
0000
0100
0000
0000
0000
0010
0000
0100
0000
1000
0000
,
0001
0000
0100
0010
0100
0000
0001
0000
0000
0000
0010
0000
1000
0010
1000
0000
,
0100
0000
0000
0100
1000
0000
0010
0000
0100
0000
0001
0000
1000
0001
0000
0000
,
1002
0000
0010
2000
0000
0000
3003
0000
,
0100
0000
0001
1000
0001
0000
0100
0000
0001
1000
0001
0000
0010
0000
0000
0000
,
0100
0000
0001
1000
0001
0000
0100
0000
0001
1000
0001
0000
0100
0000
0010
0000
,
1000
0000
0000
0001
0010
0000
0100
0000
0000
1000
0001
0000
1000
0001
1000
0000
,
0100
0000
0000
0010
0001
0000
0100
0000
0000
0010
1000
0000
0010
1000
0010
0000
,
0100
0001
0010
0100
0100
1000
0010
0100
,
0100
0010
1000
0100
0100
0010
0001
0100
,
1000
0100
0010
0100
0100
0001
0010
0100
,
0100
0000
1001
0001
0100
0100
0010
0000
,
0101
0011
1010
1100
,
0101
1100
1010
0011
,
0110
0000
0000
0000
1010
0000
0000
0000
0011
0000
0100
0010
0100
0000
0000
0000
,
1100
0000
0000
0000
0110
0000
0001
0010
0001
0000
0000
0000
1001
0000
0000
0000
,
1100
0000
0001
0100
0001
0000
0000
0000
0011
0000
1000
0010
1000
0000
0000
0000
,
0101
0000
0010
0001
0010
0000
0000
0000
1010
0000
0100
1000
0100
0000
0000
0000
,
0101
1100
1010
0011
,
1001
0000
0010
0001
0010
0000
0100
0000
1000
0010
1000
0010
1000
0000
0000
0000
,
0010
0000
1000
0000
0001
0000
0001
0000
0100
0000
1000
0000
0010
0000
0100
0001
,
0010
0000
0100
0000
0100
0000
0010
0000
1000
0000
0001
0000
0100
0000
0010
1000
,
0100
0000
0010
0000
0001
0000
1000
0000
1000
0000
0100
0000
0010
0000
1000
0001
,
0100
0100
0010
0001
0100
0010
0010
0000
,
0100
0001
0010
0010
0100
0100
1000
1001
,
0000
0000
0001
1000
0001
1000
0001
1000
0100
0000
0000
0000
0011
0000
0100
0000
,
0100
0000
0000
0000
1010
0000
0100
0000
0100
0000
0001
0000
1000
0100
0020
0000
,
0000
0000
0000
0030
,
0010
0000
1000
0100
1000
0000
0100
1000
0100
1000
0010
0000
0100
0000
0001
0000
,
0010
0000
0001
0100
0001
0000
0100
0000
0100
0000
0010
0000
1000
0000
0100
0010
,
0100
0000
0010
0000
0001
0000
1000
0100
1000
0000
0001
0000
1000
0000
0010
0100
,
0010
1000
0010
0100
0010
0100
0110
0000
,
1100
0000
1000
0001
1000
0000
0100
0000
0100
0000
0100
0000
0010
0000
0001
0000
,
0010
0000
0100
1000
0100
1000
0100
1000
0010
0000
0001
0000
0010
0000
1000
0000
,
1001
0000
0011
0100
0001
0100
1000
0100
,
0100
0000
0010
0000
1000
0000
1000
0000
0001
0100
0001
0100
0001
1000
0100
0000
,
0000
0000
0000
0000
;

//---------------dance-double - ----------------
#NOTES:
     dance-double:
     :
     Easy:
     5:
     :
00000000
00000000
00000000
00000000
,
00000000
00000000
00000000
00000000
,
00000000
00000000
00000000
00000000
,
00000000
00000000
00000000
00000000
,
00000000
00000000
00000000
00000000
,
00000000
00000000
00000000
00000000
,
00000000
00000000
00000000
00000000
,
00000000
00000000
00000000
00000000
,
00000000
00000000
00000000
00000000
,
00000000
00000000
00000000
00000000
,
10000000
00000000
01000000
00000000
,
00100000
00010000
00010000
00000000
,
00200000
00000000
00302000
00000000
,
00013000
00000010
00000010
00000000
,
00000100
00000001
00000100
00000000
,
00000010
00001000
00000010
00001000
,
00000001
00000100
00001000
00000000
,
00020000
00000000
00000000
00030000
,
00002000
00000000
01003000
00000000
,
00002000
00000000
00103000
00000000
,
00002000
00000000
00013000
00000000
,
00001000
00100000
00100000
00001000
,
00020000
00000000
00030010
00000000
,
00020000
00000000
00030100
00000000
,
00020000
00000000
00031000
00000000
,
00011000
00000000
00000000
00000000
,
00001000
00100000
00001000
00000000
,
00010000
00000000
01000000
00000000
,
10000000
00010000
10000000
00000000
,
00100000
00100000
01000000
00000000
,
00200000
00000000
00320000
00000000
,
00032000
00000000
00003200
00000000
,
00000302
00000000
00002003
00000000
,
00003001
00001000
00000100
00000000
,
00010000
00000010
00010000
00000000
,
00001000
00000000
00000100
00000000
,
00000001
00001000
00000001
00000000
,
00000010
00000010
00000100
00000000
,
00002000
00000000
00003020
00000000
,
00020030
00000000
00032000
00000000
,
02003000
00000000
03200000
00000000
,
02300000
00000000
03000000
00000000
,
00010000
00010000
00010000
00010000
,
00100000
00100000
00100000
00100000
,
00001000
00001000
00001000
00001000
,
00010000
00010000
00010000
00010000
,
00000010
00000010
00000010
00000110
,
00000001
00000001
00000001
00000101
,
00010000
00010000
00010000
00011000
,
01000000
01000000
01000000
01100000
,
10000000
10000000
01000000
00000000
,
00100000
00100000
00010000
00000000
,
02000000
00000000
03002000
00000000
,
00013000
00000010
00000100
00000000
,
00000001
00000100
00001000
00000000
,
00000100
00000010
00010000
00001000
,
00010000
00100000
10000000
01000000
,
00200000
00000000
00000000
00300000
,
10000000
00000000
01000000
00000000
,
00100000
00010000
00010000
00000000
,
00200000
00000000
00302000
00000000
,
00013000
00000010
00000010
00000000
,
00000100
00000001
00000100
00000000
,
00000010
00001000
00000010
00001000
,
00000001
00000100
00001000
00010000
,
00002000
00000000
00000000
00003000
,
00000000
00000000
00000000
00000000
;

//---------------dance-double - ----------------
#NOTES:
     dance-double:
     :
     Medium:
     7:
     :
00000000
00000000
00000000
00000000
,
00000000
00000000
00000000
00000000
,
00000000
00000000
00000000
00000000
,
00000000
00000000
00000000
00000000
,
00000000
00000000
00000000
00000000
,
00000000
00000000
00000000
00000000
,
00000000
00000000
00000000
00000000
,
00000000
00000000
00000000
00000000
,
00000000
00000000
00000000
00000000
,
00000000
00000000
00000000
00000000
,
01000000
11000000
00100000
00110000
,
01000000
00010000
00001000
00000000
,
00000200
00000001
00000320
00001000
,
00000130
00000000
00000100
00000010
00000100
00000000
00001000
00000000
,
00010000
00001000
00100000
01000000
,
00100000
00000000
00010000
10000000
00020000
00000000
00030000
00000000
,
10000000
00100000
00010000
00001000
,
00000020
00000000
00000000
00000030
,
00000100
00000000
00000000
00000110
00000000
00000000
00000000
00000000
,
00010000
00000000
00000000
00011000
00000000
00000000
00000000
00000000
,
00100000
00000000
00000000
01100000
00000000
00000000
00000000
00000000
,
00010000
00000100
00010000
00100000
,
10000000
00000000
00000000
10100000
00000000
00000000
00000000
00000000
,
01000000
00000000
00000000
01010000
00000000
00000000
00000000
00000000
,
00001000
00000000
00000000
00011000
00000000
00000000
00000000
00000000
,
00010000
00000000
00000000
00000000
,
00001000
00000100
00000010
00000100
,
00000001
00000010
00000100
00010000
,
00002000
00010000
00203000
00010000
,
00302000
00010000
00013000
00000000
,
01000000
00200000
00310000
00002000
,
00103000
02000000
13000000
00010000
,
02000000
00000000
03002000
00000000
,
00023000
00000000
00000000
00000000
00000000
00000000
00000000
00000000
00000000
00000000
00000000
00000000
00000000
00000000
00000000
00000000
00000000
00000000
00000000
00000000
00000000
00000000
00000000
00000000
00000000
00000000
00000000
00000000
00000000
00000000
00000000
00000000
00000000
00000000
00000000
00000000
00000000
00000000
00000000
00000000
00000000
00000000
00000000
00000000
00000000
00000000
00000000
00000000
00000000
00000000
00000000
00000000
00000000
00000000
00000000
00000000
00000000
00000000
00000000
00000000
00000000
00000000
00000000
00000000
00000000
00000000
00000000
00000000
00000000
00000000
00000000
00000000
00000000
00000000
00000000
00000000
00000000
00000000
00000000
00000000
00000000
00000000
00000000
00000000
00000000
00000000
00000000
00000000
00000000
00000000
00000000
00000000
00000000
00000000
00000000
00000000
02030000
00000000
00000000
00000000
00000000
00000000
00000000
00000000
00000000
00000000
00000000
00000000
00000000
00000000
00000000
00000000
00000000
00000000
00000000
00000000
00000000
00000000
00000000
00000000
00000000
00000000
00000000
00000000
00000000
00000000
00000000
00000000
00000000
00000000
00000000
00000000
00000000
00000000
00000000
00000000
00000000
00000000
00000000
00000000
00000000
00000000
00000000
00000000
00000000
00000000
00000000
00000000
00000000
00000000
00000000
00000000
00000000
00000000
00000000
00000000
00000000
00000000
00000000
00000000
00000000
00000000
00000000
00000000
00000000
00000000
00000000
00000000
00000000
00000000
00000000
00000000
00000000
00000000
00000000
00000000
00000000
00000000
00000000
00000000
00000000
00000000
00000000
00000000
00000000
00000000
00000000
00000000
00000000
00000000
00000000
03000000
,
00010000
01000000
00100000
01000000
,
10000000
00100000
01000000
00001000
,
00020000
00001000
00030020
00001000
,
00020030
00001000
00031000
00000000
,
00000100
00000100
00000010
00000010
,
00001000
00000100
00010000
00001000
,
00100000
00010000
01000000
00100000
,
10000000
01000000
01000000
00000000
,
10000000
00010000
10010000
10010000
,
00100000
00001000
00101000
00101000
,
00010000
00000100
00010100
00010100
,
00000010
00000001
00000011
00000011
,
00000100
00000001
00000010
00000110
,
00010000
00001000
01000000
01100000
,
00010000
00001000
00000100
00000110
,
00001000
00010000
00100000
01100000
,
01000000
00000000
00010000
00000000
10000000
01000000
00100000
00000000
,
01000000
00000000
00010000
00000000
00001000
00000000
00000100
00000001
,
00000100
00000000
00000010
00000000
00001000
00000100
00001000
00000000
,
00000100
00000000
00010000
00001000
00010000
00000000
00001000
00000000
,
00010000
00001000
00100000
01000000
,
10000000
00010000
10000000
00010000
20000000
00000000
30000000
00000000
,
00010000
00100000
00001000
01000000
,
00200000
00000000
00000000
00300000
,
01000000
11000000
00100000
00110000
,
01000000
00010000
00001000
00000000
,
00000200
00000001
00000320
00001000
,
00000130
00000000
00000100
00000010
00000100
00000000
00001000
00000000
,
00010000
00001000
00100000
01000000
,
00100000
00000000
00010000
10000000
00020000
00000000
00030000
00000000
,
10000000
00000000
00100000
00000000
00010000
00000100
00001000
00000020
,
00000000
00000000
00000000
00000030
,
00000000
00000000
00000000
00000000
;

//---------------dance-double - ----------------
#NOTES:
     dance-double:
     :
     Hard:
     9:
     :
00000000
00000000
00000000
00000000
,
00000000
00000000
00000000
00000000
,
00000000
00000000
00000000
00000000
,
00000000
00000000
00000000
00000000
,
00000000
00000000
00000000
00000000
,
00000000
00000000
00000000
00000000
,
00000000
00000000
00000000
00000000
,
00000000
00000000
00000000
00000000
,
00000000
00000000
00000000
00000000
,
00000000
00000000
00000000
00000000
,
00010000
00101000
00010000
01100000
,
10000000
01000000
00100000
00010000
00000000
01000000
00010000
00000000
,
00100000
00010000
00002000
00000000
00003100
00000001
00000200
00000000
,
00020300
00032000
00003100
00000110
,
00000001
00000000
00000100
00000000
00001000
00000000
00010000
00001000
,
01000000
00100000
01000000
00100000
02000000
00000000
03100000
00000000
,
10000000
01000000
00010000
00000000
00001000
00000100
00000001
00000020
,
00000000
00000000
00000000
00000030
,
00000100
00000000
00001000
00000002
00000000
00000000
00000000
00000000
,
00000103
00000000
00000010
00020000
00000000
00000000
00000000
00000000
,
00031000
00000000
00000100
00000002
00000000
00000000
00000000
00000000
,
00000023
00002030
00023000
00230000
,
10300000
00000000
00010000
00200000
00000000
00000000
00000000
00000000
,
01300000
00000000
00010000
00002000
00000000
00000000
00000000
00000000
,
00013000
00000000
00000100
00000020
00000000
00000000
00000000
00000000
,
00000130
00000000
00000000
00000000
,
00000010
00000010
00000001
00000100
,
00000010
00000000
00001000
00000000
00000100
00010000
00001000
00000000
,
00020000
00000010
00032000
00000100
,
00013000
00000000
01000000
00100000
01000000
00000000
00000000
00000000
,
20000000
00000000
31000000
00100000
00020000
00000000
01030000
00100000
,
00020000
00000000
00031000
00100000
00020000
00000000
00031000
00000000
,
00000100
00000000
00000010
00002000
00000000
00000000
00013000
00000000
,
00001000
00000000
01000000
00020000
00000000
00000000
01030000
00000000
,
00100000
00100000
10000000
01000000
,
00100000
00000000
00010000
00000000
01000000
00001000
00010000
00000000
,
00002000
00100000
00023000
01000000
,
00031000
00000000
00000100
00000010
00000100
00000000
00000000
00000000
,
00000002
00001000
00000100
00000010
,
00002003
00000100
00000001
00000010
,
00023000
01000000
10000000
00100000
,
20030000
00010000
31000000
00000000
,
12000000
03010000
00012000
00003010
,
00000012
00000103
00000201
00001300
,
00021000
00130000
20100000
31000000
,
00100000
00001000
00010000
00001000
,
00000100
00000102
00000013
00000210
,
00010300
00012000
01003000
01200000
,
10300000
12000000
03100000
00120000
,
00031000
00001020
00000130
00000101
,
00001000
00000100
00000010
00000000
00000001
00000100
00000010
00000000
,
00001000
00000100
00000010
00000001
00000000
00000100
00001000
00000000
,
00010000
00001000
00200000
00000000
01300000
10000000
00020000
00000000
,
02030000
03200000
00310000
00011000
,
00001000
00000000
01000000
00000000
00010000
00000000
00100000
00001000
,
00010000
00001000
00010000
00001000
00020000
00000000
00030100
00000000
,
00000010
00000001
00001000
00000000
00000100
00010000
00001000
00200000
,
00000000
00000000
00000000
00300000
,
00010000
00101000
00010000
01100000
,
10000000
01000000
00100000
00010000
00000000
01000000
00010000
00000000
,
00100000
00010000
00002000
00000000
00003100
00000001
00000200
00000000
,
00020300
00032000
00003100
00000110
,
00000001
00000000
00000100
00000000
00001000
00000000
00010000
00001000
,
01000000
00100000
01000000
00100000
02000000
00000000
03100000
00000000
,
10000000
01000000
00010000
00000000
00001000
00010000
00000100
00000020
,
00000000
00000000
00000000
00000030
,
00000000
00000000
00000000
00000000
;

//---------------dance-double - ----------------
#NOTES:
     dance-double:
     :
     Challenge:
     14:
     :
00000000
00000000
00000000
00000000
,
00000000
00000000
00000000
00000000
,
00000000
00000000
00000000
00000000
,
00000000
00000000
00000000
00000000
,
00000000
00000000
00000000
00000000
,
00000000
00000000
00000000
00000000
,
00000000
00000000
00000000
00000000
,
00000000
00000000
00000000
00000000
,
00000000
00000000
00000000
00000000
,
00000000
00000000
00000000
00000000
,
00000010
00000000
00000100
00001000
00010000
00000000
00001000
00010000
00001000
00000000
01000000
00000000
00100000
00000000
10000000
00000000
,
10000000
00000000
01000000
00100000
01000000
00000000
00010000
00000000
00010000
00000000
00001000
00000000
00000100
00000000
00000010
00001000
,
00000010
00000000
00000100
00000000
00000001
00000000
00000010
00000100
00000010
00000000
00000001
00000000
00001000
00000000
00000100
00000000
,
00000100
00000000
00010000
00001000
00000100
00000000
00000001
00000000
00000100
00000000
00001000
00000000
00010000
00000000
00001000
00000000
,
00011000
00000000
00100000
00001000
00001000
00001000
00100000
01000000
,
00010000
00000000
00001000
01000000
00001000
01000000
00001000
01000000
00010000
00000000
00100000
00000000
10000000
00000000
00100000
00000000
,
00110000
00000000
01001000
00010000
00010000
00000010
00000100
00000100
,
00001020
00000000
00000000
00000000
00000130
00000000
00000021
00000000
00000000
00000000
00000100
00000000
00000030
00000100
00000000
00000000
,
00001200
00000000
00000310
00000201
00000000
00000010
00000300
00000000
,
00002100
00000000
00000000
00000000
00003001
00000000
00002010
00000000
00000000
00000000
00010000
00000000
00003000
00010000
00000000
00000000
,
00102000
00000000
00013000
01002000
00000000
00010000
00003000
00000000
,
01200000
00000000
00000000
00000000
00310000
00000000
01200000
00000000
00000000
00000000
10000000
00000000
00000000
10300000
00000000
00000000
,
02010000
00000000
03100000
12000000
00000000
03100000
00010000
10000000
,
21000000
00000000
30100000
20010000
00000000
31000000
00010000
00001000
,
00102000
00000000
00013000
00020100
00000000
00030010
00001000
00000100
,
00000001
00000000
00001000
00000000
,
00010000
00000000
00001000
00010000
00100000
00000000
10000000
00000000
00000000
00000000
10010000
00000000
00000000
00000000
01000000
00000000
,
00001000
00000000
00010000
00001000
00000010
00000000
00000001
00000000
00000000
00000000
00001001
00000000
00000001
00000000
00000100
00000000
,
00000001
00000000
00000000
00000001
00000010
00000000
00000100
00000000
00001000
00000000
00001000
00000000
00000001
00000000
00000100
00000000
,
00001000
00000000
00000000
00001000
00100000
00000000
00010000
00000000
01000000
00000000
00000000
00000000
10000000
00000000
00000000
00000000
,
00100000
00000000
01000000
00010000
00001000
00000000
00000100
00000000
00000000
00000000
00001001
00000000
00000000
00000000
00000010
00000000
,
00000100
00000000
00010000
00001000
00000100
00000000
00000010
00000000
00000000
00000000
00000110
00000000
00001000
00000000
00100000
00000000
,
01000000
00000000
00000000
01000000
10000000
00000000
00100000
00000000
01000000
00000000
01000000
00000000
00100000
00000000
00010000
00000000
,
00002000
00000000
00100000
00020000
00000000
00000000
00033000
00000000
,
00000010
00000000
00010000
00001000
00010000
00000000
00000100
00000000
00010000
00001000
00010000
00000000
00000010
00000000
00000000
00000000
,
00000100
00000000
00001000
00010000
00001000
00000000
01000000
00000000
00001000
00010000
00001000
00000000
00100000
00000000
00000000
00000000
,
01000000
00000000
00000000
01000000
00010000
00000000
00001000
00000000
00000000
00000010
00000100
00000000
00001000
00000001
00001000
00000000
,
00000010
00000000
00000000
00000010
00001000
00000000
00010000
00000000
00000000
10000000
01000000
00000000
00000000
10000000
00010000
10000000
,
01000000
01000000
00010000
00001000
00000100
00000100
00001000
00010000
,
00100000
00100000
10000000
01000000
00010000
00010000
00001000
00000010
,
00000001
00000001
00000100
00000010
00001000
00001000
00010000
00100000
,
01000000
01000000
00010000
00001000
00000100
00000100
00000010
00000000
,
00000011
00000101
00001100
00011000
,
00110000
10100000
11000000
01010000
,
00101000
00000000
00000000
00000000
00011000
00000000
00000000
00000000
00001100
00000000
00000010
00000001
00000010
00000000
00000000
00000000
,
00000101
00000000
00000000
00000000
00001001
00000000
00000100
00001000
00000100
00000000
00000000
00000000
00010100
00000000
00000000
00000000
,
00010010
00000000
00001000
00000100
00001000
00000000
00000000
00000000
00010100
00000000
00001000
00100000
00001000
00000000
00000000
00000000
,
01010000
00000000
00100000
10000000
00100000
00000000
00000000
00000000
11000000
00000000
00100000
01000000
00100000
00000000
00000000
00000000
,
01010000
00011000
00001010
00000101
,
00001001
00000000
00000010
00000100
00000010
00000000
00001000
00000000
00000100
00010000
00000100
00010000
00000100
00000000
00000000
00000000
,
00001000
00000000
00100000
00000000
00010000
00000000
00010000
00000000
01000000
00000000
10000000
00000000
00100000
00000000
01000000
00010000
,
01000000
00000000
00100000
00000000
00100000
00000000
01000000
00000000
00010000
00000000
00001000
00000000
00000010
00000000
00000100
00001000
,
00000100
00000000
00000010
00000000
00000001
00000000
00000100
00000000
00000100
00000000
00000010
00000000
00000001
00000000
00001000
00000010
,
00001000
00000100
00000010
00001000
00010000
00100000
01000000
00000000
,
00100000
10000000
01000000
01000000
00100000
00010000
00001000
00011000
,
00000000
00000000
00000010
00010000
00000010
00010000
00000010
00010000
00001000
00000000
00000000
00000000
00010100
00000000
00001000
00000000
,
00000010
00000000
00000000
00000000
01001000
00000000
00010000
00000000
00100000
00000000
00001000
00000000
00010000
00001000
00020000
00000000
,
00000000
00000000
00000000
00030000
,
00100000
00000000
01000000
00010000
00001000
00000000
00010000
00001000
00010000
00000000
00000100
00000000
00000010
00000000
00000001
00000000
,
00000001
00000000
00000100
00000010
00000100
00000000
00001000
00000000
00001000
00000000
00010000
00000000
01000000
00000000
00100000
00010000
,
00100000
00000000
01000000
00000000
10000000
00000000
00100000
01000000
00100000
00000000
10000000
00000000
00010000
00000000
01000000
00000000
,
01000000
00000000
00001000
00010000
01000000
00000000
10000000
00000000
01000000
00000000
00010000
00000000
00001000
00000000
00010000
00000000
,
00011000
00000000
00000010
00010000
00010000
00010000
00000010
00000100
,
00001000
00000000
00010000
00000100
00010000
00000100
00010000
00000100
00001000
00000000
00000010
00000000
00000001
00000000
00000010
00000000
,
00001010
00000000
00010100
00001000
00001000
00100000
01000000
01000000
,
00100000
00000000
00010000
00000000
10000000
00000000
00010000
00000000
00100000
00010000
00100000
00010000
01000000
00001000
00010000
00000000
,
00000000
00000000
00000000
00000000
;
