#TITLE:Straight Oath;
#ARTIST:矢鴇つかさ feat. 三澤秋;
#ARTISTTRANSLIT:Tsukasa Yatoki feat. Aki Misawa;
#BANNER:Straight Oath.png;
#BACKGROUND:Straight Oath-bg.png;
#CDTITLE:./CDTitles/DanceDanceRevolution 2013.png;
#MUSIC:Straight Oath.ogg;
#SAMPLESTART:67.088;
#SAMPLELENGTH:15;
#BPMS:0=182;
#STAGE:2;

//---------------dance-single - ----------------
#NOTES:
     dance-single:
     :
     Beginner:
     3:
     :
0000
0000
0000
0000
,
0000
0000
0000
0000
,
0000
0000
0000
0000
,
0000
0000
0000
0000
,
0000
0000
0000
0000
,
0000
0000
0000
0000
,
0001
0000
0000
0000
,
1000
0000
0000
0000
,
0010
0000
0000
0000
,
0100
0000
0000
0000
,
0000
1001
0000
0000
,
0001
0000
1000
0000
,
1000
0000
0001
0000
,
0001
0000
1000
0000
,
1000
0000
0010
0000
,
0000
0000
0100
0000
,
0100
0000
0010
0000
,
0000
0000
0100
0100
,
0100
0100
0100
0000
,
0000
0000
0001
0000
,
0000
0000
1000
0000
,
0000
0000
0100
0000
,
0000
0000
0010
0000
,
0000
0000
0001
0000
,
0000
0000
1000
0000
,
1000
0000
0001
0000
,
0001
0000
1000
0000
,
0000
0000
0001
0000
,
0000
0000
0010
0000
,
0000
0000
0100
0000
,
0000
0000
1000
0000
,
1000
0000
0001
0000
,
0001
0000
0010
0000
,
0000
0000
0000
0000
,
0100
0100
0100
0000
,
0000
0000
0000
0000
,
0001
0001
0001
0000
,
0000
0000
0000
0000
,
1000
1000
1000
0000
,
0000
0000
0000
0000
,
0010
0010
0010
0000
,
0000
0000
0000
0000
,
0000
0000
0100
0000
,
0100
0000
0001
0000
,
0001
0000
0010
0000
,
0010
0000
1000
0000
,
1000
0000
0100
0000
,
0100
0000
0100
0000
,
0100
0000
1001
0000
,
0000
0000
1001
0000
,
0000
0000
0000
0000
,
0000
0000
0010
0000
,
1000
0000
1000
0000
,
0000
0000
0010
0000
,
0001
0000
0001
0000
,
0000
0000
0100
0000
,
1000
0000
1000
0000
,
0000
0000
0100
0000
,
0001
0000
0001
0000
,
0000
0000
0010
0000
,
0010
0000
0100
0000
,
0000
0000
0100
0000
,
0100
0000
0010
0000
,
0000
0000
0001
0000
,
0001
0000
1000
0000
,
0000
0000
1001
0000
,
0000
0000
0000
0000
,
0000
0000
1000
0000
,
1000
0000
0001
0000
,
0001
0000
1000
0000
,
1000
0000
0001
0000
,
0001
0000
0100
0000
,
0000
0000
0010
0000
,
0010
0000
0100
0000
,
0000
0000
0010
0010
,
0010
0010
0000
0000
,
1001
0000
0000
0000
,
0000
0000
0000
0000
;

//---------------dance-single - ----------------
#NOTES:
     dance-single:
     :
     Easy:
     8:
     :
0000
0000
0000
0000
,
0000
0000
0000
0000
,
0000
0000
0000
0000
,
0000
0000
0000
0000
,
0000
0000
0000
0000
,
0000
0000
0000
0000
,
0010
1000
0001
0100
,
0010
0100
0001
0010
,
2002
0000
0000
0000
,
0000
0000
0000
0000
,
3003
0110
1000
0100
,
1000
0010
1000
0100
,
1000
1000
0001
0100
,
0001
0010
0001
0100
,
0001
0001
0010
0100
,
1000
0010
0100
0100
,
0010
0010
2002
0000
,
3003
0000
0010
0100
,
0010
0100
0010
0000
1001
0000
0000
0000
,
1000
0010
0100
0010
,
0100
0010
1000
0000
0000
0000
1000
0000
,
0001
0010
0100
0010
,
0100
0010
0001
0000
0000
0000
0100
0000
,
0010
0100
0001
0010
,
0100
1000
0010
0000
0100
0000
0100
0000
,
0010
0100
0010
0000
0010
0000
0010
0000
,
0100
0010
0100
0000
1001
0000
0000
0000
,
0001
0100
0010
0100
,
0010
0100
0001
0000
0000
0000
0001
0000
,
1000
0100
0010
0100
,
0010
0100
1000
0000
0000
0000
0010
0000
,
0100
0010
1000
0100
,
0010
0001
0100
0000
0010
0000
0010
0000
,
0100
0100
1001
0000
,
0110
0000
2000
0000
,
0000
0000
3200
0000
,
0000
0000
0320
0000
,
0000
0000
0032
0000
,
0000
0000
0203
0000
,
0000
0000
0320
0000
,
0000
0000
2030
0000
,
0000
0000
0002
0000
,
0000
3003
1001
0000
,
0010
0000
1000
0000
,
0001
0000
0110
0000
,
1000
0000
0001
0000
,
0100
0000
1001
0000
,
0110
0000
1001
0000
,
0110
0000
0001
1000
,
0100
0010
0001
0001
,
1000
2000
0000
0000
,
0001
0000
3001
0000
1000
0100
1000
0000
,
0010
0100
0010
0010
,
0100
0001
0100
0000
0010
0000
0100
0000
,
0001
1000
0200
0000
,
0010
0310
0001
0010
,
0100
1000
0010
0100
,
0001
0010
0100
0010
,
0100
0010
2002
3000
,
1000
0000
1003
0000
1000
0100
1000
0000
,
0010
0100
0010
0010
,
0100
0001
0100
0000
0010
0000
0100
0000
,
0001
1000
0200
0000
,
0010
0310
0001
0010
,
0100
1000
0010
0100
,
0001
0010
0100
2000
0000
0000
0000
0000
,
3000
0000
0110
1001
,
0110
1001
0001
0100
,
0001
0010
0001
0100
,
0001
0001
1000
0100
,
1000
0010
1000
0100
,
1000
1000
0010
0100
,
0001
0010
0100
0100
,
0010
0010
0001
0010
,
1000
0100
0001
0010
,
0100
0010
0000
0000
,
2002
0000
0000
0000
,
0000
0000
0000
0000
,
0000
0000
0000
0000
,
0000
0000
0000
0000
,
3003
0000
0000
0000
,
0000
0000
0000
0000
;

//---------------dance-single - ----------------
#NOTES:
     dance-single:
     :
     Medium:
     11:
     :
0000
0000
0000
0000
,
0000
0000
0000
0000
,
0000
0000
0000
0000
,
0000
0000
0000
0000
,
0000
0000
0000
0000
,
0000
0000
0000
0000
,
0010
0000
1000
0000
0001
0000
1000
0010
,
0100
0000
0001
0000
0010
0100
0010
0000
,
2002
0000
0000
0000
0000
0000
3003
0100
,
0000
1000
0010
0100
0000
0100
0010
0000
,
0000
1001
0100
0010
,
0100
0010
1000
0100
0010
0000
0001
0000
,
0100
0010
1000
0010
0100
0000
0010
0000
,
1000
0100
0010
0001
1000
0000
0010
0000
,
0100
0010
0100
0000
1001
0000
0000
0000
,
0001
0000
0010
0000
0001
0010
0001
0010
,
0001
0100
0010
1000
0100
0000
0010
0000
,
0001
0100
0010
1000
,
0010
0000
1001
0000
0010
0000
1000
0100
,
0010
0001
1000
0000
0001
0000
0001
0000
,
1000
0000
1000
0000
0110
0000
0001
0100
,
0010
1000
0001
0000
1000
0000
1000
0000
,
0001
0000
0001
0000
0110
0000
0010
0100
,
1000
0010
0100
0000
0010
0000
0010
0000
,
0100
0000
0100
0000
1100
0000
1000
0100
,
0000
1000
0100
0000
0101
0000
0001
0100
,
0000
0001
0100
0000
1001
0000
0010
0000
,
0001
0100
0010
1000
0001
0000
1000
0000
,
1000
0001
0001
0110
,
1000
0100
0010
0001
1000
0000
0001
0000
,
0001
0000
1000
0010
0100
0000
0110
0000
,
0010
0100
0001
0010
0100
0000
0010
0000
,
0010
0000
0100
0000
0100
1000
0010
0100
,
0000
0001
0010
0100
0000
0100
0010
0000
,
0020
0000
0130
2000
0000
0000
0000
0000
,
0000
0000
0000
0000
,
0010
0000
3100
0020
0000
0000
0000
0000
,
0000
0000
0000
0000
0000
0000
0000
0130
,
0010
0000
0002
0100
0000
0000
0010
0000
,
0000
1000
0000
0000
0010
0000
0000
0103
,
0000
0000
1001
2000
,
0000
0001
0000
0000
0100
0000
0000
3010
,
0000
0000
0110
0000
2000
0000
0010
0010
,
0000
0001
0001
0000
0100
0100
0000
0001
,
3001
0000
0110
0000
0002
0000
0010
0010
,
0000
1000
1000
0000
0100
0100
0000
1000
,
1003
0110
1010
0000
,
0101
0000
0011
0000
,
1100
0000
1010
0101
,
0011
0000
1100
0000
0001
1000
0001
0010
,
0100
1000
0002
0000
0000
0000
0003
0000
,
0000
0000
1001
0000
1000
0100
1000
0100
,
0010
0000
0001
0000
0100
0001
0100
0000
,
0010
0100
0010
0000
0100
0000
0001
0000
,
0010
0000
0100
0000
1000
0010
0100
0000
,
0001
0100
1000
0000
0100
0000
0001
0000
,
0010
0000
0100
0000
0010
0100
0010
0000
,
0001
0100
0010
0000
0001
0000
0010
0000
,
1000
0100
0001
0010
,
0100
0001
0100
0000
0001
0010
0001
0010
,
0100
0000
1000
0000
0010
1000
0010
0000
,
0100
0010
0100
0000
0010
0000
1000
0000
,
0100
0000
0010
0000
0001
0100
0010
0000
,
1000
0010
0001
0000
0010
0000
1000
0000
,
0100
0000
0010
0000
0100
0010
0100
0000
,
1000
0010
0100
0000
1000
0000
0100
0000
,
0001
0010
1010
0101
,
0011
1100
0010
0100
,
0010
0100
0001
0010
0100
0000
1000
0000
,
0010
0100
0001
0100
0010
0000
0100
0000
,
0001
0010
0100
1000
0001
0000
0100
0000
,
0010
0100
0010
0000
1001
0000
0000
0000
,
1000
0000
0100
0000
1000
0100
1000
0100
,
1000
0010
0100
0001
0010
0000
0100
0000
,
1000
0010
0100
0001
,
0100
1001
0000
0000
,
2002
0000
0000
0000
,
0000
0000
0000
0000
,
0000
0000
0000
0000
,
0000
0000
0000
0000
,
3003
0000
0000
0000
,
0000
0000
0000
0000
;

//---------------dance-single - ----------------
#NOTES:
     dance-single:
     :
     Hard:
     13:
     :
0000
0000
0000
0000
,
0000
0000
0000
0000
,
0000
0000
0000
0000
,
0000
0000
0000
0000
,
0000
0000
0000
0000
,
0000
0000
0000
0000
,
0020
0000
0000
0000
,
0230
0000
0000
0300
,
2002
0000
0000
0000
0000
0000
3003
0010
,
0000
0100
0010
1001
0000
0010
0100
0010
,
0000
0000
1001
0000
0010
0100
0001
1000
,
0100
0010
0001
0100
0010
0100
0001
1000
,
0010
0100
0101
0000
0100
0010
0100
0001
,
1000
0100
0010
0001
0100
0010
0101
0000
,
1000
0010
1100
0000
0100
0010
0001
0100
,
0010
1000
0100
0001
0100
0010
0001
0100
,
0010
1000
1100
0000
0010
0001
0100
0010
,
0100
0001
1000
0010
1000
0100
1000
0100
,
0110
0000
0000
0000
0001
1000
0001
1000
0100
0000
0000
0000
0010
0000
0001
0000
,
0001
1000
0100
0010
0001
0000
0010
0100
,
0100
0010
0001
1000
0010
0000
0100
0010
,
0010
1000
0010
0100
0001
0000
1000
0010
,
0100
0001
0100
0000
0010
0000
1000
0000
0100
0000
0000
0000
0010
0000
0001
0000
,
0100
1000
0100
0001
0010
0100
1000
0100
,
0110
0000
1100
0000
0010
0001
0010
0000
,
0100
1000
0001
0000
0100
0010
1000
0100
,
0010
0001
0101
0000
0100
0001
0001
0010
,
0100
1000
0010
0000
0100
0001
0001
0100
,
0010
1000
0100
0000
0010
0001
0001
1000
,
0100
0001
0100
1000
0001
0100
0010
1000
,
0100
0010
0100
0000
1000
0000
0100
0000
0010
0000
0000
0000
0001
0000
0100
0000
,
0000
0100
1000
0000
1000
0010
0000
0010
,
0001
1000
0110
0000
1001
0001
0100
1000
,
0100
0001
1000
0100
0000
0010
0100
0000
,
1100
0000
0001
1100
0000
0000
1000
0100
,
0001
0100
0001
0000
0100
1000
0010
0100
,
1010
0000
1000
0101
0000
0000
0001
0100
,
1000
0100
1000
0000
0100
0001
0010
0001
,
0101
0000
0010
0110
0000
0000
1000
0100
,
0000
0100
0001
0100
1000
0000
0100
2000
,
0000
0000
3000
0000
0110
0000
0001
0100
,
0000
0010
1000
0010
0001
0000
0010
0100
,
0110
0000
1000
0001
0101
0000
0001
0100
,
1000
0100
0001
0000
1000
0100
0010
0100
,
0110
0000
1000
0010
0101
0000
1000
0100
,
0001
0100
0010
0000
0001
0100
0010
1000
,
1100
0000
0001
0100
0220
0000
0030
0301
,
0021
0000
0000
0031
0102
0000
0000
1003
,
1200
0000
1300
0100
1000
0001
0001
1000
,
0010
0010
0100
0001
0001
0100
0010
1000
,
0000
0010
0202
0000
0000
0303
0000
1000
,
1000
1000
0001
0100
0010
1000
0100
0010
,
0001
0100
0001
0010
0001
1000
0100
0010
,
0010
0010
0001
0100
0010
1000
0100
0010
,
0001
0100
0010
0001
1000
0100
0001
0000
,
1100
0000
1001
0000
0001
0100
1000
0100
,
0001
0100
0010
0100
0010
1000
0100
0010
,
0001
1000
0100
1000
0001
0100
0010
0001
,
1000
0100
0001
0100
0010
0000
0000
0010
,
0010
0010
1000
0100
0001
0100
0010
0001
,
1000
0010
0100
0001
0100
0010
1000
0100
,
0100
0100
0010
0001
1000
0010
0100
0001
,
0100
1000
0100
0001
1000
0100
1000
0000
,
1001
0000
1010
0000
0001
0100
1000
0100
,
0010
1000
0100
0010
0001
0000
1100
0000
,
0001
0100
0010
0100
0001
1000
0010
0000
,
1000
0100
0001
0100
1000
0100
0010
0001
,
0101
0000
1001
0000
0010
0100
0010
0001
,
1000
0100
0010
0100
0001
0100
0010
0001
,
0100
1000
0100
0001
0100
1000
0100
0001
,
1000
0100
1000
0010
0100
0010
1000
0100
,
0010
0001
0100
0000
0001
0100
0010
0100
,
0001
0010
0100
0010
0001
1000
0100
0010
,
0001
0010
1000
0010
0001
0010
1000
0010
,
0001
1000
0100
0010
0001
0100
0010
0100
,
0001
0000
0000
0000
1000
0100
0010
0001
0000
0000
0000
0000
0000
0000
0000
0000
,
2002
0000
0000
0000
,
0000
0000
0000
0000
,
0000
0000
0000
0000
,
0000
0000
0000
0000
,
3003
0000
0000
0000
,
0000
0000
0000
0000
;

//---------------dance-single - ----------------
#NOTES:
     dance-single:
     :
     Challenge:
     15:
     :
0000
0000
0000
0000
,
0000
0000
0000
0000
,
0000
0000
0000
0000
,
0000
0000
0000
0000
,
0000
0000
0000
0000
,
0000
0000
0000
0000
,
2000
0000
0010
0000
0001
0000
0100
0100
,
3200
0000
0010
0000
0001
0000
1000
1300
,
0001
0000
0000
1000
0010
0100
0001
0010
,
0000
0000
0100
0000
1000
0000
0010
1000
0010
1000
0001
0100
0001
0100
0010
1000
,
0000
0000
0000
0000
1001
0000
0000
0000
0110
0000
0100
0000
0001
0010
0001
0000
,
0010
0001
0010
0001
0100
0010
0100
0010
1000
0000
0010
0000
0100
0000
0001
0000
,
1000
0010
0100
1000
0001
0010
0100
0010
,
1000
0000
0001
0000
0100
0000
0010
0000
0001
0000
1000
0000
0100
0000
0001
0100
,
0010
1000
0100
0010
0002
0000
1003
0100
,
1000
0000
0010
0000
0100
0000
0001
0000
0010
0001
0010
0001
0010
0001
0010
0001
,
1000
0100
1000
0100
1000
0100
1000
0010
0100
0000
0001
0000
0010
0000
0100
0000
,
1000
1000
0010
0100
0001
0010
0100
0010
,
0100
0001
0100
0010
1002
0003
1000
0100
,
1000
0010
0001
0010
1000
0001
0200
0000
,
0310
1000
0001
0100
0102
0000
0103
0001
,
0010
0000
1000
0000
0001
0000
0100
0000
0010
0000
1000
0000
0010
0000
0001
0100
,
0001
0100
0001
0000
0010
0000
0100
0000
2100
0000
0000
0000
3001
0000
0010
0000
,
0001
1000
0100
0001
0100
1000
1020
0000
,
0031
1000
0100
0001
0200
0000
0310
1020
,
0000
0130
0120
0000
0230
0000
0310
0210
,
0000
0301
0010
1000
0120
0000
1030
0010
,
0100
1000
0001
0010
0100
1000
1200
0000
,
1300
0010
0100
0001
0201
0000
0000
0301
,
0010
1000
0010
0001
1000
0100
0001
0100
,
0011
0001
0101
0100
0010
1000
0010
0001
,
1000
0100
0001
0010
1000
0001
0100
1000
,
0010
0100
0001
0010
0200
2300
3002
0203
,
0000
0320
2030
3002
0000
0023
0230
0000
,
1300
0100
1000
0001
0100
0001
0010
0001
2000
0000
0000
0000
0001
0000
0001
0000
,
0000
0010
0010
0000
0001
0001
0000
3010
,
0001
0010
1000
0100
0002
0000
1000
1000
,
0000
0100
0100
0000
1000
1000
0000
0103
,
2000
0000
3010
0200
0000
0000
0010
0010
,
0000
0001
0001
0000
1000
1000
0000
0001
,
0300
0000
0010
0000
0100
1000
0100
1000
0200
0000
0000
0000
1000
0000
1000
0000
,
0000
0010
0010
0000
0001
0001
0000
1000
,
2300
0000
3001
0100
0001
0000
0001
0010
,
0000
0010
0100
0000
0100
1000
0000
1000
,
0100
1000
0010
1000
1010
0000
1000
0010
,
0000
0010
0100
0000
0100
0001
0000
0001
,
0100
0001
0010
0001
0101
0000
1000
0100
,
0110
0000
0001
0100
0110
0000
1000
0100
,
0110
0000
0001
0100
0110
0010
1000
1010
,
0100
0001
0101
0010
0100
0110
1000
0010
,
0100
0001
0100
0000
0010
1000
0010
0000
0000
0000
0000
0000
0000
0000
0000
0000
,
0000
0000
0000
0000
1001
0000
0000
0000
0100
0000
1000
0000
0010
0000
0100
0001
,
0100
0001
0010
0000
0100
0000
1000
0000
0010
0000
0100
0000
0001
0000
0010
0000
,
0100
1000
0100
1000
0010
0000
0100
0000
0010
0000
0001
0000
0010
0000
1000
0000
,
0100
0000
0001
0000
0100
0000
1000
0000
0010
0000
0100
0000
0001
0100
0010
1000
,
0010
1000
0100
0010
0001
0010
0100
0000
1000
0000
0010
0000
0100
0000
0001
0000
,
0010
1000
0010
0001
0010
0100
1000
0010
,
0100
0001
0010
0100
2000
0000
3001
0200
,
0000
0310
0000
1001
0000
0000
0000
1000
,
1000
0000
1000
0000
0010
0000
0100
0000
0010
0000
1000
0000
0010
0000
0100
0001
,
0100
0001
0010
0000
0100
0000
1000
0000
0010
0000
0100
0000
0001
0000
0010
0000
,
0100
1000
0100
1000
0010
0000
0100
0000
0010
0000
0001
0000
0010
0000
1000
0000
,
0100
0000
0001
0000
0100
0000
1000
0000
0010
0000
0100
0000
0001
0100
0010
1000
,
0010
1000
0100
0010
0001
0010
0100
0000
1000
0000
0010
0000
0100
0000
0001
0000
,
0010
1000
0010
0001
0010
0100
1000
0010
,
0100
0001
0010
0100
2000
0000
3001
0200
,
0000
0000
0300
0110
0000
0100
1100
0000
,
0101
0000
0000
0000
0011
0000
0000
0000
0110
0000
0010
0000
1000
0100
1000
0000
,
0100
1000
0100
1000
0010
0100
0010
0100
0001
0000
0100
0000
0010
0000
1000
0000
,
0001
0100
0010
0001
1000
0100
0010
0100
,
0001
0000
1000
0000
0010
0000
0100
0000
1000
0000
0001
0000
0010
0000
1000
0010
,
0100
0001
0010
0100
2000
0000
3001
0010
,
0001
0000
0100
0000
0010
0000
1000
0000
0100
1000
0100
1000
0100
1000
0100
1000
,
0001
0010
0001
0010
0001
0010
0001
0100
0010
0000
1000
0000
0100
0000
0010
0000
,
0001
0010
1000
0010
0001
0100
1000
0100
,
0001
0010
0100
2000
0000
0000
3000
0000
,
0110
0000
0000
0000
0000
0000
0000
0000
2000
0000
0000
3020
0000
0000
0032
0000
,
0203
0000
0000
2300
0000
0000
3020
0000
0032
0000
0000
0203
0000
0000
2300
0000
,
0002
0000
0000
0000
,
0000
0000
0000
0000
,
3003
0000
0000
0000
,
0000
0000
0000
0000
;

//---------------dance-double - ----------------
#NOTES:
     dance-double:
     :
     Easy:
     8:
     :
00000000
00000000
00000000
00000000
,
00000000
00000000
00000000
00000000
,
00000000
00000000
00000000
00000000
,
00000000
00000000
00000000
00000000
,
00000000
00000000
00000000
00000000
,
00000000
00000000
00000000
00000000
,
00000001
00000010
00000100
00001000
,
00010000
00100000
01000000
10000000
,
20020000
00000000
00000000
00000000
,
00000000
00000000
00000000
00000000
,
30030000
01100000
00100000
01000000
,
00010000
00001000
00010000
00100000
,
00001000
00010000
00000100
00000010
,
00000001
00000100
00000010
00001000
,
00000100
00000100
00010000
00001000
,
00100000
01000000
00010000
00010000
,
10000000
10000000
02200000
00000000
,
03300000
00000000
00001000
00010000
,
00001000
00010000
00001000
00000000
00011000
00000000
00000000
00000000
,
00001000
00000100
00000001
00000010
,
00000100
00000010
00000001
00000000
00000000
00000000
00000001
00000000
,
00000100
00001000
00010000
01000000
,
00100000
00010000
01000000
00000000
00000000
00000000
00010000
00000000
,
00100000
01000000
10000000
00100000
,
01000000
00010000
00100000
00000000
00001000
00000000
00010000
00000000
,
00001000
00010000
00000100
00000000
00010000
00000000
00001000
00000000
,
00010000
00001000
00010000
00000000
00011000
00000000
00010000
00000000
,
01000000
00000000
10000000
00000000
00100000
00000000
01000000
00100000
,
10000000
00000000
10000000
01000000
,
00010000
00000000
00001000
00000000
00000100
00000000
00000010
00001000
,
00000100
00000000
00001000
00000010
,
00000100
00000001
00000010
00000100
,
00001000
00000000
00000100
00010000
00001000
00000000
00010000
00001000
,
00000000
00000000
00001000
00010000
00000000
00001000
00000100
00000000
,
00000010
00000000
00000100
00000010
00002000
00000000
00000000
00000000
,
00000000
00000000
00003200
00000000
,
00000000
00000000
00020300
00000000
,
00000000
00000000
00032000
00000000
,
00000000
00000000
00203000
00000000
,
00000000
00000000
00320000
00000000
,
00000000
00000000
00032000
00000000
,
00000000
00000000
00003200
00000000
,
00000000
00000300
00001001
00000000
,
00000010
00000000
00000001
00000000
,
00001000
00000000
00011000
00000000
,
00100000
00000000
10000000
00000000
,
00010000
00000000
00011000
00000000
,
00001001
00000000
00000110
00000000
,
00011000
00000000
00001000
00000100
,
00000001
00000010
00001000
00010000
,
00001000
00020000
00000000
00000000
,
00001000
00000000
00031000
00000000
00010000
01000000
00100000
00000000
,
00100000
00010000
01000000
00100000
,
01000000
00010000
01000000
00000000
00100000
00000000
00010000
00000000
,
00000100
00000010
00000200
00000000
,
00000010
00000310
00001000
00010000
,
00100000
10000000
00100000
00010000
,
00100000
00001000
00000100
00000010
,
00000100
00001000
00022000
00030000
,
00010000
00000000
00013000
00000000
00001000
00000100
00000010
00000000
,
00000010
00001000
00000100
00000010
,
00000100
00001000
00000100
00000000
00000010
00000000
00010000
00000000
,
01000000
00100000
02000000
00000000
,
00100000
03100000
00010000
00001000
,
00000010
00000001
00000010
00001000
,
00000010
00010000
00002000
00000000
,
00003000
00000000
00001000
00000010
,
00000110
00001001
00000010
00000100
,
00001000
00010000
00001000
00000010
,
00010000
00001000
01000000
00100000
,
10000000
01000000
00100000
00010000
,
01000000
01000000
00001000
00010000
,
00000010
00000100
00001000
00001000
,
00000001
00000001
00000220
00000000
,
00000330
00000000
00010000
00001000
,
00010000
00001000
00010000
00000000
00000000
00000000
00000000
00000000
,
00022000
00000000
00000000
00000000
,
00000000
00000000
00000000
00000000
,
00000000
00000000
00000000
00000000
,
00000000
00000000
00000000
00000000
,
00033000
00000000
00000000
00000000
,
00000000
00000000
00000000
00000000
;

//---------------dance-double - ----------------
#NOTES:
     dance-double:
     :
     Medium:
     11:
     :
00000000
00000000
00000000
00000000
,
00000000
00000000
00000000
00000000
,
00000000
00000000
00000000
00000000
,
00000000
00000000
00000000
00000000
,
00000000
00000000
00000000
00000000
,
00000000
00000000
00000000
00000000
,
00000001
00000000
00000100
00000000
00000010
00000000
00001000
00000100
,
00010000
00000000
00001000
00000000
00010000
01000000
00100000
00000000
,
20020000
00000000
00000000
00000000
00000000
30030000
00000000
01000000
,
00000000
00001000
00100000
00010000
00000000
00001000
00010000
00000000
,
00000000
00001100
00000010
00000001
,
00000100
00000010
00001000
00000100
00010000
00000000
00001000
00000000
,
01000000
00100000
10000000
00100000
01000000
00000000
00100000
00000000
,
10000000
01000000
00100000
00010000
00001000
00000000
00000100
00000000
,
00000010
00000001
00000100
00000000
00001001
00000000
00000000
00000000
,
00000010
00000000
00000100
00000000
00000010
00000100
00000010
00001000
,
00000100
00010000
01000000
10000000
01000000
00000000
00100000
00000000
,
00010000
00001000
00010000
00100000
,
00001000
00000000
00010000
00000000
00011000
00000000
00001000
00000100
,
00000001
00000010
00000100
00000000
00000010
00000000
00000100
00000000
,
00001000
00000000
00000001
00000000
00000110
00000000
00000010
00000100
,
00001000
00010000
00100000
00000000
10000000
00000000
00100000
00000000
,
01000000
00000000
00010000
00000000
01100000
00000000
01000000
10000000
,
00100000
00010000
00100000
00000000
00100000
00000000
00010000
00000000
,
00001000
00000000
00000100
00000000
00000110
00000000
00000001
00000010
,
00000000
00000100
00001000
00000000
00000110
00000000
00001000
00000010
,
00000000
00000100
00000001
00000000
00001001
00000000
00000010
00000000
,
00000001
00000100
00001000
00010000
00000100
00000000
00001000
00000000
,
00000100
00010000
01000000
01100000
,
10000000
01000000
00010000
00001000
01000000
00000000
00010000
00000000
,
01000000
00000000
00001000
00010000
00001000
00000000
00011000
00000000
,
00001000
00000100
00000001
00000010
00000100
00000000
00000010
00000000
,
00000100
00000000
00001000
00000000
00000100
00010000
00001000
00100000
,
00000000
00001000
00010000
00000100
00000000
00010000
00001000
00000000
,
00200000
00000000
01300000
20000000
00000000
00000000
00000000
00000000
,
00000000
00000000
00000000
00000000
,
00100000
00000000
31000000
00020000
00000000
00000000
00000000
00000000
,
00000000
00000000
00000000
00000000
00000000
00000000
00000000
00031000
,
00010000
00000000
00020000
00001000
00000000
00000000
00000100
00000000
,
00000000
00000010
00000000
00000000
00001000
00000000
00000000
00030010
,
00000000
00000000
00011000
00002000
,
00000000
00010000
00000000
00000000
01000000
00000000
00000000
00103000
,
00000000
00000000
00011000
00000000
00200000
00000000
10000000
10000000
,
00000000
00010000
00010000
00000000
01000000
01000000
00000000
00010000
,
00310000
00000000
00011000
00000000
00000020
00000000
00001000
00001000
,
00000000
00000001
00000001
00000000
00000100
00000100
00000000
00001000
,
00001030
00011000
00110000
00000000
,
01010000
00000000
00001010
00000000
,
00001100
00000000
00110000
00011000
,
00001010
00000000
00001001
00000000
00000001
00000100
00001000
00010000
,
01000000
10000000
00020000
00000000
00000000
00000000
00030000
00000000
,
00000000
00000000
10010000
00000000
10000000
01000000
00010000
00001000
,
00100000
00000000
00001000
00000000
00000100
00000001
00000010
00000000
,
00000100
00000010
00000100
00000000
00000010
00000000
00000001
00000000
,
00000100
00000000
00001000
00000000
00000100
00001000
00010000
00000000
,
00001000
00010000
00100000
00000000
01000000
00000000
00010000
00000000
,
00100000
00000000
10000000
00000000
00100000
01000000
00100000
00000000
,
01000000
10000000
00100000
00000000
10000000
00000000
01000000
00000000
,
00010000
00000000
00100000
00000000
00001000
00010000
00000100
00000000
,
00001000
00000100
00000010
00000000
00000001
00000100
00001000
00010000
,
00000010
00000000
00010000
00000000
01000000
10000000
00100000
00000000
,
01000000
00100000
01000000
00000000
00100000
00000000
10000000
00000000
,
01000000
00000000
00010000
00000000
01000000
00010000
00001000
00000000
,
00010000
00001000
00000010
00000000
00000100
00000000
00001000
00000000
,
00000010
00000000
00000001
00000000
00000010
00000100
00000010
00000000
,
00000100
00000001
00000010
00000000
00000001
00000000
00000100
00000000
,
00001000
00000000
00000010
00000000
00010000
00001000
01000000
00000000
,
00010000
01000000
00100000
00000000
00100000
00000000
10000000
00000000
,
01000000
00100000
00010000
01000000
00001000
00000000
00010000
00000000
,
00000100
00000010
00000001
00000010
00000100
00000000
00000010
00000000
,
00000001
00000100
00000010
00001000
00010000
00000000
01000000
00000000
,
00100000
10000000
01000000
00000000
10010000
00000000
00000000
00000000
,
00100000
00000000
01000000
00000000
00100000
01000000
00100000
00010000
,
01000000
00001000
00000100
00000001
00000100
00000000
00000010
00000000
,
00001000
00010000
00001000
00000010
,
00010000
00001000
00000000
00000000
,
00022000
00000000
00000000
00000000
,
00000000
00000000
00000000
00000000
,
00000000
00000000
00000000
00000000
,
00000000
00000000
00000000
00000000
,
00033000
00000000
00000000
00000000
,
00000000
00000000
00000000
00000000
;

//---------------dance-double - ----------------
#NOTES:
     dance-double:
     :
     Hard:
     14:
     :
00000000
00000000
00000000
00000000
,
00000000
00000000
00000000
00000000
,
00000000
00000000
00000000
00000000
,
00000000
00000000
00000000
00000000
,
00000000
00000000
00000000
00000000
,
00000000
00000000
00000000
00000000
,
00000002
00000000
00000000
00000000
,
00002003
00000000
00000000
00003000
,
00000220
00000000
00000000
00000000
00000000
00000000
00000330
00010000
,
00000000
00001000
00100000
02000000
00000000
03100000
01000000
10010000
,
00000000
00000000
01100000
00000000
00100000
10000000
01000000
00010000
,
00001000
00000000
00000100
00000000
00000010
00000000
00001000
00000000
00000001
00000000
00000000
00000001
00000010
00000000
00000000
00000010
,
00000100
00000000
00000000
00000100
00001000
00000000
00000000
00000000
00000010
00000000
00001000
00000000
00000100
00000000
00000010
00000000
,
00000001
00000100
00000010
00001000
00000100
00000001
00000100
00001000
,
00000010
00000100
00000001
00000010
00000110
00000000
00000001
00000100
,
00001000
00000100
00001000
00010000
00100000
10000000
01000000
00010000
,
00001000
00000100
00000001
00000010
00000001
00000100
00000010
00001000
,
00000100
00000010
00000001
00000100
00000010
00001000
00000001
00000010
,
00000100
00000000
00001000
00000000
00000100
00001000
00000100
00001000
00000100
00000000
00000000
00000000
00000010
00000000
00000010
00000000
,
00000100
00000010
00000001
00000100
00001000
00000000
00000100
00010000
,
00010000
00001000
00010000
01000000
00100000
00000000
10000000
10000000
,
01000000
00100000
00010000
00100000
00001000
00000000
00010000
00010000
,
00001000
00010000
00001000
00000000
00000010
00000000
00000001
00000000
00000100
00000000
00000000
00000000
00000001
00000000
00000001
00000000
,
00000100
00000010
00001000
00000100
00000010
00000001
00001000
00000000
,
00000010
00001000
00000100
00000000
00001000
00000100
00010000
00000000
,
00001000
00010000
00100000
00000000
01000000
00010000
00100000
00000000
,
01000000
10000000
00100000
00010000
00110000
00000000
00100000
00100000
,
01000000
00100000
10000000
01000000
00010000
00000000
01000000
00001000
,
00001000
00010000
00001000
00000100
00000010
00000000
00000001
00000001
,
00000100
00000010
00001000
00000010
00010000
00000000
00001000
00001000
,
00010000
00001000
00010000
00000000
00100000
00000000
10000000
00000000
01000000
00000000
00000000
00000000
10000000
00000000
10000000
00000000
,
01000000
00100000
00010000
01000000
00100000
10000000
00010000
00000000
,
00100000
00010000
01000000
00000000
00010000
01000000
00001000
00010000
,
00000000
00001000
00000010
00000001
00000000
00001000
00000110
00000000
,
00000100
00000001
00000010
00000100
00000110
00000000
00000010
00000001
,
00000010
00000100
00001000
00000000
00000010
00000100
00001000
00010000
,
00100000
00000000
01000000
01100000
00000000
00000000
00100000
10000000
,
00100000
01000000
00010000
00000000
00100000
00010000
00001000
00000100
,
00000010
00000000
00000100
00000110
00000000
00000000
00000100
00001000
,
00000000
00010000
00001000
00010000
00100000
00000000
00010000
00200000
,
00000000
00000000
00000000
00300000
01100000
00000000
01000000
00010000
,
00000000
00001000
00010000
00001000
00000010
00000000
00000100
00000010
,
00000110
00000000
00000010
00000100
00000110
00000000
00000001
00000100
,
00001000
00010000
01000000
00000000
00100000
00010000
01000000
00100000
,
01100000
00000000
10000000
00010000
10010000
00000000
10000000
01000000
,
00010000
00001000
00000100
00000000
00000010
00000100
00000110
00000000
,
00001000
00000001
00001001
00000000
00001001
00000000
00000000
00000100
,
00001100
00000000
00000000
00010000
00011000
00000000
00000000
10000000
,
10010000
00000000
10000000
01000000
00010000
00001000
00001000
00000100
,
00000001
00000001
00000010
00000100
00000100
00001000
00000100
00001000
,
00000000
00010000
00022000
00000000
00000000
00000000
00033000
00010000
,
00010000
00010000
00001000
00010000
00001000
00000100
00000010
00001000
,
00000010
00000001
00000010
00001000
00000001
00000100
00001000
00000100
,
00000100
00000100
00001000
01000000
00010000
00100000
10000000
00010000
,
01000000
10000000
00100000
01000000
00100000
00010000
00001000
00000000
,
00011000
00000000
00001100
00000000
00000010
00001000
00000001
00000100
,
00001000
00010000
00100000
10000000
01000000
00100000
00010000
00100000
,
10000000
00100000
00010000
00001000
00000100
00000001
00000100
00001000
,
00000010
00000100
00001000
00010000
00001000
00000000
00000000
00001000
,
00001000
00001000
00010000
00001000
00010000
01000000
00100000
00010000
,
00100000
10000000
00100000
00010000
10000000
01000000
00010000
01000000
,
01000000
01000000
00010000
00000100
00001000
00000010
00000001
00001000
,
00000100
00000001
00000010
00000100
00000010
00001000
00010000
00000000
,
00011000
00000000
01010000
00000000
00100000
00010000
10000000
01000000
,
00010000
00001000
00000010
00000001
00000100
00000010
00001000
00000010
,
00000001
00000010
00001000
00010000
01000000
10000000
01000000
00010000
,
00100000
01000000
00010000
00002000
00000000
00013000
00001000
00000000
,
00001100
00000000
00000101
00000000
00000010
00000001
00000100
00001000
,
00010000
00000000
01000000
00000000
00100000
00000000
00010000
00000000
10000000
00000000
00000000
10000000
00100000
00000000
00000000
00100000
,
01000000
00000000
00000000
01000000
00010000
00000000
00000000
00000000
00100000
00000000
00010000
00000000
01000000
00000000
00100000
00000000
,
10000000
01000000
00100000
00010000
01000000
10000000
01000000
00010000
,
00100000
01000000
10000000
00100000
01100000
00000000
10000000
01000000
,
00010000
01000000
00010000
00001000
00000010
00000001
00000100
00001000
,
00010000
01000000
10000000
00100000
10000000
01000000
00100000
00010000
,
01000000
00100000
10000000
01000000
00100000
00010000
10000000
00100000
,
01000000
00000000
00010000
00000000
10000000
01000000
00010000
00001000
00000000
00000000
00000000
00000000
00000000
00000000
00000000
00000000
,
00022000
00000000
00000000
00000000
,
00000000
00000000
00000000
00000000
,
00000000
00000000
00000000
00000000
,
00000000
00000000
00000000
00000000
,
00033000
00000000
00000000
00000000
,
00000000
00000000
00000000
00000000
;

//---------------dance-double - ----------------
#NOTES:
     dance-double:
     :
     Challenge:
     16:
     :
00000000
00000000
00000000
00000000
,
00000000
00000000
00000000
00000000
,
00000000
00000000
00000000
00000000
,
00000000
00000000
00000000
00000000
,
00000000
00000000
00000000
00000000
,
00000000
00000000
00000000
00000000
,
00001000
00000000
00000010
00000000
00001000
00000100
00000010
00000100
,
00001000
00000000
00000100
00000000
00100000
00001000
00000100
00001000
,
00010000
00000000
00000000
00001000
01000000
10000000
01000000
00100000
,
00000000
00000000
01000000
00000000
00010000
00000000
00100000
00001000
00100000
00001000
00010000
00001000
00010000
00001000
00000100
00000010
,
00000000
00000000
00000000
00000000
00000110
00000000
00000000
00000000
00000010
00000000
00000100
00000000
00000001
00000010
00000001
00000000
,
00000001
00000010
00000001
00000010
00000001
00000100
00000001
00000100
00000010
00000000
00000000
00000010
00001000
00000000
00000000
00000100
,
00010000
00000000
00000000
00010000
01000000
00000000
10000000
00000000
00010000
00000000
00100000
00000000
01000000
00000000
00100000
00000000
,
10000000
00000000
00010000
00000000
01000000
00000000
00100000
00000000
00010000
00000000
00001000
00000000
00000100
00000000
00000001
00000100
,
00000010
00000001
00000100
00000010
00000110
00000000
00000001
00000100
,
00000010
00000000
00001000
00000000
00000100
00000000
00010000
00000000
00001000
00010000
00001000
00010000
00001000
00010000
00001000
00100000
,
00010000
00100000
00010000
00100000
00010000
00100000
01000000
00000000
10000000
00000000
00010000
00000000
00100000
00000000
01000000
00000000
,
10000000
00100000
00010000
00001000
00000010
00000001
00000100
00000010
,
00001000
00000100
00000010
00000001
00001001
00000000
00000001
00000010
,
00001000
00000010
00000001
00000100
00000010
00001000
00000200
00000000
,
00001300
00000010
00001000
00000100
00010100
00000000
00010000
00100000
,
10000000
00000000
00100000
00000000
01000000
00000000
00100000
00000000
10000000
00000000
01000000
00000000
00100000
00000000
00010000
01000000
,
00010000
01000000
00010000
00000000
00100000
00000000
01000000
00000000
01100000
00000000
00000000
00000000
00100000
00000000
00001000
00000000
,
00010000
00001000
00000100
00000010
00001000
00000001
00000101
00000000
,
00001010
00000000
00000101
00000000
00000001
00000010
00001000
00000020
,
00000000
00000000
00000130
00000010
00000100
00000000
00000000
00000000
00000001
00000000
00000100
00000000
00001000
00000000
00000200
00000000
,
00000000
00000000
00000310
00000100
00000010
00000000
00000001
00000000
00001001
00000000
00000000
00000000
00000001
00000000
00000100
00000000
,
00000010
00001000
00000100
00010000
00100000
10000000
11000000
00000000
,
10100000
00100000
01000000
00010000
01010000
00000000
10000000
01000000
,
00100000
00010000
01000000
00001000
00000010
00000001
00000101
00000000
,
00001010
00000000
00000101
00000000
00000010
00000100
00000010
00001000
,
00000100
00010000
00000100
00010000
01000000
00010000
01000000
10000000
,
00100000
00010000
00001000
00100000
02000000
03200000
00320000
00032000
,
00000000
00003200
00002300
00003020
00000000
00000130
00000200
00000000
,
00000301
00000100
00000001
00000100
00000010
00001000
00000100
00010000
00002000
00000000
00000000
00000000
00010000
00000000
00010000
00000000
,
00000000
00100000
00100000
00000000
01000000
01000000
00000000
00103000
,
10000000
00010000
01000000
10000000
00020000
00000000
01000000
01000000
,
00000000
00000100
00000100
00000000
01000000
01000000
00000000
01030000
,
00010000
00100000
00001000
00000100
00000020
00000000
00001000
00001000
,
00000000
00000100
00000100
00000000
00010000
00010030
00000000
00000100
,
00001000
00000000
00000010
00000000
00000100
00000001
00000100
00000001
00000200
00000000
00000000
00000000
00000010
00000000
00000010
00000000
,
00000000
00000001
00000001
00000000
00010000
00010000
00000000
00000310
,
00001000
00000010
00001000
00000100
00001100
00000000
00000010
00001000
,
00000000
00000100
00000001
00000000
00001000
00000010
00000000
00000010
,
00001000
00010000
00001000
00000010
00000100
00000000
00000100
00001000
,
00000000
00000010
00010000
00000000
00001000
00100000
00000000
00001000
,
00000100
00001000
00100000
00010000
01000000
00000000
10000000
01000000
,
01100000
00000000
00010000
00100000
00101000
00000000
00000100
00010000
,
00010100
00000000
00000010
00000001
00000011
00000100
00000010
00001010
,
00000100
00010000
00010100
00100000
01000000
01100000
10000000
00100000
,
01000000
00010000
01000000
00000000
00100000
10000000
00100000
00000000
00000000
00000000
00000000
00000000
00000000
00000000
00000000
00000000
,
00000000
00000000
00000000
00000000
00011000
00000000
00000000
00000000
00001000
00000000
00000010
00000000
00000001
00000000
00000100
00000001
,
00000100
00000001
00000010
00000000
00000100
00000000
00001000
00000000
00000010
00000000
00000001
00000000
00000010
00000000
00001000
00000000
,
00000100
00001000
00000100
00001000
00000010
00000000
00000001
00000000
00000010
00000000
00001000
00000000
00010000
00000000
00100000
00000000
,
10000000
00000000
00010000
00000000
01000000
00000000
10000000
00000000
00100000
00000000
01000000
00000000
00010000
01000000
00100000
10000000
,
00100000
10000000
01000000
00100000
00010000
00100000
00001000
00000000
00100000
00000000
00001000
00000000
00000100
00000000
00000001
00000000
,
00000010
00000100
00001000
00010000
00001000
00000010
00000001
00000010
,
00001000
00010000
01000000
10000000
02000000
00000000
03010000
00200000
,
00000000
01300000
00000000
10010000
00000000
00000000
00000000
00001000
,
00001000
00000000
00001000
00000000
00010000
00000000
00001000
00000000
00010000
00000000
00100000
00000000
10000000
00000000
01000000
10000000
,
01000000
10000000
00100000
00000000
01000000
00000000
00010000
00000000
00100000
00000000
10000000
00000000
00100000
00000000
00010000
00000000
,
01000000
00010000
01000000
00010000
00100000
00000000
10000000
00000000
00100000
00000000
00010000
00000000
00001000
00000000
00000010
00000000
,
00000001
00000000
00001000
00000000
00000100
00000000
00000001
00000000
00000010
00000000
00000100
00000000
00001000
00000100
00000010
00000001
,
00000010
00000001
00000100
00000010
00001000
00000010
00010000
00000000
00000010
00000000
00010000
00000000
01000000
00000000
10000000
00000000
,
00100000
01000000
00010000
00001000
00010000
00100000
10000000
00100000
,
00010000
00001000
00000100
00000001
00000200
00000000
00001300
00000020
,
00000000
00000130
00000000
00001001
00000000
00000100
00001100
00000000
,
00010100
00000000
00000000
00000000
00101000
00000000
00000000
00000000
00100000
00000000
01000000
00000000
10000000
00100000
10000000
00000000
,
10000000
00100000
10000000
00100000
10000000
01000000
10000000
01000000
00100000
00000000
00000000
00100000
00010000
00000000
00000000
01000000
,
00001000
00000000
00000000
00001000
00000100
00000000
00000001
00000000
00001000
00000000
00000010
00000000
00000100
00000000
00000010
00000000
,
00000001
00000000
00001000
00000000
00000100
00000000
00000010
00000000
00001000
00000000
00010000
00000000
01000000
00000000
10000000
01000000
,
00100000
10000000
01000000
00100000
01100000
00000000
10000000
01000000
,
00100000
00000000
00010000
00000000
01000000
00000000
00001000
00000000
00010000
00001000
00010000
00001000
00010000
00001000
00010000
00000010
,
00001000
00000010
00001000
00000010
00001000
00000010
00000100
00000000
00000001
00000000
00001000
00000000
00000010
00000000
00000100
00000000
,
00000001
00000010
00001000
00010000
00100000
10000000
01000000
00100000
,
00001000
00000010
00000100
00000002
00000000
00000000
00000003
00000000
,
00000110
00000000
00000000
00000000
00000000
00000000
00000000
00000000
00002000
00000000
00000000
00003020
00000000
00000000
00000032
00000000
,
00000203
00000000
00000000
00002300
00000000
00000000
00023000
00000000
02030000
00000000
00000000
23000000
00000000
00000000
30020000
00000000
,
20000000
00000000
00000000
00000000
,
00000000
00000000
00000000
00000000
,
30030000
00000000
00000000
00000000
,
00000000
00000000
00000000
00000000
;
