#TITLE:Starry HEAVEN;
#ARTIST:Royz;
#BANNER:Starry HEAVEN.png;
#BACKGROUND:Starry HEAVEN-bg.png;
#CDTITLE:./CDTitles/DanceDanceRevolution 2013.png;
#MUSIC:Starry HEAVEN.ogg;
#SAMPLESTART:73.73;
#SAMPLELENGTH:15;
#BPMS:0=190;

//---------------dance-single - ----------------
#NOTES:
     dance-single:
     :
     Beginner:
     2:
     :
0000
0000
0000
0000
,
0000
0000
0000
0000
,
0000
0000
0000
0000
,
0000
0000
0000
0000
,
0000
0000
0000
0000
,
0000
0000
0000
0000
,
0000
0000
0000
0000
,
0000
0000
0000
0000
,
0000
0000
0000
0000
,
0000
0000
0000
0000
,
0000
0000
0000
0000
,
0000
0000
0001
0000
,
0000
0000
0001
0000
,
0000
0000
1000
0000
,
1000
0000
1000
0000
,
0000
0000
0001
0000
,
0000
0000
0001
0000
,
0000
0000
1000
0000
,
1000
0000
1000
0000
,
0000
0000
0100
0000
,
0000
0000
0100
0000
,
0000
0000
1000
0000
,
1000
0000
1000
0000
,
0000
0000
0100
0000
,
0000
0000
0100
0000
,
0000
0000
0001
0000
,
0001
0000
0001
0000
,
0000
0000
0100
0000
,
0000
0000
0000
0000
,
0000
0000
0100
0000
,
0000
0000
0000
0000
,
0000
0000
0100
0000
,
0100
0000
0100
0000
,
0000
0000
0010
0000
,
0010
0000
0010
0000
,
0010
0000
0000
0000
,
0000
0000
0000
0000
,
1000
0000
0000
0000
,
0000
0000
0000
0000
,
0001
0000
0001
0000
,
0001
0000
0000
0000
,
1000
0000
0000
0000
,
0100
0000
0100
0000
,
0100
0000
0000
0000
,
0000
0000
0000
0000
,
0001
0000
0000
0000
,
0000
0000
0000
0000
,
1000
0000
1000
0000
,
1000
0000
0000
0000
,
0001
0000
0000
0000
,
0100
0000
0100
0000
,
0100
0000
0000
0000
,
0100
0000
0000
0000
,
0001
0000
0000
0000
,
0001
0000
0000
0000
,
1000
0000
0000
0000
,
1000
0000
0000
0000
,
1001
0000
0000
0000
,
0000
0000
0000
0000
,
0000
0000
0010
0000
,
0010
0000
0010
0000
,
0000
0000
1000
0000
,
1000
0000
1000
0000
,
0000
0000
0001
0000
,
0001
0000
0001
0000
,
0000
0000
0100
0000
,
0100
0000
0000
0000
,
0000
0000
0010
0000
,
0010
0000
0010
0000
,
0000
0000
0001
0000
,
0001
0000
0001
0000
,
0000
0000
1000
0000
,
1000
0000
1000
0000
,
0000
0000
0100
0000
,
0100
0000
0100
0000
,
0000
0000
0001
0000
,
0000
0000
1000
0000
,
1001
0000
0000
0000
,
0000
0000
0000
0000
;

//---------------dance-single - ----------------
#NOTES:
     dance-single:
     :
     Easy:
     5:
     :
0000
0000
0000
0000
,
0000
0000
0000
0000
,
0000
0000
0000
0000
,
0000
0000
0000
0000
,
0000
0000
0000
0000
,
0000
0000
0000
0000
,
0000
0000
0000
0000
,
0000
0000
0000
0000
,
0000
0000
0000
0000
,
0000
0000
0000
0000
,
0000
0000
0000
0000
0000
0000
0000
1000
,
0000
0000
0000
0000
1000
0000
0000
0001
,
0000
0000
0000
0000
0001
0000
0000
0010
,
0000
0000
0010
0000
,
0001
0000
0000
0000
1000
0000
0000
0100
,
0000
0000
0000
0000
0100
0000
0000
0001
,
0000
0000
0000
0000
0001
0000
0000
1000
,
0000
0000
1000
0000
,
0100
0000
0000
0000
0100
0000
0000
1000
,
0000
0000
0000
0000
0100
0000
0000
0100
,
0000
0000
0000
0000
0010
0000
0000
0010
,
0000
0000
0001
0000
,
0100
0000
0000
0000
0010
0000
0000
0010
,
0000
0000
0000
0000
0100
0000
0000
0100
,
0000
0000
0000
0000
0001
0000
0000
0001
,
0000
0000
1000
0000
,
0100
0000
0000
0000
0010
0000
0000
0002
,
0000
0000
0000
0000
,
0000
0000
0003
0000
1000
0000
0000
2000
,
0000
0000
0000
0000
,
0000
0000
3000
0000
0100
0000
0000
0200
,
0000
0000
0000
0000
,
0000
0000
0300
0000
0010
0000
0000
0020
,
0000
0000
0000
0030
,
0100
0000
0010
0000
,
1001
0000
0000
0000
,
0000
0000
0000
0000
,
1001
0000
0000
0000
,
0000
0000
0000
0000
,
0001
0000
1000
0000
,
0010
1000
0010
0000
,
0100
0000
0001
0000
,
1000
0001
1000
0000
,
0110
0000
0000
0000
,
0000
0000
0000
0000
,
0110
0000
0000
0000
,
0000
0000
0000
0000
,
0010
0000
0001
0000
,
1000
0100
0010
0000
,
0001
0000
1000
0000
,
0010
1000
0001
0000
,
1000
0000
0100
0000
,
0001
0000
0010
0000
,
1000
0000
0100
0000
,
0001
0000
0010
0001
,
0100
0000
1000
0000
,
0010
0000
0001
0000
,
0100
0000
1000
0000
,
0001
0000
0000
0000
0000
0000
0000
1001
,
0000
0000
0100
0100
,
1000
0000
0000
0000
0001
0000
0000
0100
,
0000
0000
0001
0001
,
1000
0000
0000
0000
0100
0000
0000
1000
,
0000
0000
0100
0010
,
0100
0000
0000
0000
1000
0000
0000
0001
,
0000
0000
0100
0100
,
0100
0000
0000
0000
0000
0000
0000
1001
,
0000
0000
0010
0100
,
0001
0000
0000
0000
0001
0000
0000
1000
,
0000
0000
0100
0001
,
0100
0000
0000
0000
1000
0000
0000
0010
,
0000
0000
0001
0010
,
1000
0000
0000
0000
0001
0000
0000
0100
,
0000
0000
1000
0100
,
0001
0000
0000
0000
1000
0000
0000
0020
,
0000
0000
0000
0000
,
0100
0000
0000
0030
,
1001
0000
0000
0000
,
0000
0000
0000
0000
;

//---------------dance-single - ----------------
#NOTES:
     dance-single:
     :
     Medium:
     8:
     :
0000
0000
0000
0000
,
0000
0000
0000
0000
,
0000
0000
0000
0000
,
0000
0000
0000
0000
,
0000
0000
0000
0000
,
0000
0000
0000
0000
,
0000
0000
0000
0000
,
0000
0000
0000
0000
,
0000
0000
0000
0000
,
0000
0000
0000
0000
,
0000
0000
0000
0000
0000
0000
0000
0100
,
0000
0000
0010
0000
1000
0000
0000
1000
,
0000
0000
0010
0000
0100
0000
0000
0010
,
0000
1000
0001
0100
,
0010
0000
0000
0000
0100
0000
0000
0010
,
0000
0000
1000
0000
0100
0000
0000
0100
,
0000
0000
0010
0000
0001
0000
0000
0001
,
0000
0010
0001
1000
,
0010
0000
0010
0000
1001
0000
0000
0100
,
0000
0000
1000
0000
0100
0000
0000
0010
,
0000
0000
0001
0000
0100
0000
0000
0010
,
0000
1000
0100
0001
,
0100
0000
0100
0000
0010
0000
0000
0001
,
0000
0000
0100
0000
0001
0000
0000
0100
,
0000
0000
0010
0000
1000
0000
0000
0100
,
0000
0010
0001
1000
,
0001
0000
0100
0000
0010
0000
0000
1002
,
0000
0000
0000
0000
,
0000
0000
0003
0000
0010
0000
0010
0200
,
0000
0000
0000
0000
,
0000
0000
0300
0000
1000
0000
1000
0020
,
0000
0000
0000
0000
,
0000
0000
0030
0000
1000
0000
1000
0002
,
0000
0000
0000
0003
,
0010
0000
0100
0000
,
1100
0000
0000
1100
,
0000
0000
0100
0000
0000
1000
0000
0000
,
1001
0000
0000
1001
,
0000
0000
0001
0000
0000
1000
0000
0000
,
0001
0100
0010
1000
,
0010
0100
0001
0000
,
1000
0100
1000
0010
,
0100
0001
0100
0000
,
0101
0000
0000
0101
,
0000
0000
0001
0000
0000
0100
0000
0000
,
0110
0000
0000
0110
,
0000
0000
0010
0000
0000
0100
0000
0000
,
0010
0010
1000
0001
,
0100
0001
1000
0000
,
0100
0100
1000
0001
,
0010
0100
1000
0000
,
0020
0000
0230
0000
,
0301
1000
0100
0000
,
2000
0000
3020
0000
,
0130
0001
1000
0000
,
0020
0000
0230
0000
,
0301
1000
0001
0000
,
0100
0100
0100
0010
,
1001
0000
0000
0000
0000
0000
0000
1010
,
0000
0010
0100
0001
,
0100
0000
0100
0000
0001
0100
0000
0010
,
0000
1000
0100
1000
,
0001
0000
0001
0000
0100
0000
0010
0100
,
0000
0001
0100
0010
,
1000
1000
0100
0010
,
0002
0000
0010
0000
1003
0000
0010
1000
,
0010
0000
0000
0000
1000
0000
0000
0101
,
0000
0100
0001
1000
,
0100
0000
0100
0000
0010
0001
0000
1000
,
0000
0010
0100
0010
,
1000
0000
1000
0000
0001
0000
0010
0100
,
0000
1000
0010
0100
,
0001
0000
0001
0000
0010
0000
0100
1000
,
0000
0000
0100
0000
1000
0000
0001
1000
,
0001
0000
0100
0000
0010
0000
0010
0200
,
0000
0001
0000
0301
,
1000
0100
0010
0001
,
1001
0000
0000
0000
,
0000
0000
0000
0000
;

//---------------dance-single - ----------------
#NOTES:
     dance-single:
     :
     Hard:
     10:
     :
0000
0000
0000
0000
,
0000
0000
0000
0000
,
0000
0000
0000
0000
,
0000
0000
0000
0000
,
0000
0000
0000
0000
,
0000
0000
0000
0000
,
0000
0000
0000
0000
,
0000
0000
0000
0000
,
0000
0000
0000
0000
,
0000
0000
0000
0000
,
0000
0000
0000
0000
0010
0010
0000
1001
,
0000
0000
1000
0000
0010
0100
0001
0100
,
0000
0000
0010
0000
1000
0100
1000
0001
,
0000
0010
0001
1000
,
1000
0000
0100
0000
0010
0000
0001
0100
,
0000
0000
0010
0000
0100
0001
1000
0001
,
0000
0000
0010
0000
0100
1000
0100
0010
,
0000
0100
1000
0010
,
0100
0000
0010
0000
1000
0100
0010
0001
,
0000
0000
0100
0000
0010
1000
0001
0100
,
0000
0000
0010
0000
1000
0001
0010
0100
,
0000
1000
0010
0100
,
0001
0000
0100
0000
0010
0000
0010
1000
,
0000
0000
0010
0000
0100
0001
1000
0100
,
0000
0000
0010
0000
0001
0010
0100
1000
,
0000
0000
0010
0000
0100
0010
0100
0000
,
0001
0010
0000
0001
0000
1000
0000
2100
,
0000
0010
0000
0010
,
0000
0000
3010
0000
0001
0100
0010
0200
,
0000
0001
0000
0001
,
0000
0000
0301
0000
0010
1000
0001
0020
,
0000
0100
0000
0100
,
0000
0000
0130
0000
0001
1000
0010
2000
,
0000
0001
0000
3001
,
0100
0100
0000
0000
0010
0010
0000
0000
,
1000
1000
0000
0000
0000
0000
0011
0000
,
0000
0000
0101
0000
0000
1010
0000
0000
,
0001
0001
0000
0000
0000
0000
1100
0000
,
0000
0000
0011
0000
0000
0101
0000
0000
,
0010
0100
0001
0000
0010
0100
0001
0000
,
0010
0100
1000
0001
,
0100
0001
1000
0000
0100
0001
1000
0000
,
0001
0000
0100
0010
0000
0010
0000
0000
,
0001
0001
0000
0000
0000
0000
1100
0000
,
0000
0000
0101
0000
0000
0011
0000
0000
,
0100
0100
0000
0000
0000
0000
1100
0000
,
0000
0000
1010
0000
0000
0011
0000
0000
,
0001
1000
0010
0000
0001
1000
0100
0000
,
0010
0001
0100
0010
,
1000
0010
0100
0000
1000
0010
0100
0000
,
0001
0010
1000
0100
,
0002
0000
0023
0000
,
0130
1000
0001
0100
,
0020
0000
0230
0000
,
0310
1000
1001
0000
,
0200
0000
0320
0000
,
1030
0100
0010
0001
,
0011
0000
1100
0000
0010
0100
0000
0100
,
0010
0000
0000
0000
0000
0000
0000
0101
,
0000
0100
0010
0000
1000
0000
0100
0000
,
0010
0000
0001
0000
1000
0010
1000
0100
,
0000
0100
0010
0000
0001
0000
1000
0000
,
0100
0000
0100
0000
0001
0010
0100
1000
,
0000
0010
0100
0000
0010
0000
0100
0001
,
0000
1000
0100
0000
1000
0010
0100
0001
,
1000
0000
1000
0000
0010
0100
0010
1000
,
0000
1000
0001
0100
0000
0100
0000
1010
,
0000
0010
0100
0000
0001
0000
0010
0000
,
0100
0000
1000
0000
0001
0100
0001
0010
,
0000
0010
0100
0000
1000
0000
0001
0000
,
0010
0000
0010
0000
1000
0100
0010
0001
,
0000
0100
0010
0000
0100
0000
0010
1000
,
0000
0001
1000
0000
0001
0100
0010
1000
,
0000
1000
0001
0000
0100
0010
0100
0010
,
1000
0100
1000
0100
0010
0001
0010
0002
,
0000
1000
0000
1003
,
1100
0000
0011
0000
0001
0100
0010
0000
,
1001
0000
0000
0000
,
0000
0000
0000
0000
;

//---------------dance-single - ----------------
#NOTES:
     dance-single:
     :
     Challenge:
     13:
     :
0000
0000
0000
0000
,
0000
0000
0000
0000
,
0000
0000
0000
0000
,
0000
0000
0000
0000
,
0000
0000
0000
0000
,
0000
0000
0000
0000
,
0000
0000
0000
0000
,
0000
0000
0000
0000
,
0000
0000
0000
0000
,
0000
0000
0000
0000
,
0000
0000
0000
0000
1001
1001
0000
0220
,
0330
1000
0001
0000
0010
0001
0100
2002
,
3003
0001
1000
0000
0010
1000
0001
2002
,
3003
1000
0001
0001
0010
0010
0100
0100
,
1000
1000
0001
0001
0011
1100
0000
0010
,
0000
0010
1000
0100
0001
0100
1000
0010
,
0000
0010
1000
0010
0001
0010
1000
0001
,
0000
0001
1000
0010
0100
1000
0100
0001
,
0001
1000
0000
0011
0000
1100
0000
0220
,
0330
1000
0001
0000
0010
0001
0100
2002
,
3003
0001
1000
0000
0010
1000
0001
2002
,
3003
0001
1000
1000
0010
0010
0100
0100
,
0001
0001
1000
1000
1010
0101
0000
2002
,
3003
0100
0010
0000
0010
0100
0000
2002
,
3003
0010
0100
0000
0100
0010
0000
1001
,
0000
0001
1000
0001
1000
0010
0010
1000
,
0001
0010
0100
1100
0000
1001
0000
2020
,
0000
0000
0000
0000
,
3030
0000
0001
0000
1000
0010
0100
0202
,
0000
0000
0000
0000
,
0303
0000
1000
0000
0001
1000
0100
2002
,
0000
0000
0000
0000
,
3003
0000
1000
0000
0001
0010
0100
0220
,
0000
0000
0000
0330
,
1001
1001
0000
0000
1001
1001
0000
0000
,
0010
0010
0000
0000
0000
0000
1001
0000
,
0000
0000
1010
0000
0000
0011
0000
0000
,
0100
0100
0000
0000
0000
0000
1001
0000
,
0000
0000
0011
0000
0000
1010
0000
0000
,
0010
0001
0010
0001
1000
0001
0100
0010
,
0001
0010
0100
0010
1000
0001
1000
1001
,
0000
1000
0010
1000
0001
1000
0100
0010
,
1000
0010
0100
0110
0000
1001
0000
0000
,
1001
1001
0000
0000
0000
0000
1010
0000
,
0000
0000
1001
0000
0000
1100
0000
0000
,
1001
1001
0000
0000
0000
0000
0011
0000
,
0000
0000
1001
0000
0000
0101
0000
0000
,
0001
0010
0001
1000
0100
1000
0010
0100
,
0010
1000
0001
1000
0010
1000
0001
1001
,
0000
0010
1000
0001
0100
0001
0010
0100
,
0010
0001
1000
0001
1000
0010
0100
0000
,
1001
2002
3003
0000
0110
0000
0000
0010
,
0100
0000
0001
0000
1000
0001
0000
0000
,
0110
0220
0330
0000
1001
0000
0000
0100
,
0010
0000
1000
0000
0001
1000
0000
0000
,
1001
2002
3003
0000
0110
0000
0000
0001
,
0010
0000
0001
0000
1000
0100
0000
0000
,
0010
1000
0010
0000
0100
0001
0100
0000
0010
0000
0100
0000
0000
0000
0001
1000
,
0001
0000
0000
0000
0000
0000
0000
1000
,
0000
1000
0001
0000
1000
0001
0100
0000
,
1000
0001
0100
0000
1000
0001
1000
0001
,
0000
0001
1000
0000
0001
1000
0100
0000
,
0001
1000
0100
0000
0001
1000
0001
0100
,
0000
0100
0010
0000
0010
0001
0010
0000
,
0010
0100
0001
0000
0001
0010
0100
1000
,
0000
1000
0001
0000
1000
0100
0010
0001
,
0011
0011
0000
1100
0000
0110
0000
1001
,
0000
0010
1010
0010
0110
0100
0101
0001
,
1001
1000
0100
0010
0001
0100
0010
1001
,
0000
0001
1000
0000
0001
0010
0001
0000
,
0100
1000
0100
0000
0010
0100
0010
1001
,
0000
1000
0001
0000
1000
0010
1000
0000
,
0100
0001
0100
0000
0010
0100
0010
1001
,
0000
0100
0010
0000
0001
1000
0001
0000
,
1000
0100
0001
0100
1000
0010
1000
2002
,
0000
0000
0000
0000
,
0000
0000
3003
0000
,
0000
0000
0000
0000
;

//---------------dance-double - ----------------
#NOTES:
     dance-double:
     :
     Easy:
     5:
     :
00000000
00000000
00000000
00000000
,
00000000
00000000
00000000
00000000
,
00000000
00000000
00000000
00000000
,
00000000
00000000
00000000
00000000
,
00000000
00000000
00000000
00000000
,
00000000
00000000
00000000
00000000
,
00000000
00000000
00000000
00000000
,
00000000
00000000
00000000
00000000
,
00000000
00000000
00000000
00000000
,
00000000
00000000
00000000
00000000
,
00000000
00000000
00000000
00000000
00000000
00000000
00000000
00000001
,
00000000
00000000
00000000
00000000
00000100
00000000
00000000
00000010
,
00000000
00000000
00000000
00000000
00000100
00000000
00000000
00001000
,
00000000
00000000
00010000
00000000
,
00001000
00000000
00000000
00000000
00010000
00000000
00000000
00010000
,
00000000
00000000
00000000
00000000
00001000
00000000
00000000
01000000
,
00000000
00000000
00000000
00000000
00010000
00000000
00000000
10000000
,
00000000
00000000
00010000
00000000
,
01000000
00000000
00000000
00000000
00100000
00000000
00000000
10000000
,
00000000
00000000
00000000
00000000
01000000
00000000
00000000
00100000
,
00000000
00000000
00000000
00000000
01000000
00000000
00000000
00010000
,
00000000
00000000
00001000
00000000
,
00010000
00000000
00000000
00000000
00001000
00000000
00000000
00001000
,
00000000
00000000
00000000
00000000
00000100
00000000
00000000
00000010
,
00000000
00000000
00000000
00000000
00000100
00000000
00000000
00000001
,
00000000
00000000
00000100
00000000
,
00001000
00000000
00000000
00000000
00010000
00000000
00000000
00002000
,
00000000
00000000
00000000
00000000
,
00000000
00000000
00003000
00000000
00010000
00000000
00000000
00020000
,
00000000
00000000
00000000
00000000
,
00000000
00000000
00030000
00000000
01000000
00000000
00000000
02000000
,
00000000
00000000
00000000
00000000
,
00000000
00000000
03000000
00000000
10000000
00000000
00000000
20000000
,
00000000
00000000
00000000
30000000
,
00010000
00000000
10000000
00000000
,
10010000
00000000
00000000
00000000
,
00000000
00000000
00000000
00000000
,
00011000
00000000
00000000
00000000
,
00000000
00000000
00000000
00000000
,
00001000
00000000
00000010
00000000
,
00001000
00000001
00001000
00000000
,
00000010
00000000
00000100
00000000
,
00000010
00001000
00000010
00000000
,
00000110
00000000
00000000
00000000
,
00000000
00000000
00000000
00000000
,
00011000
00000000
00000000
00000000
,
00000000
00000000
00000000
00000000
,
00100000
00000000
00010000
00000000
,
00100000
01000000
00100000
00000000
,
00010000
00000000
10000000
00000000
,
00010000
10000000
01000000
00000000
,
10000000
00000000
00100000
00000000
,
00010000
00000000
00001000
00000000
,
00000100
00000000
00000010
00000000
,
00000100
00000000
00000001
00000100
,
00000010
00000000
00001000
00000000
,
00010000
00000000
01000000
00000000
,
00200000
00000000
00000000
00000000
,
01300000
00000000
00000000
00000000
00000000
00000000
00000000
10000000
,
00000000
00000000
10000000
10000000
,
01000000
00000000
00000000
00000000
10000000
00000000
00000000
00010000
,
00000000
00000000
00100000
00100000
,
00001000
00000000
00000000
00000000
00010000
00000000
00000000
00001000
,
00000000
00000000
00000100
00000100
,
00000010
00000000
00000000
00000000
00000100
00000000
00000000
00000001
,
00000000
00000000
00000100
00001000
,
00000100
00000000
00000000
00000000
00000000
00000000
00000000
00000001
,
00000000
00000000
00000001
00000001
,
00000100
00000000
00000000
00000000
00000010
00000000
00000000
00001000
,
00000000
00000000
00000100
00000100
,
00010000
00000000
00000000
00000000
00001000
00000000
00000000
00010000
,
00000000
00000000
00001000
00001000
,
00100000
00000000
00000000
00000000
00010000
00000000
00000000
01000000
,
00000000
00000000
00010000
01000000
,
10000000
00000000
00000000
00000000
01000000
00000000
00000000
00200000
,
00000000
00000000
00000000
00000000
,
00300000
00000000
00000000
00000000
,
00011000
00000000
00000000
00000000
,
00000000
00000000
00000000
00000000
;

//---------------dance-double - ----------------
#NOTES:
     dance-double:
     :
     Medium:
     8:
     :
00000000
00000000
00000000
00000000
,
00000000
00000000
00000000
00000000
,
00000000
00000000
00000000
00000000
,
00000000
00000000
00000000
00000000
,
00000000
00000000
00000000
00000000
,
00000000
00000000
00000000
00000000
,
00000000
00000000
00000000
00000000
,
00000000
00000000
00000000
00000000
,
00000000
00000000
00000000
00000000
,
00000000
00000000
00000000
00000000
,
00000000
00000000
00000000
00000000
00000000
00000000
00000000
00001000
,
00000000
00000000
00010000
00000000
01000000
00000000
00000000
00010000
,
00000000
00000000
01000000
00000000
10000000
00000000
00000000
00010000
,
00000000
01000000
00100000
10000000
,
01000000
00000000
00010000
00000000
00001000
00000000
00000000
00010000
,
00000000
00000000
00001000
00000000
00000100
00000000
00000000
00001000
,
00000000
00000000
00000100
00000000
00000001
00000000
00000000
00001000
,
00000000
00000100
00000010
00000001
,
00000100
00000000
00000001
00000000
00001001
00000000
00000000
00000001
,
00000000
00000000
00000010
00000000
00001000
00000000
00000000
00000010
,
00000000
00000000
00001000
00000000
00010000
00000000
00000000
00001000
,
00000000
00010000
00001000
01000000
,
00010000
00000000
00100000
00000000
01000000
00000000
00000000
10000000
,
00000000
00000000
01000000
00000000
00010000
00000000
00000000
01000000
,
00000000
00000000
00010000
00000000
00001000
00000000
00000000
00010000
,
00000000
00001000
00010000
00000100
,
00001000
00000000
00000010
00000000
00000100
00000000
00000000
00000002
,
00000000
00000000
00000000
00000000
,
00000000
00000000
00000003
00000000
00000100
00000000
00000100
00002000
,
00000000
00000000
00000000
00000000
,
00000000
00000000
00003000
00000000
00010000
00000000
00001000
00020000
,
00000000
00000000
00000000
00000000
,
00000000
00000000
00030000
00000000
00100000
00000000
00100000
20000000
,
00000000
00000000
00000000
30000000
,
01000000
00000000
10000000
00000000
,
00010000
10000000
00000000
00000000
00000000
00000000
10000000
00000000
,
00000000
00000000
10000000
00000000
00000000
10000000
00000000
00000000
,
00010000
00100000
00000000
00000000
00000000
00000000
00100000
00000000
,
00000000
00000000
00100000
00000000
00000000
02000000
00000000
00000000
,
13000000
00010000
10000000
01000000
,
00100000
00000000
00010000
00000000
,
00001000
00000100
00001000
00000010
,
00001000
00000000
00000001
00000000
,
00000100
00000001
00000000
00000000
00000000
00000000
00000001
00000000
,
00000000
00000000
00000001
00000000
00000000
00000001
00000000
00000000
,
00001000
00000100
00000000
00000000
00000000
00000000
00000100
00000000
,
00000000
00000000
00000100
00000000
00000000
00000020
00000000
00000000
,
00000130
00001000
00000001
00001000
,
00000010
00000000
00000100
00000000
,
00001000
00010000
00001000
01000000
,
00010000
00000000
00100000
00000000
,
02000000
00000000
00010000
00000000
,
13000000
00100000
01000000
00000000
,
00020000
00000000
10000000
00000000
,
01030000
00001000
00010000
00000000
,
00002000
00000000
00000100
00000000
,
00013000
00000100
00000010
00000000
,
00000001
00000010
00000100
00001000
,
00001001
00000000
00000000
00000000
00000000
00000000
00000000
00000110
,
00000000
00001000
00000001
00000001
,
00000100
00000000
00000100
00000000
00000010
00000100
00000000
00000010
,
00000000
00000100
00001000
00001000
,
00010000
00000000
00010000
00000000
00001000
00010000
00000000
00001000
,
00000000
00100000
00010000
00010000
,
10000000
00000000
10000000
00000000
01000000
00000000
00100000
01000000
,
10000000
01000000
00100000
01000000
,
01100000
00000000
00010000
00000000
00001000
00000000
00000000
00011000
,
00000000
00001000
00000100
00000100
,
00000010
00000000
00000010
00000000
00001000
00000000
00001000
00000001
,
00000000
00000010
00000100
00000100
,
00001000
00000000
00001001
00000000
00000100
00000000
00000010
00000001
,
00000000
00000100
00001000
00001000
,
00010000
00000000
00010000
00000000
00001000
00000000
00100000
01000000
,
00000000
00000000
10000000
00000000
00010000
00000000
10000000
00010000
,
10000000
00000000
01000000
00000000
00100000
00000000
00100000
00020000
,
00000000
10000000
00000000
10030000
,
00100000
10000000
01000000
00010000
,
00011000
00000000
00000000
00000000
,
00000000
00000000
00000000
00000000
;

//---------------dance-double - ----------------
#NOTES:
     dance-double:
     :
     Hard:
     11:
     :
00000000
00000000
00000000
00000000
,
00000000
00000000
00000000
00000000
,
00000000
00000000
00000000
00000000
,
00000000
00000000
00000000
00000000
,
00000000
00000000
00000000
00000000
,
00000000
00000000
00000000
00000000
,
00000000
00000000
00000000
00000000
,
00000000
00000000
00000000
00000000
,
00000000
00000000
00000000
00000000
,
00000000
00000000
00000000
00000000
,
00000000
00000000
00000000
00000000
00100000
10000000
00000000
11000000
,
00000000
00000000
00100000
00000000
10000000
01000000
10000000
00010000
,
00000000
00000000
01000000
00000000
00010000
00100000
00010000
10000000
,
00000000
10000000
00100000
00000000
00010000
00000000
00001000
00000000
,
00010000
00000000
01000000
00000000
00010000
00000000
00001000
00000100
,
00000000
00000000
00000010
00000000
00001000
00000100
00001000
00000001
,
00000000
00000000
00000100
00000000
00000010
00000001
00000010
00000100
,
00000000
00000100
00000001
00000000
00000010
00000000
00001000
00000000
,
00010000
00000000
00001000
00000000
00010000
00001000
00000100
00000001
,
00000000
00000000
00000010
00000000
00000001
00000100
00000010
00001000
,
00000000
00000000
00000001
00000000
00000100
00000010
00001000
00000100
,
00000000
00000100
00000010
00000000
00000001
00000000
00001000
00000000
,
00000010
00000000
00000100
00000000
00000010
00000000
00010000
00001000
,
00000000
00000000
00100000
00000000
00001000
00100000
00010000
01000000
,
00000000
00000000
00100000
00000000
10000000
01000000
00100000
00010000
,
00000000
00010000
10000000
00000000
10000000
01000000
00010000
00000000
,
00001000
00000000
00001000
00010000
00000000
00000100
00000000
00010020
,
00000000
00001000
00000000
00001000
,
00000000
00000000
00001030
00000000
00000001
00000010
00000100
00002000
,
00000000
00000001
00000000
00000001
,
00000000
00000000
00003001
00000000
00000010
00000100
00001000
00020000
,
00000000
00000100
00000000
00000100
,
00000000
00000000
00030100
00000000
00001000
00010000
00100000
02000000
,
00000000
00100000
00000000
03100000
,
10000000
01000000
00000000
00000000
00100000
00010000
00000000
00000000
,
01000000
00100000
00000000
00000000
00000000
00000000
11000000
00000000
,
00000000
00000000
10100000
00000000
00000000
00110000
00000000
00000000
,
00001000
00010000
00000000
00000000
00000000
00000000
00010100
00000000
,
00000000
00000000
00001100
00000000
00000000
00001001
00000000
00000000
,
00000001
00000100
00001000
00000000
00001000
00000100
00000001
00000000
,
00001000
00000100
00010000
00001000
,
00010000
01000000
10000000
00000000
10000000
01000000
00010000
00000000
,
00001000
00000000
00000100
00000010
00000000
00000010
00000000
00000000
,
00001000
00000001
00000000
00000000
00000000
00000000
00000011
00000000
,
00000000
00000000
00001010
00000000
00000000
00010100
00000000
00000000
,
00001000
00010000
00000000
00000000
00000000
00000000
01001000
00000000
,
00000000
00000000
00110000
00000000
00000000
10010000
00000000
00000000
,
10000000
00100000
00010000
00000000
00010000
01000000
10000000
00000000
,
00100000
01000000
00001000
00010000
,
00001000
00000100
00000001
00000000
00000001
00000010
00001000
00000000
,
00010000
00001000
00100000
01000000
,
20000000
00100000
30020000
00000000
,
00130000
01000000
10000000
00010000
,
00200000
01000000
00320000
00000000
,
01030000
00100000
00010000
00001000
,
00020000
00000010
00030200
00000000
,
00000310
00001000
00000010
00000001
,
00001001
00000000
00000101
00000000
00000001
00000010
00000000
00000100
,
00001000
00000000
00000000
00000000
00000000
00000000
00000000
00010100
,
00000000
00001000
00000010
00000000
00000001
00000000
00000010
00000000
,
00000100
00000000
00000010
00000000
00001000
00000100
00010000
00000100
,
00000000
00001000
00010000
00000000
00100000
00000000
01000000
00000000
,
00100000
00000000
00100000
00000000
10000000
00010000
00100000
01000000
,
00000000
10000000
00010000
00000000
00100000
00000000
00010000
10000000
,
00000000
00010000
01000000
00000000
00001000
00100000
00001000
00010000
,
00000100
00000000
00001000
00000000
00000001
00000100
00000010
00000100
,
00001000
00000000
00000000
00010000
00000000
00000000
00001000
00101000
,
00000000
00010000
00100000
00000000
10000000
00000000
00100000
00000000
,
01000000
00000000
00100000
00000000
00010000
01000000
00010000
00100000
,
00000000
00001000
00010000
00000000
00000010
00000000
00000100
00000000
,
00000010
00000000
00001000
00000000
00000001
00001000
00000010
00000100
,
00000000
00000001
00001000
00000000
00000010
00000000
00001000
00000001
,
00000000
00001000
00000100
00000000
00010000
00000010
00010000
00001000
,
00000000
01000000
00100000
00000000
00100000
10000000
00010000
00000000
,
10000000
01000000
10000000
01000000
00100000
01000000
00010000
00002000
,
00000000
00100000
00000000
00103000
,
00101000
00011000
00010100
00000010
,
00001001
00000000
00000000
00000000
,
00000000
00000000
00000000
00000000
;

//---------------dance-double - ----------------
#NOTES:
     dance-double:
     :
     Challenge:
     12:
     :
00000000
00000000
00000000
00000000
,
00000000
00000000
00000000
00000000
,
00000000
00000000
00000000
00000000
,
00000000
00000000
00000000
00000000
,
00000000
00000000
00000000
00000000
,
00000000
00000000
00000000
00000000
,
00000000
00000000
00000000
00000000
,
00000000
00000000
00000000
00000000
,
00000000
00000000
00000000
00000000
,
00000000
00000000
00000000
00000000
,
00000000
00000000
00000000
00000000
00001000
00000010
00000000
00000101
,
00000000
00000010
00000100
00000000
00000001
00001000
00000100
00010000
,
00000000
00001000
00100000
00000000
01000000
10000000
00010000
00100000
,
00000000
01000000
10000000
00010000
01000000
10000000
01000000
00010000
,
01000000
00100000
10000000
01000000
00100000
00001000
00000000
00010100
,
00000000
00001000
00000100
00000000
00000010
00000001
00001000
00000001
,
00000000
00000100
00000010
00000000
00001000
00000100
00000010
00001000
,
00000000
00010000
00001000
00000000
00100000
00001000
00010000
00000000
,
00100000
10000000
00010000
10000000
00000000
00010000
00100000
01000000
,
00000000
00100000
00010000
00000000
10000000
01000000
00100000
00010000
,
00000000
01000000
00001000
00000000
00010000
00001000
00000100
00000001
,
00000000
00001000
00000100
00000010
00000001
00000100
00001000
00000100
,
00000001
00001000
00000010
00000100
00000000
00001100
00000000
00000001
,
00000000
00000001
00000010
00000000
00000100
00001000
00000100
00010000
,
00000000
00010000
00001000
00000000
01000000
00010000
00100000
01000000
,
00000000
01000000
10000000
00010000
01000000
00100000
10000000
00100000
,
01000000
00010000
00000000
01001000
00000000
00011000
00000000
00010010
,
00000000
00000000
00001000
00000000
00000001
00000100
00001000
00000100
,
00000000
00000000
00000001
00000000
00001000
00000100
00000001
00000100
,
00000000
00000000
00001000
00000000
00000010
00001000
00000100
00010000
,
00000000
00000000
00001000
00000000
00100000
01000000
10000000
00010000
,
00000000
00000000
01000000
00100000
10000000
00100000
00000000
00000000
,
01000000
00010000
00100000
01000000
00100000
00001000
00010000
00000100
,
00000000
00000000
00000010
00000000
00000100
00000010
00000001
00000100
,
00000010
00000010
00000000
00000000
00001000
00001000
00000000
00000000
,
00000200
00000020
00000000
00000000
00000330
00000000
00000101
00000000
,
00000000
00000000
00000011
00000000
00000000
00001010
00000000
00000000
,
00020000
00002000
00000000
00000000
00033000
00000000
01001000
00000000
,
00000000
00000000
01010000
00000000
00000000
10010000
00000000
00000000
,
10000000
01000000
00100000
00000000
00010000
01000000
00100000
00000000
,
10000000
01000000
00100000
00010000
00100000
01000000
00010000
00001000
,
00000010
00000100
00001000
00000000
00000010
00000100
00000001
00000000
,
00001000
00000100
00010000
00001000
00000000
00011000
00000000
00000000
,
00200000
02000000
00000000
00000000
03300000
00000000
10100000
00000000
,
00000000
00000000
00110000
00000000
00000000
01001000
00000000
00000000
,
00020000
00002000
00000000
00000000
00033000
00000000
00010100
00000000
,
00000000
00000000
00001010
00000000
00000000
00001001
00000000
00000000
,
00000001
00000010
00000100
00000000
00001000
00000001
00000100
00000000
,
00000010
00000100
00001000
00010000
00001000
00010000
00100000
01000000
,
00010000
10000000
01000000
00000000
10000000
00010000
00100000
00000000
,
00001000
00010000
01000000
10000000
,
00010000
00100000
00020000
00000000
01000000
00000000
00130000
00000000
,
00010000
00001000
00000100
00000010
,
00000001
00001000
00000002
00000000
00000100
00000000
00001003
00000000
,
00000100
00000010
00001000
00010000
,
00001000
00100000
00002000
00000000
01000000
00000000
00013000
00000000
,
00100000
10000000
01000000
00100000
,
10010000
00000000
01010000
00000000
00010000
00100000
00001000
00010000
,
00000000
00000000
00000000
00000000
00000100
00001000
00000000
00000110
,
00000000
00000010
00000001
00000000
00000100
00000010
00001000
00000000
,
00000001
00000100
00000010
00000000
00001000
00010000
01000000
00100000
,
00000000
10000000
01000000
00000000
00100000
00010000
01000000
00000000
,
00100000
01000000
00010000
00000000
10000000
01000000
00100000
00010000
,
00000000
00001000
00000100
00000000
00000010
00000100
00001000
00000001
,
00000000
00001000
00000100
00000000
00000010
00001000
00010000
00001000
,
00000000
00000100
00000001
00000000
00001000
00000100
00000010
00000001
,
00001000
00000010
00000000
00000110
00000000
00000101
00000000
00001100
,
00000000
00010000
00001000
00000000
00100000
00010000
01000000
00000000
,
00100000
10000000
01000000
00000000
00100000
00010000
10000000
00010000
,
00000000
01000000
00100000
00000000
10000000
01000000
00100000
00000000
,
00010000
00001000
00000100
00000000
00000010
00000001
00001000
00000010
,
00000000
00000100
00000001
00000000
00001000
00000100
00000010
00000100
,
00000000
00001000
00000001
00000000
00000100
00000010
00001000
00010000
,
00000000
01000000
00100000
00000000
10000000
00010000
01000000
00000000
,
00100000
10000000
00010000
10000000
01000000
10000000
00100000
02000000
,
00000000
00010000
00000000
03010000
,
00001000
00010000
00000010
00001010
,
00001001
00000000
00000000
00000000
,
00000000
00000000
00000000
00000000
;
