#TITLE:Spanish Snowy Dance;
#ARTIST:Mutsuhiko Izumi;
#BANNER:Spanish Snowy Dance.png;
#BACKGROUND:Spanish Snowy Dance-bg.png;
#CDTITLE:./CDTitles/DanceDanceRevolution 2013.png;
#MUSIC:Spanish Snowy Dance.ogg;
#SAMPLESTART:11.52;
#SAMPLELENGTH:15;
#BPMS:0=180;
#STAGE:2;

//---------------dance-single - ----------------
#NOTES:
     dance-single:
     :
     Beginner:
     3:
     :
0000
0000
0000
0000
,
0000
0000
0000
0000
,
0000
0000
0000
0000
,
0000
0000
0000
0000
,
0000
0000
0000
0000
,
0010
0000
0000
0000
,
0001
0000
0000
0000
,
1000
0000
0000
0000
,
0100
0000
0000
0000
,
0010
0010
0000
0000
,
0100
0100
0000
0000
,
0001
0001
0000
0000
,
1000
1000
0000
0000
,
0001
0000
0000
0001
,
1000
0000
0000
1000
,
0001
0000
0000
0010
,
0100
0000
0000
0000
,
0010
0000
0000
0000
,
0010
0000
0000
0000
,
1000
0000
0000
0000
,
1000
0000
0000
0000
,
0001
0000
0000
0000
,
0001
0000
0000
0000
,
0100
0000
0000
0000
,
0100
0000
0000
0000
,
1001
0000
0000
0000
,
1001
0000
0000
0000
,
0010
0000
0000
0000
,
0100
0000
0000
0000
,
0001
0000
0001
0000
,
1000
0000
1000
0000
,
0100
0000
0000
0000
,
1001
0000
0000
0000
,
0010
0000
0000
0000
,
0100
0100
0000
0000
,
0001
0001
0000
0000
,
1000
1000
0000
0000
,
0010
0000
0010
0000
,
1000
0000
1000
0000
,
0001
0000
0001
0000
,
0100
0000
0100
0000
,
0001
0000
0001
0000
,
1000
0000
0000
0000
,
1000
0000
1000
0000
,
0001
0000
0000
0000
,
0010
0000
0010
0000
,
0100
0000
0000
0000
,
0100
0000
0100
0000
,
0010
0000
0000
0000
,
1001
0000
0000
0000
,
0000
0000
0000
0000
,
1001
0000
0000
0000
,
0000
0000
0000
0000
,
1001
0000
0000
0000
,
0000
0000
0000
0000
,
0110
0000
0000
0000
,
0000
0000
0000
0000
,
0010
0010
0010
0010
,
0100
0000
0100
0000
,
0001
0001
0001
0001
,
1000
0000
1000
0000
,
0000
0000
0000
1001
,
0000
0000
0000
1001
,
0000
0000
0000
1001
,
0000
0000
0000
0000
,
1001
0000
1001
0000
,
0010
0000
0000
0000
,
0100
0000
0000
0000
,
0001
0000
0000
0000
,
1000
0000
0000
0000
,
0010
0000
0000
0000
,
1000
0000
0000
0000
,
0001
0000
0000
0000
,
0100
0000
0000
0000
,
0100
0100
0000
0000
,
0010
0010
0000
0000
,
1000
1000
0000
0000
,
0001
0001
0000
0000
,
1000
0000
0000
1000
,
0001
0000
0000
0001
,
1000
0000
0000
0100
,
0010
0000
0000
0000
,
0001
0000
0000
0000
,
1000
0000
0000
0000
,
0100
0000
0000
0000
,
0000
0000
0000
0000
,
0000
0000
0000
0000
,
1001
0000
1001
0000
,
0000
0000
0000
0000
;

//---------------dance-single - ----------------
#NOTES:
     dance-single:
     :
     Easy:
     7:
     :
0000
0000
0000
0000
,
0000
0000
0000
0000
,
0000
0000
0000
0000
,
0000
0000
0000
0000
,
0000
0000
0000
0000
,
0010
1000
0010
1001
,
0010
0001
0010
1001
,
0100
1000
0100
0001
,
0110
0000
0000
0000
,
0010
0001
0010
0001
,
0100
0010
1000
0000
,
0010
1000
0010
1000
,
0100
0010
0001
0000
,
2000
0100
0100
3100
,
0002
0100
0100
0103
,
0010
1000
0100
0010
,
0001
0100
1001
0000
,
0010
1000
0010
0001
,
1000
0100
0010
0000
,
0010
0001
0010
1000
,
0001
0100
0010
0000
,
2000
0100
3100
1001
,
0002
0100
0103
1001
,
0001
0100
1000
0100
,
0001
0100
1001
0000
,
0010
0100
0010
0000
,
1000
0100
1000
0000
,
0001
0100
0001
0000
,
0200
0000
0320
0000
,
1030
1000
0010
0000
,
0001
0001
0010
0000
,
0100
0100
1000
0000
,
0001
0001
0110
0000
,
0010
1000
0001
0100
,
0020
0000
0030
0000
,
0001
0100
1000
0010
,
0200
0000
0300
0000
,
2000
3100
1001
1001
,
0002
0103
1001
1001
,
2000
3010
0110
0110
,
0002
0013
0110
0110
,
1000
0010
0001
0100
,
1000
0010
0000
1001
,
0002
0100
2003
0100
,
3001
0000
0010
0100
,
0220
0000
0330
0001
,
0220
0000
0330
1000
,
0001
0100
0010
1000
,
0100
0010
0001
1000
,
1001
0000
1001
2000
,
3020
0230
0302
0023
,
0130
0000
0110
0002
,
0203
0320
2030
3002
,
1003
0000
1001
0002
,
0023
0230
2300
3002
,
1003
1000
0001
0001
,
1001
0000
0000
0000
,
0001
0001
1000
1001
,
1000
1000
0001
1001
,
0100
0100
0010
0110
,
0010
0010
0100
0110
,
2000
0010
0001
3100
,
0002
0010
1000
0103
,
1001
0100
1001
0010
,
2000
3002
0203
0320
,
1030
0000
1001
0000
,
0020
0000
0130
0010
,
2000
0000
3001
0100
,
0020
0000
1030
0001
,
2000
0000
3001
0100
,
0010
0010
1000
1000
,
0001
0001
0100
0100
,
0001
1000
0010
0100
,
0010
0010
0100
0100
,
0020
0000
1030
0100
,
2000
0000
3001
0010
,
0200
0000
0310
0001
,
2000
0000
0010
3001
,
1000
0100
0010
0000
0100
0000
0010
0000
,
0001
0100
0010
0000
0100
0000
0010
0000
,
1000
0001
0010
0100
,
2000
0000
0000
3001
0000
0000
0000
0000
,
0200
0000
0000
0310
0000
0000
0000
0000
,
0002
0000
0000
1003
0000
0000
0000
0000
,
2000
0000
0000
0002
0000
0000
0000
0000
,
0000
0000
0000
0000
,
3003
0000
0000
0000
0000
0010
0100
0010
,
0100
0000
1001
0000
,
0000
0000
0000
0000
;

//---------------dance-single - ----------------
#NOTES:
     dance-single:
     :
     Medium:
     11:
     :
0000
0000
0000
0000
,
0000
0000
0000
0000
,
0000
0000
0000
0000
,
0000
0000
0000
0000
,
0000
0000
0000
0000
,
0010
0000
0100
0010
0000
0100
0100
0000
,
0100
0000
0010
0100
0000
0010
0010
0000
,
1000
0000
0001
1000
0000
0001
0001
0000
,
1001
0100
0100
0000
,
1000
0000
0100
0010
0100
0000
1000
0000
,
0010
0000
1000
0100
0020
0000
0030
0000
,
0001
0000
0100
0010
0100
0000
0001
0000
,
0010
0000
0001
0100
0020
0000
0030
0000
,
1000
1000
0010
0100
0000
0010
0010
0000
,
0100
0100
0001
0010
0000
0100
0100
0000
,
1000
0001
0100
0001
,
1000
0000
0010
0100
0000
0100
0010
0000
,
0001
0000
0010
0100
0010
0000
0001
0000
,
0100
0000
0001
0010
0200
0000
0300
0000
,
1000
0000
0010
0100
0010
0000
1000
0000
,
0100
0000
1000
0010
0200
0000
0300
0000
,
0001
0001
0100
0010
0000
0100
0100
0000
,
0010
0010
1000
0100
0000
0010
0010
0000
,
0001
1000
0010
1000
,
0001
0000
0100
0010
0000
0010
0100
0000
,
1000
0000
0000
0010
1000
0000
0000
1000
0010
0000
0000
0010
1000
0000
0000
0000
,
0001
0000
0000
0100
0001
0000
0000
0001
0100
0000
0000
0100
0001
0000
0000
0000
,
0100
0000
0000
0010
0100
0000
0000
0100
0010
0000
0000
0010
0100
0000
0000
0000
,
0010
0000
0000
0100
0010
0000
0000
0010
0100
0000
0000
0100
0010
0000
0000
0000
,
2000
0000
3010
0100
0001
0010
0100
0000
,
2000
0000
3010
0100
0001
0010
0001
0000
,
0002
0000
0103
0010
1000
0100
0010
0000
,
0001
0010
0000
0100
0000
1000
0000
0000
0110
0000
0000
0000
0000
0000
0000
0000
,
0001
0000
0000
0010
0001
0000
0000
0001
0010
0000
0000
0010
0100
0000
0000
0100
,
1000
0000
0000
1000
0010
0000
0000
0010
0100
0000
0000
0100
0001
0000
0000
0001
,
0010
0000
0000
0010
0001
0000
0000
0001
0100
0000
0000
0100
0010
0000
0000
0010
,
1000
0000
0000
1000
0100
0000
0000
0100
0010
0000
0000
0010
0001
0000
0000
0000
,
1000
0000
0000
0100
0000
0000
1000
0100
1000
0100
0000
0000
,
1000
0000
0000
0001
0000
0000
0100
0001
0100
0001
0000
0000
,
0010
0100
0010
0100
0000
0000
1000
0001
1000
0001
0000
0000
,
1000
0010
1000
0010
0000
0000
0100
0001
0100
0001
0000
0000
,
0010
0000
0100
0000
1000
0010
0100
0000
,
0010
0000
0100
0000
0001
0010
0100
0000
,
1000
0100
1000
0100
0000
0000
0010
0001
0010
0001
0000
0000
,
0100
0000
0000
0010
0000
0000
1000
0000
0000
0100
1000
0100
,
1000
0000
0000
0010
0000
0000
0100
0000
0000
0001
0100
0001
,
0100
0010
1000
0100
,
1000
0100
1000
0000
0001
0100
0001
0000
,
1000
0001
1100
0101
,
1001
0000
0000
0100
0010
0000
1010
0000
,
1100
0101
0011
0110
,
1001
0000
0000
0010
0100
0000
0101
0000
,
0011
1010
1100
0110
,
1001
0000
0000
0100
0010
0000
0011
0000
,
1100
1010
0101
0110
,
2001
0000
0100
3000
1002
0000
0100
0003
,
2002
0000
0000
3003
,
0010
1000
0010
1000
0100
0000
0100
0000
,
0010
0001
0010
0001
0100
0000
0100
0000
,
0001
1000
0010
1000
0100
0000
1000
0000
,
0001
1000
0010
1000
0001
0000
0100
0000
,
0010
0010
0000
0100
0100
0000
1001
0000
,
0001
0001
0000
1000
1000
0000
1001
0000
,
0100
0100
0000
0010
0010
0000
1001
0000
,
0010
1000
0001
0100
,
1001
0000
0000
1001
1001
0000
0000
0000
,
0000
0001
0000
1000
0000
0010
0000
0100
,
0000
0001
0010
0100
0000
1000
0010
0100
,
0000
0010
0000
1000
0000
0001
0000
0100
,
0000
0010
1000
0001
0000
0010
0001
1000
,
0000
0010
0010
0100
0010
0000
1001
0000
,
0000
0100
0100
0010
0100
0000
1001
0000
,
0000
1000
0000
0001
0000
0010
0100
1000
,
0010
0000
0100
0010
0000
0010
0100
0000
,
0001
1000
0100
0000
0010
0000
0100
0000
,
1000
0001
0100
0000
0010
0000
0100
0000
,
0001
0010
0001
0000
1000
0100
1000
0000
,
0010
0100
0010
0000
1100
0000
0101
0000
,
1000
1000
0001
1000
0000
0100
0010
0000
,
0001
0001
1000
0001
0000
0010
0100
0000
,
1000
0010
0100
0001
,
1000
0100
0010
0001
0000
0100
0100
0000
,
0001
0100
0010
1000
0000
0100
0100
0000
,
1000
0100
0010
0001
0000
0100
0100
0000
,
0001
0100
0010
2000
0000
0001
0000
0100
,
0000
0010
0000
0001
0000
0010
0000
3100
,
0000
0000
0000
0000
0000
0010
1000
0100
,
0001
0000
0000
0100
0220
0000
0000
0000
,
0330
0000
0000
0000
,
0000
0000
0000
0000
;

//---------------dance-single - ----------------
#NOTES:
     dance-single:
     :
     Hard:
     15:
     :
0000
0000
0000
0000
,
0000
0000
0000
0000
,
0000
0000
0000
0000
,
0000
0000
0000
0000
,
0000
0000
0000
0000
,
2000
0000
0000
0000
0000
0000
0000
0000
0000
3001
0010
0001
,
2000
0000
0000
0000
0000
0000
0000
0000
0000
3001
0100
0010
,
2000
0000
0000
0000
0000
0000
0000
0000
0000
3010
0100
0001
,
1000
0000
0000
0000
0000
1000
0010
0100
,
0001
0000
1000
0101
0000
1000
0101
0000
,
0001
0000
1000
0110
0000
1000
0110
0000
,
1000
0000
0001
1100
0000
0001
1100
0000
,
1000
0000
0001
0110
0000
0001
0110
0000
,
0001
0000
0200
1000
0000
1300
0001
0000
,
1000
0000
0200
0001
0000
1300
0000
0001
,
0100
0000
0001
0010
0001
0000
0100
0010
0100
0000
0001
0010
0001
0000
0010
0100
,
0010
0000
0001
0010
0001
0000
1000
0100
1000
0000
0001
0010
0001
0000
1000
0100
,
1000
0001
0100
0001
1000
0100
1100
1100
,
0001
0100
1000
0100
0010
0100
0110
0110
,
1000
0010
0001
0010
0100
0001
0011
0011
,
1000
0010
0001
0010
1000
0100
0110
0110
,
2000
0000
0001
0002
3000
0100
0203
0000
,
0020
0000
0300
0001
0000
1030
0001
0010
,
0100
0000
1000
0100
1000
0000
0001
0100
0001
0000
1000
0100
1000
0000
0010
0100
,
0010
0000
1000
0100
1000
0000
0001
0010
0001
0000
0100
0010
0100
0000
0001
0100
,
0001
0000
1000
0100
0010
0000
0010
0000
0001
0000
0100
0000
0100
0001
0100
0000
,
0010
0000
0010
1000
0001
0000
0001
0000
0100
0000
0010
0000
0010
1000
0010
0000
,
0100
0000
0100
0001
0010
0000
0010
0000
0100
0000
1000
0000
1000
0010
1000
0000
,
0010
0000
0010
0100
0001
0000
0001
0000
1000
0000
0010
0000
0010
1000
0010
0000
,
1000
0000
1000
0100
0001
0000
0001
0000
0100
0000
1000
0000
1000
0100
1000
0000
,
0001
0000
0001
0100
1000
0000
1000
0000
0100
0000
0001
0000
0001
0010
0001
0000
,
0100
0000
0100
0010
0100
0000
0100
0000
0001
0000
0001
0000
0001
0010
0001
0000
,
1000
0000
0000
0001
0000
0000
0000
0000
0000
0100
0000
0000
0000
0000
0000
0001
0000
0000
0100
0000
0000
0001
0000
0000
1000
0000
0000
0000
0000
0000
0000
0000
0000
0000
0000
0000
0000
0000
0000
0000
0100
0000
0000
0000
0000
0000
0000
0000
,
1000
0000
0001
0000
1000
0000
0100
1000
0100
0001
0100
1000
,
0100
0010
0000
0001
1000
0000
0110
0000
,
0001
0000
0000
1000
0000
0000
0000
0000
0000
0001
0000
0000
0100
0000
0010
0000
0100
0000
1000
0000
0100
0000
0010
0000
,
0100
0000
0001
0000
1000
0000
0110
0000
0000
1001
0000
0000
,
0001
0010
0001
1000
0100
1000
0010
0001
0010
1000
0100
1000
,
0010
0100
0010
1000
0100
1000
0010
0001
0010
1000
0100
1000
,
0001
0010
0001
0100
1000
0100
0001
0010
0001
0100
1000
0100
,
0001
0010
0100
1000
0010
0100
0001
0010
0100
1000
0001
0100
,
0010
0000
0010
0100
0001
0100
0010
0100
,
0001
0000
1000
0100
0010
0100
1000
0100
,
0010
0001
0010
0100
1000
0100
0010
0001
0010
1000
0010
0001
,
0020
0000
0000
0100
0000
0000
0031
0000
0000
0100
0001
0100
,
0002
0000
0000
1000
0000
0000
1000
0000
0000
1003
0100
1000
,
0200
0010
0001
1000
,
0310
0001
0001
0000
1000
0100
0100
0000
,
0110
0000
0000
1001
0000
0000
1000
0100
1000
0010
0100
0010
,
1000
0000
0000
0000
0000
0000
0000
0000
0000
0011
0000
0000
1001
0000
0000
0000
0000
0000
0010
0000
1000
0000
0010
0000
,
0100
0001
0100
0001
0010
0001
1000
0010
1000
0100
0010
0100
,
0010
0000
0000
0000
0000
0000
0000
0000
0000
1010
0000
0000
1001
0000
0000
0000
0000
0000
0001
0000
0010
0000
0100
0000
,
1000
0010
0100
1000
0100
0010
1000
0100
0010
0001
0100
1000
,
0100
0000
0000
0000
0000
0000
0000
0000
0000
0101
0000
0000
1001
0000
0000
0000
0000
0000
0001
0000
0010
0000
0100
0000
,
0010
0001
1000
0100
0010
0100
1000
0001
0010
0100
0010
0001
,
0100
0100
1000
0010
0010
0001
0100
0100
1000
0010
0010
0001
,
2000
0000
0000
3000
,
0001
0000
0001
0010
0001
0000
0001
0000
1000
0000
1000
0100
1000
0000
1000
0000
,
0010
0000
0010
0100
0010
0000
0010
0000
1000
0000
1000
0100
1000
0000
1000
0000
,
0100
0000
0100
0010
0100
0000
0100
0000
0010
0000
0010
0001
0010
0000
0010
0000
,
0210
0000
0310
1100
,
0001
0000
0001
0010
0100
0000
1000
0000
0010
0100
0010
0000
0010
0000
0000
0000
,
1000
0000
1000
0100
0010
0000
0001
0000
0100
0010
0100
0000
0100
0000
0000
0000
,
0002
0000
0000
2003
0000
0010
3100
0000
,
1000
0100
0010
0001
1000
0010
0100
0001
1000
0100
0010
0001
,
1000
0000
0000
0000
0000
0000
0100
0010
0100
0000
0000
0000
0100
0000
0010
0000
,
0002
0000
0000
0000
0000
0000
0000
0000
0000
0000
0000
0000
0000
0000
0000
0000
0000
0000
1000
0000
0000
0000
0000
0000
2003
0000
0000
0000
0000
0000
0000
0000
0200
3000
0000
0000
0000
0000
0000
0000
0010
0000
0000
0000
0000
0000
0000
0000
,
0320
0000
0000
0000
0000
0031
0010
0100
,
2000
0000
0000
0000
0000
0000
0000
0000
0000
0100
0000
0000
3200
0000
0000
0000
0001
0000
0000
0000
2000
0300
0000
0000
,
3020
0000
0000
0000
0000
0000
0000
0030
,
2000
0000
3200
0010
0000
2300
0010
0000
,
0002
0000
3000
0203
0000
0301
0010
0100
,
2000
0000
0000
0000
0000
3001
0010
0100
,
2002
0000
3003
0220
0000
0330
1001
0000
,
1000
0000
0100
0010
0100
0000
0100
0000
0010
0000
0010
0001
0010
0001
0100
0000
,
0001
0000
0010
0100
0010
0000
0010
0000
0100
0000
0100
1000
0100
1000
0010
0000
,
1000
0000
0010
0100
0010
0000
0010
0000
1000
0000
1000
0100
1000
0100
0010
0000
,
0001
0000
0100
0010
0100
0000
0100
0000
0010
0000
0010
1000
0010
1000
0100
0000
,
1000
0000
1100
1100
0101
0101
1100
0101
,
2002
0000
0003
0010
0000
3010
0100
0010
,
0200
0000
0000
0000
0000
0301
0010
0100
,
2002
0000
3003
0220
0000
0330
2020
3030
,
0022
0000
0033
2002
0000
3003
0220
0330
,
2020
0000
3030
2002
0000
3003
0220
0330
,
0202
0000
0303
2020
0000
0000
0000
0000
,
0000
0000
0000
0000
0000
0000
0000
3030
,
0000
0000
0000
0000
0000
0110
1001
0101
,
1100
0000
0000
0000
0000
0000
0010
0100
0020
0000
0000
0000
0000
0000
0000
0000
,
0030
0000
0000
0000
,
0000
0000
0000
0000
;

//---------------dance-single - ----------------
#NOTES:
     dance-single:
     :
     Challenge:
     17:
     :
0000
0000
0000
0000
,
0000
0000
0000
0000
,
0000
0000
0000
0000
,
0000
0000
0000
0000
,
0000
0000
0000
0000
,
0010
0100
1000
0100
0010
0001
0010
0100
1000
0010
0100
0010
,
1000
0001
0010
0100
0010
0001
0100
0010
1000
0001
0010
0100
,
1000
0010
0100
0001
0100
0010
1000
0001
0010
0100
1000
0001
,
0200
0001
0001
0301
,
0001
0000
0000
0100
0010
0000
1000
0000
0100
0000
0000
0010
0001
0000
1000
0000
,
0010
0000
0000
0100
0001
0000
0010
0000
0100
0000
0010
0001
0010
0000
0100
0000
,
1000
0000
0000
0001
0100
0000
0010
0000
1000
0000
0000
0001
1000
0000
0010
0000
,
0100
0000
0000
0010
0100
0000
0001
0000
0010
0000
0001
0100
0001
0100
0001
0000
,
0010
0100
0100
0010
0001
0001
0011
0000
,
1000
0010
0010
1000
0100
0100
1100
0001
,
0100
0000
0010
1000
0100
0000
0010
0001
0100
0000
0001
1000
0100
0000
1000
0001
,
0100
0000
0010
1000
0010
0000
0100
0001
0010
0000
0001
1000
0010
0100
0001
0010
,
0100
0000
0000
1000
0100
0000
1000
0000
0010
0000
0100
0000
0101
0000
0101
0000
,
0010
0000
0000
0001
0010
0000
0001
0000
0100
0000
0010
0000
1010
0000
1010
0000
,
1000
0000
0000
0010
0100
0000
0001
0000
0010
0000
0100
0000
0110
0000
0110
0000
,
0001
0000
0000
0010
0100
0000
1000
0000
0010
0000
0100
0000
0110
0000
0110
0000
,
2000
0010
3100
0002
0010
0103
2000
3001
,
0200
0000
0010
0000
1300
0000
0002
0000
0010
0000
0103
0000
1000
0100
1000
0000
,
0010
0000
0001
0010
0001
0000
0010
1000
0100
0000
0100
0010
0100
0000
0010
0001
,
0010
0000
0100
1000
0010
0000
0100
0001
0010
0000
0001
0100
0010
1000
0100
0010
,
0002
0000
0000
0013
0001
0000
0001
0100
0010
0000
0010
1000
0100
0010
0001
0010
,
0200
0000
0000
0310
0100
0000
1000
0100
1000
0000
1000
0100
0010
0001
0010
0100
,
2000
0000
0000
3010
0100
0000
0100
0001
1000
0000
0001
1000
0100
0010
0001
0010
,
0002
0000
0000
0013
1000
0000
0010
0001
0010
0000
0001
0010
0100
0010
0001
1000
,
0200
0000
0000
1300
0010
0000
0010
0001
0010
0000
0010
1000
0010
0001
0010
0100
,
0002
0000
0000
0013
0100
0000
0010
0100
0010
0000
0010
1000
0010
0001
0010
0100
,
2000
0000
0000
3001
0010
0000
0010
0100
1000
0010
0100
0000
0100
0010
0001
0010
,
0100
0000
0000
1000
0000
0000
0000
0000
0000
0100
0000
0000
0000
0000
0000
0010
0000
0000
1000
0000
0000
0100
0000
0000
0010
0000
0000
0000
0000
0000
0000
0000
0000
0000
0000
0000
0000
0000
0000
0000
1001
0000
0000
0000
0000
0000
0000
0000
,
1100
0000
0000
0000
0101
0000
0000
0000
0110
0000
0000
0000
0100
0001
1000
0000
0010
0000
0001
0000
0010
0000
1000
0000
,
0010
0002
0000
0000
1003
0000
0110
0000
,
0001
0000
0000
1000
0000
0000
0000
0000
0000
0001
0000
0000
0010
0000
0100
0000
0010
0000
0001
0000
0010
0000
1000
0000
,
0010
0000
1000
0000
0001
0000
0110
0000
0000
1001
0000
0000
,
0001
0000
0010
0000
0001
0000
0000
1000
0000
0000
0000
0000
0010
0000
0000
0000
0100
0000
0000
0000
0001
0000
0000
0000
0010
0000
0000
0000
0100
0000
0000
0000
1000
0000
0000
0000
0010
0000
0000
0000
1000
0000
0000
0000
0001
0000
0100
0000
,
0001
0000
0010
0000
0100
0000
1000
0000
0010
0000
0100
0000
0001
0000
0010
0000
0100
0000
1000
0100
1000
0000
0100
0000
,
1000
0010
0100
0001
0010
0100
0001
0100
1000
0100
0010
0100
,
1000
0100
1000
0000
0010
0000
0001
0000
0010
0000
0100
0000
0001
0010
0001
0000
0100
0000
0010
0000
1000
0000
0100
0000
,
0010
0000
0000
0001
0100
0000
0010
0000
1000
0000
0100
0000
0010
0000
0001
0000
,
0100
0000
0000
0010
1000
0000
0100
0000
0010
0000
0100
0000
1000
0000
0100
0000
,
0010
0001
0010
1000
0010
0001
0100
1000
0100
0001
0010
1000
,
0020
0000
0000
0000
0000
0000
0030
0000
0000
0100
1000
0010
,
0100
0000
0000
0000
0000
0000
0000
0000
0000
1000
0000
0000
0100
0000
0000
0000
0000
0000
0000
0000
0000
0100
0000
0000
0010
0000
0000
0000
0000
0000
0000
0000
0000
0010
0000
0000
0001
0000
0000
0000
0010
0000
0000
0000
0100
0000
0000
0000
,
0001
0000
0000
0010
0100
0000
0000
0100
1000
0000
0000
1000
0010
0000
0000
0000
,
0010
0001
0010
1000
0100
0001
0100
1000
,
0010
0000
0000
0100
0000
0000
0001
0000
0000
0010
0000
0000
0100
0000
1000
0000
0100
0000
1000
0000
0010
0000
0100
0000
,
0001
0000
0000
0000
0000
0000
0000
0000
0000
1001
0000
0000
1001
0000
0000
0000
0000
0000
0010
0000
1000
0000
0010
0000
,
0100
1000
0001
0010
0100
0001
1000
0100
0010
1000
0001
0100
,
1000
0000
0000
0000
0000
0000
0000
0000
0000
1001
0000
0000
1001
0000
0000
0000
0000
0000
0100
0000
0001
0000
0100
0000
,
0010
0001
1000
0100
0010
1000
0001
0010
0100
0001
1000
0010
,
0001
0000
0000
0000
0000
0000
0000
0000
0000
0110
0000
0000
0110
0000
0000
0000
0000
0000
1000
0000
0010
0000
0001
0000
,
0010
1000
0100
0001
0100
1000
0010
0100
0001
0010
0100
1000
,
0010
0010
0100
0001
0001
0010
0100
0100
1000
0010
0010
0100
,
0020
0100
0100
0130
,
1001
0000
0001
0010
0001
0000
0011
0000
0101
0000
0100
0010
0100
0000
0110
0000
,
1100
0000
1000
0100
1000
0000
1100
0000
1010
0000
0010
0100
0010
0000
0110
0000
,
0101
0000
0001
0010
0001
0000
0011
0000
1001
0000
1000
0100
1000
0000
1100
0000
,
0210
0001
1300
1001
,
0001
0010
0001
0010
0001
0000
1000
0100
1000
0100
1000
0000
1001
0000
0000
0000
,
0010
0100
0010
0100
0010
0000
1000
0001
1000
0001
1000
0000
1001
0000
0000
0000
,
0001
0000
0000
0010
1000
0000
0000
1000
0100
0000
0000
0001
0010
0000
0000
0000
,
0001
0010
0100
1000
0001
0100
0010
1000
0001
0010
0100
1000
,
0001
0000
0000
0000
0000
0000
0100
0001
1000
0000
0000
0000
0000
0000
0000
0000
,
0001
0000
0000
0010
1000
0000
0000
0010
0100
0000
0000
1000
0010
0000
0000
0100
,
0001
0000
0000
0010
0001
0000
0000
1000
0010
0000
0000
0100
0001
0000
0000
0001
,
0010
0000
0000
0010
1000
0000
0000
1000
0100
0000
0000
0100
0001
0000
0000
0001
,
0010
0000
0000
0010
0001
0000
0000
0001
0100
0000
0000
0100
1000
0000
0000
1000
,
0020
0000
1030
2000
0000
0001
3002
0000
,
2003
0000
3100
0200
0000
0310
0020
0031
,
0200
0000
0000
0000
0000
0310
0100
0010
,
2002
0000
3003
0220
0000
0330
0001
0100
,
0110
1000
0100
1100
0010
1000
0110
0100
,
1100
1000
0010
0101
0100
0001
0101
0100
,
1010
0100
0001
0101
0010
1000
1100
0100
,
0110
0001
0100
0110
0100
0010
1001
0100
,
0001
0010
0100
2000
0000
0001
3001
0000
,
1000
0010
0100
0002
0000
1000
1003
0000
,
0020
0000
0000
0000
0000
1030
0100
0010
,
2200
0300
3001
0010
0000
1000
0001
0000
,
0022
0030
1003
0100
0000
0001
1000
0000
,
0010
1000
0100
0001
0100
1000
0010
0100
,
0001
0100
1000
0001
0010
0100
0001
0100
,
0001
0100
0010
0100
0001
1000
0010
0100
0010
1000
0010
1000
0100
0010
0001
0100
,
0010
0000
0000
0000
0000
0110
1001
1100
,
0101
0000
0000
0000
0000
0000
1000
0001
2002
0000
0000
0000
0000
0000
0000
0000
,
3003
0000
0000
0000
,
0000
0000
0000
0000
;

//---------------dance-double - ----------------
#NOTES:
     dance-double:
     :
     Easy:
     7:
     :
00000000
00000000
00000000
00000000
,
00000000
00000000
00000000
00000000
,
00000000
00000000
00000000
00000000
,
00000000
00000000
00000000
00000000
,
00000000
00000000
00000000
00000000
,
00100000
10000000
00100000
10010000
,
00100000
00001000
00010000
00011000
,
00000010
00001000
00000001
00000100
,
00000110
00000000
00000000
00000000
,
00000010
00000001
00000100
00001000
,
00010000
00100000
10000000
00000000
,
00100000
10000000
01000000
00010000
,
00001000
00000010
00000001
00000000
,
00002000
00000001
00000100
00003100
,
00020000
00000100
00001000
00031000
,
00100000
00010000
01000000
00100000
,
10000000
01000000
10010000
00000000
,
00010000
00100000
00010000
00001000
,
00000010
00001000
00000100
00000000
,
00001000
00000010
00001000
00010000
,
00100000
00010000
01000000
00000000
,
00020000
00100000
01030000
00011000
,
00002000
00000010
00003100
00011000
,
00010000
00000100
00000010
00000100
,
00010000
00100000
00011000
00000000
,
00010000
01000000
00100000
00000000
,
00100000
00001000
00010000
00000000
,
00010000
00001000
00000010
00000000
,
00000200
00000000
00000320
00000000
,
00000031
00000100
00000010
00000000
,
00001000
00001000
00010000
00000000
,
01000000
01000000
00100000
00000000
,
01100000
10010000
01100000
00000000
,
00100000
01000000
00001000
00010000
,
00002000
00000000
00003000
00000000
,
00001000
00000100
00000001
00000100
,
00002000
00000000
00003000
00000000
,
00020000
00031000
00011000
00011000
,
00002000
00003010
00000110
00000110
,
00002000
00003100
00011000
00011000
,
00020000
00130000
01100000
01100000
,
10000000
00100000
00010000
00001000
,
00000100
00000001
00000000
00000001
,
00000010
00001000
00010000
01000000
,
10000000
00000000
00100000
01000000
,
02200000
00000000
03300000
00010000
,
00022000
00003000
00031000
00000000
,
00001000
00000100
00001000
00010000
,
01000000
00010000
00001000
00010000
,
00011000
00000000
00001001
00000002
,
00000203
00000320
00002030
00003100
,
00011000
00000000
10010000
20000000
,
32000000
03200000
00320000
10030000
,
01100000
00000000
10010000
00020000
,
02030000
03200000
00320000
00032000
,
00003010
00000010
00000100
00000100
,
00001001
00000000
00000000
00000000
,
00000001
00000001
00001000
00001001
,
00010000
00010000
00001000
00011000
,
10000000
10000000
00010000
10010000
,
00100000
00010000
00001000
00000100
,
00000020
00000100
00000001
00000130
,
00000200
00000010
00000001
00000310
,
00001001
00010000
00011000
10000000
,
20000000
30020000
02030000
03200000
,
10300000
00000000
10010000
00000000
,
00200000
00000000
00310000
01000000
,
00002000
00000000
00013000
00000100
,
00000020
00000000
00000031
00001000
,
00000200
00000000
00000310
00000001
,
00000100
00000100
00001000
00001000
,
00010000
00010000
00100000
00100000
,
00010000
00001000
00000100
00000010
,
00000100
00001000
00010000
01000000
,
00200000
00000000
00310000
01000000
,
20000000
00000000
30010000
00100000
,
02000000
00000000
03001000
00010000
,
00002000
00000000
00103000
00010000
,
01000000
00100000
01000000
00000000
00100000
00000000
00011000
00000000
,
00001000
00010000
00001000
00000000
00000010
00000000
00000110
00000000
,
00000001
00001000
00000010
00000100
,
00000002
00000000
00000000
00001003
00000000
00000000
00000000
00000000
,
00020000
00000000
00000000
00031000
00000000
00000000
00000000
00000000
,
20000000
00000000
00000000
30010000
00000000
00000000
00000000
00000000
,
00002000
00000000
00000000
00020000
00000000
00000000
00000000
00000000
,
00000000
00000000
00000000
00000000
,
00033000
00000000
00000000
00000000
00000000
00001000
00010000
00001000
,
00010000
00000000
00011000
00000000
,
00000000
00000000
00000000
00000000
;

//---------------dance-double - ----------------
#NOTES:
     dance-double:
     :
     Medium:
     11:
     :
00000000
00000000
00000000
00000000
,
00000000
00000000
00000000
00000000
,
00000000
00000000
00000000
00000000
,
00000000
00000000
00000000
00000000
,
00000000
00000000
00000000
00000000
,
00000001
00000000
00000010
00000001
00000000
00000100
00000100
00000000
,
00001000
00000000
00010000
00001000
00000000
00010000
00010000
00000000
,
00100000
00000000
10000000
00010000
00000000
10000000
10000000
00000000
,
10010000
01000000
01000000
01000000
,
10000000
00000000
01000000
00100000
00010000
00000000
00100000
00000000
,
00001000
00000000
00000100
00000010
00002000
00000000
00003000
00000000
,
00000001
00000000
00000100
00000010
00001000
00000000
00000010
00000000
,
00010000
00000000
01000000
00100000
00020000
00000000
00030000
00000000
,
10000000
10000000
00100000
01000000
00000000
00000000
00110000
00000000
,
00001000
00001000
00010000
00001000
00000000
00000000
00001100
00000000
,
00000100
00001000
00000010
00010000
,
00001000
00000000
00010000
00001000
00000000
00000100
00000010
00000000
,
00000001
00000000
00000100
00000010
00001000
00000000
00000010
00000000
,
00010000
00000000
01000000
00100000
00020000
00000000
00030000
00000000
,
10000000
00000000
01000000
00100000
00010000
00000000
00100000
00000000
,
00001000
00000000
00000100
00000010
00002000
00000000
00003000
00000000
,
00000001
00000001
00000010
00000100
00000000
00000000
00001010
00000000
,
00010000
00010000
00001000
00010000
00000000
00000000
01010000
00000000
,
01000000
00010000
00100000
00001000
,
00010000
00000000
00001000
00010000
00000000
01000000
00100000
00000000
,
10000000
00000000
00000000
00100000
10000000
00000000
00000000
10000000
00100000
00000000
00000000
00100000
10000000
00000000
00000000
00000000
,
00010000
00000000
00000000
00100000
00001000
00000000
00000000
00001000
00010000
00000000
00000000
00010000
00000100
00000000
00000000
00000000
,
00000010
00000000
00000000
00000001
00000010
00000000
00000000
00000010
00000001
00000000
00000000
00000001
00000010
00000000
00000000
00000000
,
00000001
00000100
00001000
00010000
01000000
10000000
00100000
00000000
,
10000000
00000000
00000000
01000000
10000000
00000000
00000000
10000000
01000000
00000000
00000000
01000000
10000000
00000000
00000000
00000000
,
00010000
00000000
00000000
01000000
00001000
00000000
00000000
00001000
00010000
00000000
00000000
00010000
00000010
00000000
00000000
00000000
,
00000100
00000000
00000000
00000001
00000100
00000000
00000000
00000100
00000001
00000000
00000000
00000001
00000100
00000000
00000000
00000000
,
00000001
00000010
00000000
00000100
00000000
00001000
00000000
00000000
00000110
00000000
00000000
00000000
00000000
00000000
00000000
00000000
,
00000010
00000001
00000100
00000000
00000010
00001000
00000100
00000000
,
00001000
00000100
00010000
00000000
00001000
00100000
00010000
00000000
,
00100000
00010000
01000000
00000000
00100000
10000000
01000000
00000000
,
10000000
01000000
00100000
00010000
00001000
01000000
10000000
00000000
,
01100000
00000000
00000000
10010000
00000000
00000000
00010000
00100000
00010000
00100000
00000000
00000000
,
00101000
00000000
00000000
00011000
00000000
00000000
00010000
00001000
00010000
00001000
00000000
00000000
,
00010000
00000100
00010000
00000100
00000000
00000000
00000010
00000100
00000010
00000100
00000000
00000000
,
00010000
00000010
00010000
00000010
00000000
00000000
00001000
00000100
00000010
00000001
00000000
00000000
,
00001000
00000000
00000100
00000000
00010000
00001000
00100000
00000000
,
00001000
00000000
00010000
00000000
00000100
00001000
00000010
00000000
,
00000001
00000100
00001000
00000100
00000000
00000000
00000100
00001000
00000100
00000001
00000000
00000000
,
00000010
00000000
00000000
00000100
00000000
00000000
00010000
00000000
00000000
00001000
00010000
01000000
,
10000000
00000000
00000000
00100000
00000000
00000000
01000000
00000000
00000000
00010000
01000000
00001000
,
00010000
00001000
00100000
01000000
,
10000000
01000000
10000000
00000000
00010000
01000000
00010000
00000000
,
00110000
00011000
00001100
00000110
,
00001001
00000000
00000000
00000100
00000010
00000000
00000011
00000000
,
00001100
00001010
00000101
00000110
,
00001001
00000000
00000000
00010000
00001000
00000000
00011000
00000000
,
00110000
00011000
00001010
00011000
,
00110000
00000000
00000000
01000000
00100000
00000000
00110000
00000000
,
11000000
10100000
01010000
01100000
,
10000000
01000000
00100000
00000000
00010000
01000000
00100000
00000000
,
20020000
00000000
00000000
30030000
,
00100000
10000000
01000000
00010000
00001000
00000000
01000000
00000000
,
00100000
10000000
00010000
01000000
00100000
00000000
00101000
00000000
,
00001000
00000100
00000001
00000010
00000100
00000000
00000010
00000000
,
00000100
00001000
00000010
00000001
00000010
00000000
00010010
00000000
,
00001000
00001000
00000000
00010000
00010000
00000000
00110000
00000000
,
00001000
00001000
00000000
00010000
00010000
00000000
00001100
00000000
,
00000010
00000010
00000000
00000100
00000100
00000000
00001001
00000000
,
00000001
00000010
00001000
00100000
,
10010000
00000000
00000000
10010000
10010000
00000000
00000000
00000000
,
00000000
10000000
00000000
00010000
00000000
00100000
00000000
00001000
,
00000000
00000100
00000010
00001000
00000000
00000001
00000010
00000100
,
00000000
00000001
00000000
00001000
00000000
00000010
00000000
00010000
,
00000000
01000000
00100000
10000000
00000000
01000000
00100000
00010000
,
00000000
00100000
00001000
00010000
00010000
00000000
00011000
00000000
,
00000000
00000100
00010000
00001000
00001000
00000000
00011000
00000000
,
00000000
00010000
00000000
00001000
00000000
00010000
01000000
10000000
,
00100000
00000000
00010000
00001000
00000000
00000010
00000100
00000000
,
00000001
00001000
00000100
00000000
00000020
00000000
00000130
00000000
,
00000100
00010000
00000010
00000000
00001000
00000000
01000000
00000000
,
10000000
00010000
01000000
00000000
00200000
00000000
01300000
00000000
,
00100000
00001000
01000000
00000000
01001000
00000000
00011000
00000000
,
00001000
00001000
00000100
00000001
00000000
00000010
00000100
00000000
,
00010000
00010000
01000000
10000000
00000000
00100000
01000000
00000000
,
10000000
00100000
01000000
00011000
,
00001000
00000100
00000010
00001000
00000000
00000100
00000100
00000000
,
00010000
01000000
00100000
00010000
00000000
01000000
01000000
00000000
,
00001000
00000100
00000010
00001000
00000000
00000010
00000010
00000000
,
00010000
01000000
00100000
00020000
00000000
00100000
00000000
00100000
,
00000000
10000000
00000000
10000000
00000000
01000000
00000000
01030000
,
00000000
00000000
00000000
00000000
00000000
00010000
00001000
00000100
,
00000001
00000000
00000000
00000100
00000220
00000000
00000000
00000000
,
00000330
00000000
00000000
00000000
,
00000000
00000000
00000000
00000000
;

//---------------dance-double - ----------------
#NOTES:
     dance-double:
     :
     Hard:
     16:
     :
00000000
00000000
00000000
00000000
,
00000000
00000000
00000000
00000000
,
00000000
00000000
00000000
00000000
,
00000000
00000000
00000000
00000000
,
00000000
00000000
00000000
00000000
,
00002000
00000000
00000000
00000000
00000000
00000000
00000000
00000000
00000000
00013000
01000000
10000000
,
00020000
00000000
00000000
00000000
00000000
00000000
00000000
00000000
00000000
01030000
00001000
00010000
,
00000200
00000000
00000000
00000000
00000000
00000000
00000000
00000000
00000000
00010300
00100000
10000000
,
00010000
00000000
00000000
00000000
00000000
10000000
00010000
00100000
,
00001000
00000000
00010000
00010100
00000000
00001000
00010100
00000000
,
00000010
00000000
00000001
00000101
00000000
00000010
00000101
00000000
,
00001000
00000000
00010000
00011000
00000000
01000000
00011000
00000000
,
00100000
00000000
10000000
11000000
00000000
00100000
11000000
00000000
,
00100000
01000000
00001000
00010000
00000000
00001000
00010000
00001000
,
00000100
00000001
00000010
00000001
00000000
00000001
00001000
00000100
,
00000010
00000000
00000001
00000010
00000001
00000000
00000100
00000010
00000100
00000000
00001000
00000100
00001000
00000000
00010000
00001000
,
00010000
00000000
00100000
00010000
00100000
00000000
01000000
00100000
01000000
00000000
10000000
01000000
10000000
00000000
00100000
00000000
,
10000000
01000000
00010000
00001000
00000100
00000001
00000010
00000011
,
00000001
00000010
00001000
00010000
00100000
10000000
01000000
11000000
,
10000000
00100000
00010000
00001000
00000010
00000001
00000010
00000011
,
00000001
00000100
00001000
00010000
01000000
10000000
00100000
10000000
,
02000000
00000000
10000000
20000000
03000000
00100000
00200000
30000000
,
02300000
00000000
00010000
03020000
00000000
00100000
00200000
00030000
,
01300000
00000000
10000000
01000000
10000000
00000000
00100000
01000000
00100000
00000000
00010000
00100000
00010000
00000000
00001000
00010000
,
00001000
00000000
00000100
00001000
00000100
00000000
00000010
00000100
00000010
00000000
00000001
00000010
00000001
00000000
00000100
00000000
,
00000010
00000000
00001000
00000100
00010000
00000000
00010000
00000000
00001000
00000000
01000000
00000000
01000000
00010000
01000000
00000000
,
00100000
00000000
10000000
00010000
00100000
00000000
00100000
00000000
00001000
00000000
00010000
00000000
00010000
00000100
00010000
00000000
,
00000010
00000000
00001000
00000100
00010000
00000000
00010000
00000000
00000100
00000000
00001000
00000000
00001000
00000001
00001000
00000000
,
00000010
00000000
00001000
00000100
00010000
00000000
00010000
00000000
00001000
00000000
01000000
00000000
01000000
00010000
01000000
00000000
,
00100000
00000000
10000000
01000000
10000000
00000000
10000000
00000000
01000000
00000000
00010000
00000000
00010000
00001000
00010000
00000000
,
00001000
00000000
00010000
00000100
00001000
00000000
00001000
00000000
00000100
00000000
00000010
00000000
00000010
00000100
00000010
00000000
,
00000001
00000000
00000001
00000010
00000100
00000000
00000100
00000000
00001000
00000000
00000100
00000000
00000100
00010000
00000100
00000000
,
00010000
00000000
00000000
00001000
00000000
00000000
00000000
00000000
00000000
00001000
00000000
00000000
00000000
00000000
00000000
00001000
00000000
00000000
00010000
00000000
00000000
00001000
00000000
00000000
01000000
00000000
00000000
00000000
00000000
00000000
00000000
00000000
00000000
00000000
00000000
00000000
00000000
00000000
00000000
00000000
00010000
00000000
00000000
00000000
00000000
00000000
00000000
00000000
,
10000000
00000000
01000000
00000000
00010000
00000000
00001000
00000100
00000001
00000100
00001000
00000100
,
00000001
00000100
00000000
00000010
00001001
00000000
00000100
00000001
,
00001000
00000000
00000000
00000100
00000000
00000000
00000000
00000000
00000000
00000010
00000000
00000000
00000001
00000000
00000100
00000000
00001000
00000000
00010000
00000000
00000010
00000000
00000100
00000000
,
00000001
00000000
00001000
00000000
00000100
00000000
00001001
00000000
00000000
00000110
00000000
00000000
,
00000010
00000100
00001000
00010000
00001000
00000100
00000010
00000100
00001000
00010000
00100000
00010000
,
00001000
00000100
00000010
00010000
00001000
00000100
00000010
00001000
00000100
00000010
00000001
00000100
,
00000010
00000100
00001000
00010000
00100000
01000000
00001000
00010000
00100000
01000000
10000000
01000000
,
00100000
10000000
01000000
00100000
00010000
01000000
00100000
00010000
00001000
00000100
00000010
00001000
,
00000100
00000000
00001000
00000100
00001000
00000100
00000010
00000001
,
00000010
00000001
00000100
00000010
00001000
00000100
00000010
00000000
,
00001000
00010000
00001000
00000100
00000001
00000100
00001000
00010000
00001000
00000100
00000001
00000100
,
00001000
00010000
01000000
10010000
,
21000000
00010000
00010000
30020000
,
00230000
00301000
00101000
00010100
,
00000010
00000100
00001000
00010000
,
00100000
00000000
00000000
01000000
00000000
00000000
10000000
01000000
00010000
00100000
00001000
00010000
,
00011000
00000000
00000000
00000000
00000000
00000000
00000000
00000000
00000000
00011000
00000000
00000000
00011000
00000000
00000000
00000000
00000000
00000000
00010000
00000000
00001000
00000000
00000100
00000000
,
00000001
00000010
00000100
00010000
00001000
00000100
00000001
00000010
00000100
00010000
00001000
00010000
,
00011000
00000000
00000000
00000000
00000000
00000000
00000000
00000000
00000000
00011000
00000000
00000000
00011000
00000000
00000000
00000000
00000000
00000000
00001000
00000000
00010000
00000000
00100000
00000000
,
10000000
01000000
00100000
00001000
00010000
00100000
10000000
01000000
00100000
00001000
00010000
00001000
,
00011000
00000000
00000000
00000000
00000000
00000000
00000000
00000000
00000000
00011000
00000000
00000000
00011000
00000000
00000000
00000000
00000000
00000000
00000100
00000000
00001000
00000000
00010000
00000000
,
00001000
00000100
00001000
00010000
00100000
00010000
00001000
00010000
00100000
01000000
00100000
00010000
,
00100000
01000000
10000000
01000000
00100000
10000000
01000000
00100000
10000000
00100000
00010000
10000000
,
00020000
00000000
00000000
00030000
,
01000000
00000000
01000000
00100000
01000000
00000000
01000000
00000000
00001000
00000000
00001000
00010000
00001000
00000000
00001000
00000000
,
00000100
00000000
00000100
00000010
00000100
00000000
00000100
00000000
00000001
00000000
00000001
00000010
00000001
00000000
00000001
00000000
,
00000010
00000000
00000010
00000100
00000010
00000000
00000010
00000000
00001000
00000000
00001000
00010000
00001000
00000000
00001000
00000000
,
00100000
00000000
00100000
01000000
00100000
00000000
00100000
00000000
01000000
00000000
01000000
10000000
01000000
00000000
01000000
00000000
,
10000000
00000000
00010000
10000000
00010000
00000000
01000000
00000000
00001000
00100000
00001000
00000000
00001000
00000000
00000000
00000000
,
00010000
00000000
00000100
00001000
00000100
00000000
00000010
00000000
00000001
00000100
00000001
00000000
00000001
00000000
00000000
00000000
,
00002000
00000000
00000000
00003002
00000000
00001003
00000100
00000000
,
00010000
00001000
00100000
00010000
01000000
00100000
10000000
01000000
00010000
00001000
00100000
00010000
,
01000000
00000000
00000000
00000000
00000000
00000000
00100000
01000000
00100000
00000000
00000000
00000000
10000000
00000000
01000000
00000000
,
00200000
00000000
00000000
00000000
00000000
00000000
00000000
00000000
00000000
00001000
00000000
00000000
00302000
00000000
00000000
00000000
00100000
00000000
00000000
00000000
00020000
00003000
00000000
00000000
,
00030200
00000000
00000000
00000000
00000000
00000310
00000001
00001000
,
00000200
00000000
00000000
00000000
00000000
00000000
00000000
00000000
00000000
00010000
00000000
00000000
00020300
00000000
00000000
00000000
00001000
00000000
00000000
00000000
00200000
00030000
00000000
00000000
,
02300000
00000000
00000000
00000000
,
03200000
00000000
10000000
10000000
00000000
01000000
01000000
00000000
,
00320000
00000000
00000000
00032000
00000000
00003010
00000001
00000100
,
00000020
00000000
00000000
00000000
00000000
00010030
00001000
00000100
,
00000020
00000000
00000000
00002000
00000000
00003000
00000130
00000000
,
00000001
00000000
00000010
00000100
00000010
00000000
00000010
00000000
00000100
00000000
00000100
00001000
00000100
00001000
00000100
00000000
,
00010000
00000000
00001000
00010000
00001000
00000000
00001000
00000000
00100000
00000000
00100000
00010000
00100000
00010000
00100000
00000000
,
01000000
00000000
10000000
01000000
10000000
00000000
10000000
00000000
00100000
00000000
00100000
01000000
00100000
01000000
00100000
00000000
,
00010000
00000000
00001000
00010000
00001000
00000000
00001000
00000000
00010000
00000000
00010000
00000100
00010000
00000100
00010000
00000000
,
00001000
00000000
00011000
00011000
00010100
00010100
00001100
00001001
,
00000102
00000000
00000000
00000100
00000000
00000103
00000010
00000100
,
00000020
00000000
00000000
00000000
00000000
00001030
00000001
00000100
,
00000202
00000000
00000303
00002020
00000000
00003030
00022000
00033000
,
00220000
00000000
00330000
02200000
00000000
03300000
20200000
30300000
,
22000000
00000000
33000000
00220000
00000000
00330000
00022000
00033000
,
00002020
00000000
00003030
00000220
00000000
00000330
00000022
00000000
,
00000000
00000000
00000000
00000000
,
00000033
00000000
00000000
00000000
00000000
00000001
00001000
00010000
,
00001000
00000000
00000000
00000000
00000000
00000000
00010000
00001000
00020000
00000000
00000000
00000000
00000000
00000000
00000000
00000000
,
00030000
00000000
00000000
00000000
,
00000000
00000000
00000000
00000000
;

//---------------dance-double - ----------------
#NOTES:
     dance-double:
     :
     Challenge:
     18:
     :
00000000
00000000
00000000
00000000
,
00000000
00000000
00000000
00000000
,
00000000
00000000
00000000
00000000
,
00000000
00000000
00000000
00000000
,
00000000
00000000
00000000
00000000
,
00000001
00000010
00000100
00001000
00000100
00000010
00000001
00000010
00001000
00010000
00100000
10000000
,
01000000
00100000
00010000
01000000
00100000
10000000
01000000
00100000
00010000
10000000
01000000
00010000
,
00001000
00000100
00000001
00000010
00001000
00010000
00100000
10000000
00100000
01000000
10000000
01000000
,
00020000
00100000
00100000
00130000
,
00011000
00000000
00000000
00000100
00001000
00000000
00000010
00000000
00000001
00000000
00000000
00000010
00000100
00000000
00000001
00000000
,
00000010
00000000
00000000
00000100
00001000
00000000
00000100
00000000
00010000
00000000
00001000
00010000
00001000
00000000
00010000
00000000
,
00011000
00000000
00000000
01000000
00010000
00000000
00100000
00000000
10000000
00000000
00000000
00100000
01000000
00000000
10000000
00000000
,
00100000
00000000
00000000
01000000
00010000
00000000
01000000
00000000
00001000
00000000
00010000
00001000
00010000
00000000
00001000
00000000
,
00100000
01000000
01000000
00100000
00001000
00001000
00001010
00000000
,
00000010
00000100
00000100
00000010
00010000
00010000
00110000
00000000
,
00100000
00000000
00010000
01000000
00010000
00000000
10000000
00100000
10000000
00000000
00100000
01000000
00010000
00000000
10000000
00010000
,
01000000
00000000
00010000
00100000
00001000
00000000
00010000
00000100
00001000
00000000
00000100
00001000
00000100
00000010
00000001
00000010
,
00000100
00000000
00000000
00000100
00000010
00000000
00000001
00000000
00000010
00000000
00001000
00000000
00011000
00000000
00011000
00000000
,
00010000
00000000
00000000
01000000
00100000
00000000
10000000
00000000
00100000
00000000
00010000
00000000
00011000
00000000
00011000
00000000
,
00010000
00000000
00000000
01000000
00100000
00000000
10000000
00000000
00100000
00000000
00010000
00000000
00011000
00000000
00011000
00000000
,
00001000
00000000
00000000
00000100
00000010
00000000
00000001
00000000
00000010
00000000
00001000
00000000
00011000
00000000
00011000
00000000
,
00002000
00003100
00000010
00000002
00000013
00000100
00000002
00000013
,
00000200
00000301
00001000
00020000
00130000
01000000
10010000
00000000
,
00100000
00000000
00010000
01000000
00010000
00000000
10000000
00100000
10000000
00000000
00100000
01000000
00010000
00000000
10000000
00010000
,
01000000
00000000
00010000
00100000
00001000
00000000
00010000
00000100
00001000
00000000
00000100
00001000
00000100
00000010
00000001
00000010
,
00000200
00000000
00000000
00000310
00000001
00000000
00001000
00000100
00000010
00000000
00000001
00000100
00000010
00001000
00000100
00000010
,
00000002
00000000
00000000
00000013
00000100
00000000
00001000
00000100
00010000
00000000
00001000
00010000
00001000
00000100
00001000
00010000
,
00002000
00000000
00000000
00013000
00001000
00000000
00010000
00001000
01000000
00000000
00001000
00010000
01000000
00010000
00001000
00010000
,
00002000
00000000
00000000
00013000
01000000
00000000
10000000
01000000
00100000
00000000
00010000
01000000
00100000
10000000
01000000
10000000
,
02000000
00000000
00000000
13000000
00100000
00000000
00100000
00010000
00100000
00000000
00100000
01000000
00100000
00010000
00001000
00010000
,
00002000
00000000
00000000
00013000
00001000
00000000
00001000
00010000
00001000
00000000
00001000
00010000
00001000
00000100
00001000
00000100
,
00000020
00000000
00000000
00000130
00000010
00000000
00000010
00000100
00000001
00000010
00000100
00000000
00000100
00001000
00000010
00000100
,
00000001
00000000
00000000
00000010
00000000
00000000
00000000
00000000
00000000
00000100
00000000
00000000
00000000
00000000
00000000
00001000
00000000
00000000
00000010
00000000
00000000
00000100
00000000
00000000
00000001
00000000
00000000
00000000
00000000
00000000
00000000
00000000
00000000
00000000
00000000
00000000
00000000
00000000
00000000
00000000
00001001
00000000
00000000
00000000
00000000
00000000
00000000
00000000
,
00001100
00000000
00000000
00000000
00011000
00000000
00000000
00000000
00001100
00000000
00000000
00000000
00010000
00000100
00001000
00000000
00000100
00000000
00010000
00000000
00001000
00000000
00010000
00000000
,
00001000
00020000
00000000
00000000
00031000
00000000
00011000
00000000
,
00010000
00000000
00000000
01000000
00000000
00000000
00000000
00000000
00000000
01100000
00000000
00000000
00100000
00000000
01000000
00000000
00100000
00000000
10000000
00000000
00100000
00000000
00010000
00000000
,
00001000
00000000
00000100
00000000
00000001
00000000
00000110
00000000
00000000
00001001
00000000
00000000
,
00000001
00000000
00000010
00000000
00000001
00000000
00000000
00001000
00000000
00000000
00000000
00000000
00000010
00000000
00000000
00000000
00000100
00000000
00000000
00000000
00000001
00000000
00000000
00000000
00000100
00000000
00000000
00000000
00001000
00000000
00000000
00000000
00010000
00000000
00000000
00000000
00001000
00000000
00000000
00000000
00010000
00000000
00000000
00000000
00001000
00000000
00010000
00000000
,
00001000
00000000
00100000
00000000
01000000
00000000
10000000
00000000
00100000
00000000
01000000
00000000
00010000
00000000
00100000
00000000
01000000
00000000
10000000
01000000
10000000
00000000
01000000
00000000
,
10000000
00100000
01000000
00010000
00100000
00001000
00010000
00000100
00001000
00000010
00000100
00000001
,
00000010
00000001
00000010
00000000
00000100
00000000
00001000
00000000
00000100
00000000
00010000
00000000
00001000
00100000
00010000
00000000
01000000
00000000
00100000
00000000
10000000
00000000
01000000
00000000
,
00100000
00000000
00000000
00010000
01000000
00000000
00100000
00000000
10000000
00000000
01000000
00000000
00100000
00000000
00010000
00000000
,
00001000
00000000
00000000
00001000
00000100
00000000
00000001
00000000
00000100
00000000
00001000
00000000
00000010
00000000
00000100
00000000
,
00000010
00000001
00000010
00001000
00000010
00000001
00000010
00001000
00010000
00100000
10000000
00100000
,
02000000
00000000
00000000
00000000
00000000
00000000
03000000
00000000
00000000
01000000
00010000
00100000
,
01000000
00000000
00000000
00000000
00000000
00000000
00000000
00000000
00000000
10000000
00000000
00000000
01000000
00000000
00000000
00000000
00000000
00000000
00000000
00000000
00000000
01000000
00000000
00000000
00100000
00000000
00000000
00000000
00000000
00000000
00000000
00000000
00000000
00100000
00000000
00000000
00010000
00000000
00000000
00000000
00001000
00000000
00000000
00000000
00000100
00000000
00000000
00000000
,
00000010
00000000
00000000
00000001
00000100
00000000
00000000
00000100
00000010
00000000
00000000
00000010
00001000
00000000
00000000
00000000
,
00001000
00000010
00000001
00000010
00001000
00000100
00000001
00000100
,
00001000
00000000
00000000
00010000
00000000
00000000
01000000
00000000
00000000
10000000
00000000
00000000
01000000
00000000
00010000
00000000
00100000
00000000
10000000
00000000
00100000
00000000
01000000
00000000
,
10000000
00000000
00000000
00000000
00000000
00000000
00000000
00000000
00000000
10010000
00000000
00000000
10010000
00000000
00000000
00000000
00000000
00000000
00100000
00000000
10000000
00000000
00100000
00000000
,
01000000
10000000
00010000
00100000
00010000
00001000
00000100
00000010
00001000
00000001
00000010
00000100
,
00001000
00000000
00000000
00000000
00000000
00000000
00000000
00000000
00000000
00001001
00000000
00000000
00001001
00000000
00000000
00000000
00000000
00000000
00000100
00000000
00000001
00000000
00000100
00000000
,
00000010
00000001
00001000
00000100
00001000
00010000
00100000
01000000
00010000
10000000
01000000
00100000
,
00010000
00000000
00000000
00000000
00000000
00000000
00000000
00000000
00000000
01100000
00000000
00000000
01100000
00000000
00000000
00000000
00000000
00000000
10000000
00000000
00100000
00000000
00010000
00000000
,
00100000
00010000
10000000
00000000
01000000
00000000
00010000
00000000
01000000
00000000
10000000
00000000
00100000
00000000
00010000
00000000
00001000
00000000
00000100
00000000
00000010
00000000
00000100
00000000
,
00000001
00000000
00000000
00000000
00000001
00000000
00000000
00000000
00000010
00000000
00000000
00000000
00000100
00000000
00000000
00000000
00001000
00000000
00000000
00000010
00000000
00000000
00000000
00000000
00000100
00000000
00000000
00000000
00000100
00000000
00000000
00000000
00000001
00000000
00000000
00000000
00000010
00000000
00000000
00000000
00000100
00000000
00000000
00000000
00000010
00000000
00000000
00000000
,
00000200
00000010
00000000
00000010
00000000
00000010
00000310
00000000
,
00000110
00000000
00000100
00000010
00000100
00000000
00000010
00000000
00010100
00000000
00000100
00010000
00000100
00000000
00010000
00000000
,
00011000
00000000
00010000
00001000
00010000
00000000
00001000
00000000
00101000
00000000
00100000
00001000
00100000
00000000
00001000
00000000
,
01001000
00000000
01000000
00001000
01000000
00000000
00010000
00000000
01010000
00000000
00010000
01000000
00010000
00000000
01000000
00000000
,
02100000
00010000
13000000
10010000
,
00010000
00100000
00010000
00100000
00010000
00000000
10000000
01000000
00010000
01000000
00010000
00000000
00011000
00000000
00000000
00000000
,
00001000
00000100
00001000
00000100
00001000
00000000
00001000
00000100
00000001
00000100
00000001
00000000
00001001
00000000
00000000
00000000
,
00000001
00000000
00000000
00000010
00000100
00000000
00000000
00000100
00000010
00000000
00000000
00000010
00001000
00000000
00000000
00000000
,
00010000
00001000
00010000
01000000
10000000
01000000
00010000
00001000
00000100
00000001
00000010
00000100
,
00001000
00000000
00000000
00000000
00000000
00000000
00000001
00001000
00000001
00000000
00000000
00000000
00000000
00000000
00000000
00000000
,
00000001
00000000
00000000
00000010
00000100
00000000
00000000
00000010
00000001
00000000
00000000
00000100
00000010
00000000
00000000
00000010
,
00001000
00000000
00000000
00001000
00000100
00000000
00000000
00000100
00010000
00000000
00000000
00010000
00001000
00000000
00000000
00001000
,
00100000
00000000
00000000
00100000
00010000
00000000
00000000
00010000
01000000
00000000
00000000
01000000
00100000
00000000
00000000
00100000
,
10000000
00000000
00000000
10000000
01000000
00000000
00000000
01000000
00010000
00000000
00000000
00010000
00001000
00000000
00000000
00001000
,
00000020
00000000
00000031
00000002
00000000
00001003
00001100
00000000
,
00020000
00000000
00031000
00002000
00000000
00013000
00110000
00000000
,
02000000
00000000
00000000
00000000
00000000
03100000
00010000
00001000
,
00020000
00000000
00030000
00200000
00000000
00300000
00010000
01000000
,
01100000
10000000
01000000
11000000
00100000
00010000
00110000
00001000
,
00011000
00000100
00000010
00001010
00000001
00000100
00000101
00000010
,
00000110
00000001
00000010
00000110
00000100
00001000
00001100
00000100
,
00011000
00010000
01000000
00110000
01000000
00100000
10010000
01000000
,
00010000
00100000
01000000
20000000
00000000
00010000
30010000
00000000
,
00100000
00001000
00010000
00002000
00000000
00000100
00003100
00000000
,
00000020
00000000
00000000
00000000
00000000
00000031
00000100
00000010
,
00000110
00000000
00001000
00000100
00000000
00000000
01100000
00000000
,
11000000
00000000
00100000
00010000
00000000
00000000
00000110
00000000
,
00000010
00000001
00000100
00001000
00010000
00100000
10000000
01000000
,
00010000
00001000
00000010
00000001
00000010
00001000
00000010
00000001
,
00000010
00000001
00000010
00000100
00001000
00000010
00001000
00000100
00010000
00001000
00100000
00010000
00100000
00001000
00010000
00100000
,
01000000
00000000
00000000
00000000
00000000
01100000
10010000
00110000
,
00011000
00000000
00000000
00000000
00000000
00000000
00001000
00010000
00022000
00000000
00000000
00000000
00000000
00000000
00000000
00000000
,
00033000
00000000
00000000
00000000
,
00000000
00000000
00000000
00000000
;
