#TITLE:創世ノート;
#ARTIST:PON+wac;
#TITLETRANSLIT:Sousei Note;
#BANNER:Sousei Note.png;
#BACKGROUND:Sousei Note-bg.png;
#CDTITLE:./CDTitles/DanceDanceRevolution 2013.png;
#MUSIC:Sousei Note.ogg;
#SAMPLESTART:76.701;
#SAMPLELENGTH:15;
#BPMS:0=200;
#STAGE:16;

//---------------dance-single - ----------------
#NOTES:
     dance-single:
     :
     Beginner:
     2:
     :
0000
0000
0000
0000
,
0000
0000
0000
0000
,
0000
0000
0000
0000
,
0000
0000
0000
0000
,
0000
0000
0000
0000
,
0000
0000
0000
0000
,
0000
0000
0000
0000
,
0000
0000
0000
0000
,
0000
0000
0000
0000
,
0000
0000
0000
0000
,
0020
0000
0000
0000
,
0000
0000
0000
0000
,
0000
0000
0000
0000
,
0030
0000
0000
0000
,
0200
0000
0000
0000
,
0000
0000
0000
0000
,
0000
0000
0000
0000
,
0300
0000
0000
0000
,
0001
0000
0000
0000
,
0001
0000
0000
0000
,
1000
0000
0000
0000
,
1000
0000
0000
0000
,
0020
0000
0000
0000
,
0000
0000
0030
0000
,
0200
0000
0000
0000
,
0000
0000
0300
0000
,
0001
0000
0001
0000
,
1000
0000
0000
0000
,
1000
0000
1000
0000
,
0001
0000
0000
0000
,
0010
0000
0010
0000
,
0100
0000
0000
0000
,
0100
0000
0100
0000
,
0010
0000
0000
0000
,
0001
0001
0001
0000
,
0000
0000
0000
0000
,
1000
0000
0000
0000
,
0001
0000
0000
0000
,
1000
1000
1000
0000
,
0000
0000
0000
0000
,
0001
0000
0000
0000
,
1000
0000
0000
0000
,
0020
0000
0000
0000
,
0000
0000
0000
0000
,
0000
0000
0030
0000
,
0200
0000
0000
0000
,
0000
0000
0000
0000
,
0000
0300
0000
0000
,
0001
0000
0000
0000
,
0100
0000
0000
0000
,
0010
0000
0000
0000
,
1000
0000
0000
0000
,
0001
0001
0001
0000
,
0000
0000
0000
0000
,
1000
1000
1000
0000
,
0000
0000
0000
0000
,
1001
0000
0000
0000
,
0000
0000
0000
0000
,
1001
0000
0000
0000
,
0000
0000
0000
0000
,
0110
0000
0000
0000
,
0000
0000
0000
0000
,
0110
0000
0000
0000
,
0000
0000
0000
0000
,
0010
0010
0010
0000
,
0000
0000
0100
0000
,
0001
0000
0000
0000
,
1000
0000
0000
0000
,
0100
0100
0100
0000
,
0010
0000
0000
0000
,
0001
0000
0000
0000
,
1000
0000
0000
0000
,
0010
0000
0000
0000
,
0010
0000
0000
0000
,
0100
0000
0000
0000
,
0100
0000
0000
0000
,
0001
0000
0000
0000
,
0001
0000
0000
0000
,
1000
0000
0000
0000
,
1000
0000
0000
0000
,
1001
0000
0000
0000
,
0000
0000
0000
0000
,
1001
0000
0000
0000
,
0000
0000
0000
0000
,
0110
0000
0000
0000
,
0000
0000
0000
0000
,
0110
0000
0000
0000
,
0000
0000
0000
0000
,
1001
0000
0000
0000
,
0010
0000
0000
0000
,
0010
0000
0000
0000
,
0100
0000
0000
0000
,
0100
0000
0000
0000
,
0001
0000
0000
0000
,
0001
0000
0000
0000
,
1000
0000
0000
0000
,
1000
0000
0000
0000
,
1001
0000
0000
0000
,
0000
0000
0000
0000
;

//---------------dance-single - ----------------
#NOTES:
     dance-single:
     :
     Easy:
     8:
     :
0000
0000
0000
0000
,
0000
0000
0000
0000
,
0000
0000
0000
0000
,
0000
0000
0000
0000
,
0000
0000
0000
0000
,
0000
0000
0000
0000
,
0000
0000
0000
0000
,
0000
0000
0000
0000
,
0000
0000
0000
0000
,
0000
0000
0000
0000
,
2000
0000
0000
0000
,
0000
0000
0000
0000
,
3002
0000
0000
0000
,
0023
0000
0000
0000
,
0230
0000
0000
0000
,
0000
0000
0000
0000
,
0320
0000
0000
0000
,
0032
0000
0000
0000
,
2003
0001
0000
3001
,
0002
1000
0000
1003
,
0020
0100
0000
0130
,
0200
0010
0000
0310
,
1000
0000
0000
1000
0000
0000
1000
0000
,
0001
0000
0000
0001
0000
0000
0001
0000
,
0010
0000
0000
0010
0000
0000
0010
0000
,
0200
0000
0000
0000
,
0310
0001
0010
0000
,
0100
0010
0100
0000
,
1000
0100
1000
0000
,
1001
0000
0110
0000
,
1000
0010
1000
0000
,
0100
0010
0100
0000
,
0010
0001
0010
0000
,
1001
0000
0110
0000
,
0010
1000
0100
1000
,
0010
0100
0010
0000
,
0100
0001
0010
0001
,
0010
0100
0010
0000
,
0001
1000
0100
1000
,
0010
0100
0001
0000
,
1000
0001
0100
0001
,
0010
0100
1000
0000
,
1000
0000
0000
1000
0000
0000
0100
0000
,
0000
0100
0000
0000
0010
0000
0000
0010
,
0000
0000
0001
0000
0000
0001
0000
0000
,
1000
0000
0000
1000
0000
0000
0010
0000
,
0000
0010
0000
0000
0100
0000
0000
0100
,
0000
0000
0001
0000
0000
0001
0000
0000
,
0010
0100
1000
0000
,
0010
0100
0001
0000
,
1000
0001
1000
0000
,
0110
1001
0110
0000
,
0001
0001
0010
0010
,
0100
0100
0010
1001
,
1000
1000
0100
0100
,
0010
0010
0100
1001
,
2000
0000
0000
0000
,
3020
0000
0000
0000
,
0230
0000
0000
0000
,
0302
0000
0000
0000
,
1003
1000
0001
0001
,
0100
0100
0010
0010
,
2002
0000
0000
0000
,
0000
0000
3003
0000
0000
0100
0100
0000
,
1000
0100
1000
0000
0010
0000
0100
0000
,
0001
0010
0100
1000
,
0010
0110
0001
1001
,
0100
0010
0100
0000
,
0001
0001
1000
1000
,
0020
0130
0020
1030
,
0200
0000
0310
0001
,
1000
0010
1001
0000
,
0001
0100
0001
0000
0010
0000
0100
0000
,
1000
0010
0100
0001
,
0010
0110
1000
1001
,
0100
0010
0100
0000
,
1000
1000
0001
0001
,
0100
1001
0010
0110
,
1000
1000
0100
0010
,
0100
0000
0000
0010
0000
0000
0000
0000
,
0001
0000
0010
0001
0010
0000
0000
0000
,
0100
0000
0001
0100
0001
0000
0000
0000
,
0010
0000
0100
0010
0100
0000
0000
0000
,
1000
0000
0100
1000
0100
0000
0000
0000
,
1000
0000
0100
0010
0100
0000
0000
0000
,
0010
0000
0001
0010
0001
0000
0000
0000
,
0100
0000
0001
0100
0001
0000
0000
0000
,
1000
0000
0100
1000
0001
0000
0000
0000
,
0010
0100
0010
0100
0000
0000
0000
0000
,
0010
0001
0010
0000
,
0100
0010
0100
0000
,
1000
0100
1000
0000
,
1001
0000
0110
0000
,
1000
0010
1000
0000
,
0100
0010
0100
0000
,
0010
0001
0010
0000
,
1001
0000
0110
0000
,
2002
0000
0000
0000
,
0000
0000
0000
0000
0000
0000
0000
3003
,
0000
0000
0000
0000
;

//---------------dance-single - ----------------
#NOTES:
     dance-single:
     :
     Medium:
     10:
     :
0000
0000
0000
0000
,
0000
0000
0000
0000
,
0000
0000
0000
0000
,
0000
0000
0000
0000
,
0000
0000
0000
0000
,
0000
0000
0000
0000
,
0000
0000
0000
0000
,
0000
0000
0000
0000
,
0000
0000
0000
0000
,
0000
0000
0000
0000
,
0020
0000
0000
0000
,
0030
0000
1000
0001
,
0200
0000
0000
0000
,
0310
1000
0100
0000
0010
0001
0100
0000
,
2002
0000
0000
0000
,
3003
0000
0100
0010
,
0001
0010
0100
0000
1000
0000
0100
0000
,
0010
0100
0010
0000
1100
0000
0101
0000
,
0010
0000
0001
0000
0100
0001
0010
0000
,
0100
0000
0010
0000
0100
1000
0001
0000
,
0010
0000
0001
0000
0010
0100
1000
0000
,
0100
1000
0011
1100
,
0001
0000
0000
1000
0000
0000
1001
0000
,
0001
0000
0000
1000
0000
0000
1001
0000
,
0100
0001
1000
0100
,
0010
0010
0000
0100
0000
0010
0000
0001
,
1000
0000
0010
0000
0100
1000
0100
0000
,
0001
0000
0010
0000
0100
0001
0100
0000
,
1000
0000
0010
0000
0001
0010
0001
0000
,
0010
0100
0010
0100
0000
0010
0000
1000
,
0001
0000
0010
0000
0100
0001
0100
0000
,
1000
0000
0010
0000
0100
1000
0100
0000
,
0001
0000
0010
0000
1000
0010
1000
0000
,
0010
0100
0010
0000
0220
0000
0330
0000
,
0001
0000
0100
0000
0010
1000
0100
0000
,
1000
0000
0100
0000
0010
0001
0100
0000
,
0001
0000
1000
0000
0001
1000
0100
0000
,
1000
0000
0001
0000
1000
0001
0010
0000
,
1000
0000
0010
0000
0100
0001
0010
0000
,
0001
0000
0010
0000
0100
1000
0010
0000
,
1000
0000
0001
0000
1000
0001
0010
0000
,
0001
1000
0000
0001
0000
1000
0100
0010
,
0002
0000
0000
0023
0000
0000
0230
0000
,
0000
2300
0000
0000
3001
0000
0000
0010
,
0000
0000
0100
0000
0000
1000
0000
0000
,
2000
0000
0000
3200
0000
0000
0320
0000
,
0000
0032
0000
0000
1003
0000
0000
0100
,
0000
0000
0010
0000
0000
0001
0000
0000
,
1000
0000
0100
0000
0010
0100
0010
0000
,
0001
0000
0100
0000
0010
0100
0010
0000
,
1000
0000
0001
0000
0001
1000
0100
0010
,
0000
0010
0100
0000
0010
0000
0100
0000
,
0010
0000
0000
1100
0000
0000
0010
0000
,
0000
0101
0000
0000
0110
0000
1001
0000
,
0001
0000
0000
1000
0000
0000
0001
0000
,
0000
1000
0000
0000
1100
0000
0101
0000
,
0002
0000
0000
0000
,
2003
0000
0000
0000
,
3020
0000
0000
0000
,
0230
0000
0000
0000
,
0310
0010
1000
1000
,
0011
0011
1100
1100
,
0010
0100
0001
1000
,
0010
0000
1000
0001
0000
1001
0000
0000
,
0001
0010
0001
0000
1000
0000
0100
0000
,
1000
0100
1000
0000
0001
0000
0100
0000
,
0002
0000
0000
0003
2000
0000
0000
3000
,
0200
0000
0000
0300
0020
0000
0030
0000
,
0100
1010
0100
0011
,
0010
0010
0010
0100
0100
0100
,
0020
0100
0100
0130
,
0010
0100
0000
0010
0000
1001
0000
0000
,
0001
0010
0100
0000
1000
0000
0010
0000
,
1000
0010
0100
0000
0001
0000
0100
0000
,
0010
0010
0010
0100
0100
0100
,
0001
0000
0001
0000
0001
0000
2000
0000
0000
3000
0000
0000
,
0010
1100
0010
0101
,
0001
0001
0001
1000
1000
1000
,
0020
0000
0000
0230
0000
0000
0320
0000
,
1030
0001
1000
0001
0000
0000
0000
0000
,
2001
0100
0001
3000
,
1002
0100
1000
0003
,
1020
0100
1000
0030
,
0201
0010
0001
0300
,
0002
0010
0100
0003
,
2000
0010
0100
3000
,
0020
1000
0100
0030
,
0200
0001
0010
0300
,
0010
0100
0010
0100
0000
0000
0000
0000
,
0010
0000
0100
0000
0001
0100
0010
0000
,
1000
0000
0010
0000
0100
0010
0100
0000
,
0010
1000
0100
0001
,
0010
0001
0100
0000
0010
1000
0100
0000
,
0010
0000
0100
0000
1000
0100
0010
0000
,
0001
0000
0010
0000
0100
0010
0100
0000
,
0010
1000
0100
0001
,
0010
0001
0100
0000
0010
1000
0100
0000
,
2002
0000
0000
0000
,
0000
0000
0000
0000
0000
0000
0000
3003
,
0000
0000
0000
0000
;

//---------------dance-single - ----------------
#NOTES:
     dance-single:
     :
     Hard:
     13:
     :
0000
0000
0000
0000
,
0000
0000
0000
0000
,
0000
0000
0000
0000
,
0000
0000
0000
0000
,
0000
0000
0000
0000
,
0000
0000
0000
0000
,
0000
0000
0000
0000
,
0000
0000
0000
0000
,
0000
0000
0000
0000
,
0000
0000
0000
0000
,
0200
0000
0000
0000
,
0000
0000
0320
0032
,
2000
0000
0000
0003
0000
0000
3020
0000
,
0100
0130
0010
0000
1100
0000
0101
0000
,
0110
1000
0100
1000
,
0101
0001
0100
0001
,
1010
1000
0010
1000
,
0011
0001
0010
0001
,
1000
0100
0010
0000
0001
0010
0000
0100
,
0010
0000
0001
0100
1000
0100
0010
0000
,
0001
0100
0010
0000
1000
0010
0000
0100
,
0010
0000
1000
0100
0001
0100
0010
0001
,
1000
1000
0100
0010
0010
0100
1000
0100
,
0001
0001
0100
1000
1000
0010
0100
0100
,
0001
0010
0100
0000
1000
0100
0000
0010
,
0100
1000
0000
0110
0000
1100
0000
0101
,
0010
1000
0100
0000
0010
0001
0100
0010
,
0001
0010
1000
0000
1000
0100
0001
0000
,
0100
0010
0001
0000
0010
0001
1000
0000
,
1000
0010
0100
0110
0000
0101
0000
1100
,
0010
0001
0100
0000
0010
1000
0100
0010
,
1000
0010
0001
0000
0001
0100
1000
0000
,
0100
0010
1000
0000
0010
1000
0001
0000
,
0001
0010
0100
0010
0001
1000
0100
0001
,
1000
0010
0100
0110
0000
0001
0000
1000
,
0000
0100
0000
0010
0001
0100
0000
0020
,
0000
0000
0000
0000
0000
1030
0100
0010
,
0001
0100
0000
0110
0000
1001
0000
0000
,
0002
0000
1000
1003
0000
0011
0000
1100
,
0000
1010
0000
0101
0000
0110
0000
2002
,
0000
0000
0000
0000
0003
3001
0010
1000
,
0010
0100
0000
2000
0000
3010
0001
0010
,
2000
0000
3100
0200
0000
0310
0020
0000
,
0031
0002
0000
1003
1000
0010
0001
1000
,
0100
1000
0001
0010
1000
0001
0100
0001
,
0002
0000
0013
0020
0000
0130
0200
0000
,
1300
2000
0000
3001
0001
0010
1000
0001
,
0100
0001
1000
0010
0001
1000
0100
1000
,
2000
0000
0100
0000
3001
0100
0010
1000
,
0000
0010
0100
0000
1010
0000
1100
0000
,
0002
0000
0100
0000
1003
0100
0010
0002
,
0000
1003
0100
0000
1100
0000
0101
0000
,
0020
0000
1030
0200
0000
0310
2000
0000
,
3010
0002
0000
0103
2000
0000
3100
0000
,
0010
0100
0100
0010
1000
1000
0010
1000
,
1000
0100
0001
0001
0100
0010
0100
0000
,
0110
0000
0011
0000
0100
1000
0010
1000
,
0200
0300
0110
1010
,
0110
0000
0011
0000
0010
0001
0100
0001
,
0020
0000
0130
0100
,
1100
1100
0101
0101
,
1010
1010
0011
0011
,
0010
0001
0100
1000
0100
0010
1000
0001
,
0200
0000
1000
0010
0300
0110
0000
0000
,
0001
0100
0010
1000
0100
0010
0001
0100
,
0010
1000
0100
0010
0001
0100
0010
0000
,
1000
1000
1100
0001
0001
0011
,
0100
0000
0010
0000
0100
0000
0110
0000
0000
0110
0000
0000
,
1010
0101
0011
1100
,
0001
0001
0101
1000
1000
1100
,
0010
0000
0100
0010
0000
0010
0100
0000
,
0001
0010
0000
0100
0000
1001
0000
0000
,
1000
0010
0100
0000
0001
0010
1000
0010
,
0000
0100
0001
0000
0100
1000
0010
0001
,
0010
1000
0001
0100
1000
0001
,
0010
0000
1000
0000
0010
0000
2000
0000
0000
3000
0000
0000
,
2000
3002
0203
0320
,
1030
1010
1010
0001
0101
0101
,
1000
0000
1000
0100
0000
0100
0010
0000
,
0001
0100
0010
1000
0000
0020
0000
0030
,
0100
0100
0001
0010
0100
1000
0100
0000
,
1000
1000
0010
0100
1000
0100
0001
0000
,
0010
0010
0001
0010
1000
0010
0100
0000
,
0001
0001
1000
0010
0001
0010
1000
0000
,
0001
0000
0011
0000
0100
1000
0010
0000
,
1000
0000
0011
0000
0100
0001
0010
0000
,
0100
0000
0010
0000
0100
1000
0010
0000
,
0010
0000
0100
0000
0001
1000
0100
0000
,
0010
0010
0010
0010
0000
1001
0000
0000
,
1001
0100
1000
0100
0001
0100
1000
0010
,
0100
1000
0001
0010
1000
0010
1000
0001
,
0010
1000
0010
1000
0001
0100
0010
1000
,
0001
0100
1000
1010
0000
0101
0000
1001
,
0001
0100
1000
0100
0001
0010
0100
0001
,
1000
0010
0001
0010
0001
1000
0010
0001
,
0010
0001
1000
0100
0010
0001
1000
0100
,
0001
0001
0010
0110
0000
1100
0000
0202
,
0000
0000
0000
0000
,
0000
0000
0000
0000
0000
0000
0000
0303
,
0000
0000
0000
0000
;

//---------------dance-double - ----------------
#NOTES:
     dance-double:
     :
     Easy:
     8:
     :
00000000
00000000
00000000
00000000
,
00000000
00000000
00000000
00000000
,
00000000
00000000
00000000
00000000
,
00000000
00000000
00000000
00000000
,
00000000
00000000
00000000
00000000
,
00000000
00000000
00000000
00000000
,
00000000
00000000
00000000
00000000
,
00000000
00000000
00000000
00000000
,
00000000
00000000
00000000
00000000
,
00000000
00000000
00000000
00000000
,
00002000
00000000
00000000
00000000
,
00000000
00000000
00000000
00000000
,
00023000
00000000
00000000
00000000
,
00030200
00000000
00000000
00000000
,
00000320
00000000
00000000
00000000
,
00000000
00000000
00000000
00000000
,
00002030
00000000
00000000
00000000
,
00023000
00000000
00000000
00000000
,
02030000
00010000
00000000
03010000
,
00200000
00001000
00000000
00301000
,
00020000
00000100
00000000
00030100
,
00002000
00000001
00000000
00003001
,
00000010
00000000
00000000
00000010
00000000
00000000
00000100
00000000
,
00001000
00000000
00000000
00001000
00000000
00000000
00000010
00000000
,
00000100
00000000
00000000
00000100
00000000
00000000
00001000
00000000
,
00020000
00000000
00000000
00000000
,
00031000
00000100
00000001
00000000
,
00000010
00000100
00001000
00000000
,
00000100
00010000
00001000
00000000
,
00001000
00010000
01000000
10000000
,
00100000
10000000
01000000
00000000
,
00100000
00010000
01000000
00000000
,
00001000
00010000
00000100
00000000
,
00000010
00000100
00000110
00000000
,
00000001
00000100
00000010
00001000
,
00000100
00010000
00001000
00000000
,
00010000
01000000
10000000
00100000
,
01000000
00010000
00100000
00000000
,
00010000
10000000
01000000
00100000
,
00001000
00010000
00000100
00000000
,
00000010
00000001
00000100
00001000
,
00010000
01000000
10000000
00000000
,
10000000
00000000
00000000
10000000
00000000
00000000
01000000
00000000
,
00000000
01000000
00000000
00000000
00100000
00000000
00000000
00100000
,
00000000
00000000
00010000
00000000
00000000
00010000
00000000
00000000
,
00001000
00000000
00000000
00001000
00000000
00000000
00000100
00000000
,
00000000
00000100
00000000
00000000
00000010
00000000
00000000
00000010
,
00000000
00000000
00000001
00000000
00000000
00000001
00000000
00000000
,
00001000
00000010
00000100
00000000
,
00000001
00000010
00000100
00000000
,
00001000
00000100
00000001
00000000
,
00000110
00001001
00000110
00000000
,
00000010
00000010
00000001
00000001
,
00000100
00000100
00001000
00011000
,
00100000
00100000
10000000
10000000
,
01000000
01000000
00010000
00011000
,
00020000
00000000
00000000
00000000
,
00032000
00000000
00000000
00000000
,
00203000
00000000
00000000
00000000
,
00320000
00000000
00000000
00000000
,
00031000
00001000
00000100
00000100
,
00000010
00000001
00000100
00000010
,
00000200
00000010
00000010
00000010
,
00000010
00000000
00000310
00000000
00000000
00000100
00000100
00000000
,
00000001
00000100
00000001
00000000
00000010
00000000
00000100
00000000
,
00001000
00000100
00010000
00001000
,
00100000
00011000
00010000
10010000
,
01000000
00100000
01000000
00000000
,
00010000
00010000
10000000
10000000
,
00200000
01300000
00002000
00103000
,
00000200
00000000
00010300
00001000
,
00010000
00100000
10010000
00000000
,
10000000
01000000
10000000
00000000
00100000
00000000
01000000
00000000
,
00010000
01000000
00001000
00010000
,
00000010
00011000
00001000
00001001
,
00000100
00000010
00000100
00000000
,
00001000
00001000
00000001
00000001
,
00000020
00000130
00020000
00030010
,
02000000
00000000
03001000
00010000
,
00001000
00000010
00001001
00000000
,
00000010
00000000
00000001
00000100
00000001
00000000
00000000
00000000
,
00000100
00000000
00000010
00000100
00000010
00000000
00000000
00000000
,
00001000
00000000
00000100
00001000
00000100
00000000
00000000
00000000
,
00010000
00000000
01000000
00100000
01000000
00000000
00000000
00000000
,
00100000
00000000
00001000
00100000
00010000
00000000
00000000
00000000
,
01000000
00000000
00010000
00100000
00001000
00000000
00000000
00000000
,
00010000
00000000
00001000
00010000
00000010
00000000
00000000
00000000
,
00000100
00000000
00000010
00000100
00000001
00000000
00000000
00000000
,
00000010
00000100
00000010
00000100
00000000
00001001
00000000
00000000
,
00001000
00000100
00000001
00000000
,
00000010
00000100
00001000
00000000
,
00000100
00010000
00001000
00000000
,
00001000
00010000
01000000
10000000
,
00100000
10000000
01000000
00000000
,
00100000
00010000
01000000
00000000
,
00001000
00010000
00000100
00000000
,
00000010
00000100
00000110
00000000
,
00002002
00000000
00000000
00000000
,
00000000
00000000
00000000
00000000
00000000
00000000
00000000
00003003
,
00000000
00000000
00000000
00000000
;

//---------------dance-double - ----------------
#NOTES:
     dance-double:
     :
     Medium:
     10:
     :
00000000
00000000
00000000
00000000
,
00000000
00000000
00000000
00000000
,
00000000
00000000
00000000
00000000
,
00000000
00000000
00000000
00000000
,
00000000
00000000
00000000
00000000
,
00000000
00000000
00000000
00000000
,
00000000
00000000
00000000
00000000
,
00000000
00000000
00000000
00000000
,
00000000
00000000
00000000
00000000
,
00000000
00000000
00000000
00000000
,
00000020
00000000
00000000
00000000
,
00000030
00000000
00001000
00000100
,
00000020
00000000
00000000
00000000
,
00000031
00000100
00001000
00000000
00010000
00000000
00000100
00000000
,
00020200
00000000
00000000
00000000
,
00030300
00000000
00001000
00010000
,
01000000
00100000
00010000
00000000
00100000
00000000
01000000
00000000
,
00100000
00001000
00010000
00000000
00011000
00000000
00001100
00000000
,
00000010
00000000
00000001
00000000
00000100
00000010
00001000
00000000
,
00000100
00000000
00010000
00000000
00001000
00010000
00000100
00000000
,
00010000
00000000
00001000
00000000
00010000
01000000
10000000
00000000
,
01000000
00100000
01100000
10010000
,
00010000
00000000
00000000
01000000
00000000
00000000
00001000
00000000
,
00010000
00000000
00000000
00000010
00000000
00000000
00001001
00000000
,
00000100
00000001
00000010
00000100
,
00001000
00001000
00000000
00000100
00000000
00010000
00000000
00001000
,
00010000
01000000
10000000
00100000
,
00010000
00100000
00010000
00001000
,
00000100
00000010
00000100
00000010
,
00000100
00000010
00000100
00000001
00000000
00001000
00000000
00000100
,
00010000
01000000
10000000
00100000
,
01000000
00010000
00100000
01000000
,
00010000
00001000
00000100
00001000
,
00010000
00001000
00022000
00033000
,
00011000
00000000
00001000
00000000
00000100
00000001
00000010
00000000
,
00000100
00000010
00000100
00001000
,
00000010
00000000
00000100
00000000
00001000
00000100
00000001
00000000
,
00000010
00000100
00000000
00010000
00000000
00002000
00000000
00000000
,
00103000
00000000
01000000
00000000
10000000
00100000
01000000
00000000
,
00010000
00000000
00100000
00000000
00001000
00010000
00000100
00000000
,
00000010
00000000
00000001
00000000
00000100
00000010
00001000
00000000
,
00000100
00010000
00000000
00001000
00000000
00010000
01000000
00100000
,
00020000
00000000
00000000
00230000
00000000
00000000
02300000
00000000
,
00000000
23000000
00000000
00000000
31000000
00000000
00000000
00100000
,
00000000
00000000
00010000
00000000
00000000
00001000
00000000
00000000
,
00020000
00000000
00000000
00030200
00000000
00000000
00000320
00000000
,
00000000
00000230
00000000
00000000
00001300
00000000
00000000
00000100
,
00000000
00000000
00000010
00000000
00000000
00000001
00000000
00000000
,
00000100
00001000
00000100
00000010
,
00001000
00000100
00000010
00001000
,
00010000
00000000
00001000
00000000
00010000
01000000
10000000
00100000
,
00000000
00100000
01000000
00000000
00100000
00000000
01000000
00000000
,
00100000
00000000
00000000
00110000
00000000
00000000
00001000
00000000
,
00000000
00011000
00000000
00000000
00001100
00000000
00001010
00000000
,
00000100
00000000
00000000
00010100
00000000
00001000
00010000
00001000
,
00000000
00001000
00010000
00000000
00001000
00000000
00010000
00000000
,
00002000
00000000
00000000
00000000
,
00003020
00000000
00000000
00000000
,
00000032
00000000
00000000
00000000
,
00000203
00000000
00000000
00000000
,
00000310
00000010
00001000
00001000
,
00010000
00010000
00100000
00100000
,
01000000
10000000
00100000
01000000
,
00010000
00000000
10000000
00010000
00000000
10010000
00000000
00000000
,
00010000
00100000
00001000
00000000
00000100
00000000
00000010
00000000
,
00001000
00000100
00001000
00000000
00000100
00000000
00000010
00000000
,
00000002
00000000
00000203
00000000
,
00000320
00000000
00000230
00000300
,
00000010
00001100
00010000
00011000
,
00001000
00001000
00001000
00010000
00010000
00010000
,
00200000
01000000
01000000
01300000
,
00100000
00010000
00000000
00001000
00000000
00011000
00000000
00000000
,
00001000
00000100
00000010
00000000
00001000
00000000
00000100
00000000
,
00001000
00000100
00010000
00000000
01000000
00000000
00100000
00000000
,
00010000
00010000
00010000
01000000
01000000
01000000
,
00001000
00000000
00001000
00000000
00001000
00000000
00020000
00000000
00000000
00030000
00000000
00000000
,
00000010
00001100
00010000
00001100
,
00000100
00000100
00000100
00010000
00010000
00010000
,
00200000
00000000
00000000
02300000
00000000
00000000
03200000
00000000
,
10300000
00010000
10000000
00010000
00000000
00000000
00000000
00000000
,
00100000
10000000
00010000
00000000
,
00100000
00001000
00010000
00000000
,
00001000
00000100
00000001
00000000
,
00000010
00001000
00010000
00000000
,
00002000
00100000
01003000
00000000
,
02000000
00100000
13000000
00000000
,
02000000
00100000
03010000
00000000
,
00200000
00010000
00301000
00000000
,
00001000
00010000
00001000
00010000
00000000
00011000
00000000
00000000
,
00010000
01000000
10000000
00100000
,
00010000
00100000
00010000
00001000
,
00000100
00000010
00000100
00000010
,
00000100
00000010
00000100
00000001
00000000
00001000
00000000
00000100
,
00010000
01000000
10000000
00100000
,
01000000
00010000
00100000
01000000
,
00010000
00001000
00000100
00001000
,
00010000
00001000
00010000
00001000
00000000
00011000
00000000
00202000
,
00000000
00000000
00000000
00000000
,
00000000
00000000
00000000
00303000
,
00000000
00000000
00000000
00000000
;

//---------------dance-double - ----------------
#NOTES:
     dance-double:
     :
     Hard:
     14:
     :
00000000
00000000
00000000
00000000
,
00000000
00000000
00000000
00000000
,
00000000
00000000
00000000
00000000
,
00000000
00000000
00000000
00000000
,
00000000
00000000
00000000
00000000
,
00000000
00000000
00000000
00000000
,
00000000
00000000
00000000
00000000
,
00000000
00000000
00000000
00000000
,
00000000
00000000
00000000
00000000
,
00000000
00000000
00000000
00000000
,
02000000
00000000
00000000
00000000
,
00000000
00000000
03002000
00023000
,
00032000
00000000
00000000
00003200
,
00000010
00000310
00000100
00000000
00000011
00000000
00000101
00000000
,
00001001
00000000
00000010
00000000
00001000
00000100
00001000
00000000
,
00011000
00000000
00001000
00000000
00010000
00001000
01000000
00000000
,
11000000
00000000
00100000
00000000
01000000
00010000
00100000
00000000
,
00011000
00000000
00010000
00000000
00001000
00000100
00000001
00000000
,
00000001
00000010
00001000
00000000
00000010
00000100
00000000
00000100
,
00000010
00000000
00001000
00010000
01000000
10000000
00100000
01000000
,
00010000
00100000
10000000
00000000
00100000
01000000
00000000
01000000
,
00100000
00000000
00010000
00001000
00000100
00000001
00000010
00000100
,
00000010
00000010
00000001
00000100
00000100
00000010
00001000
00000100
,
00010000
00010000
00001000
01000000
01000000
00100000
10000000
10000000
,
00010000
00100000
10000000
00000000
00100000
00010000
00000000
00100000
,
01000000
10000000
00000000
01100000
00000000
00110000
00000000
00011000
,
00001000
00000100
00000001
00000000
00000010
00000001
00000100
00000010
,
00001000
00010000
01000000
00000000
10000000
01000000
00010000
00000000
,
00100000
00001000
00010000
00000000
00001000
00010000
00000100
00000000
,
00010000
00001000
00000100
00000110
00000000
00001010
00000000
00011000
,
00010000
01000000
10000000
00000000
00100000
10000000
01000000
00100000
,
00010000
00001000
00000100
00000000
00000001
00000100
00001000
00000000
,
00000010
00010000
00001000
00000000
00010000
00001000
01000000
00000000
,
00001000
00010000
01000000
00000000
10000000
01000000
00100000
00001000
,
00010000
00001000
00000100
00000110
00000000
00000100
00000000
00000001
,
00001000
00000100
00000000
00010000
00001000
00100000
00000000
02000000
,
00000000
00000000
00000000
00000000
00000000
13000000
00100000
00010000
,
00100000
01000000
00000000
01010000
00000000
00011000
00000000
00000000
,
00002000
00000000
00000100
00003100
00000000
00011000
00000000
00110000
,
00000000
00011000
00000000
00001100
00000000
00011000
00000000
00020200
,
00000000
00000000
00000000
00000000
00030000
00010300
00001000
00010000
,
01000000
00100000
00000000
20000000
00000000
30100000
00010000
00100000
,
00002000
00000000
00013000
00020000
00000000
00030100
00000200
00000000
,
00001300
00002000
00000000
00003010
00000010
00000100
00000001
00000010
,
00001000
00000010
00000001
00000100
00001000
00010000
00001000
00010000
,
00020000
00000000
00031000
00002000
00000000
01003000
02000000
00000000
,
03010000
00020000
00000000
00130000
00100000
01000000
10000000
00100000
,
00010000
00100000
10000000
00100000
00010000
00001000
00010000
00001000
,
00020000
00000000
00001000
00000000
00030100
00000010
00000001
00000100
,
00000000
00000010
00000100
00000000
00001100
00000000
00011000
00000000
,
00002000
00000000
00010000
00000000
01003000
00100000
10000000
01000000
,
00000000
00100000
01000000
00000000
01010000
00000000
00011000
00000000
,
00002000
00000000
00103000
02000000
00000000
03010000
00002000
00000000
,
00003100
00000020
00000000
00001030
00000200
00000000
00000310
00000000
,
00000010
00000100
00000100
00000001
00000100
00000100
00000010
00000001
,
00000001
00000100
00010000
00010000
00000100
00000010
00001000
00000000
,
00021000
00000000
00000010
00000000
00000100
00000000
00000010
00000010
,
00030010
00000000
00001010
00001100
,
00012000
00000000
00100000
00000000
01000000
00000000
00100000
00100000
,
00103000
00000000
00110000
01010000
,
20000000
32000000
03020000
00032000
,
00203000
00302000
00003200
00000320
,
00001030
00000100
00000001
00000000
00000100
00001000
00000010
00000000
,
00020000
00000000
00000010
00001000
00030000
00011000
00000000
00000000
,
00001000
00000100
00000001
00000010
00000100
00001000
00000100
00010000
,
01000000
10000000
01000000
00100000
00010000
01000000
00100000
00000000
,
10000000
01000000
01010000
00001000
00000100
00001100
,
00000100
00000000
00000010
00000000
00000101
00000000
00001001
00000000
00000000
00000110
00000000
00000000
,
00001010
00001100
00000101
00000011
,
00000001
00000010
00000110
00001000
00000100
00010100
,
00001000
00000000
00010000
00001000
00000000
00001000
00010000
00000000
,
00001000
00000100
00000000
00000010
00000000
00001100
00000000
00000000
,
00010000
00000100
00001000
00000000
00000100
00010000
00001000
00100000
,
00000000
00001000
00010000
00000000
00001000
00000100
00000001
00000010
,
00000100
00000001
00000100
00001000
00000100
00010000
,
00011000
00000000
00110000
00000000
01010000
00000000
10010000
00000000
00000000
01100000
00000000
00000000
,
00020000
20030000
32000000
03200000
,
00301000
00011000
00011000
00000100
00000110
00000110
,
00000001
00000000
00000001
00000100
00000000
00000010
00001000
00000000
,
00000100
00010000
01000000
10000000
00000000
00200000
00000000
00300000
,
01000000
01000000
00010000
00100000
00001000
00010000
00011000
00000000
,
00001000
00001000
00000100
00000001
00000010
00000100
00001100
00000000
,
00001000
00001000
00000100
00010000
00100000
01000000
01100000
00000000
,
00010000
00010000
00100000
00010000
00001000
00000100
00000110
00000000
,
00001000
00000000
00000100
00000000
00000010
00000001
00000100
00000000
,
00000010
00000000
00001000
00000000
00000100
00010000
00001000
00000000
,
00010000
00000000
01000000
00000000
00100000
00010000
01000000
00000000
,
10000000
00000000
00010000
00000000
10000000
00010000
01000000
00000000
,
01000000
01000000
00010000
00010000
00000000
00011000
00000000
00000000
,
00010000
00001000
00000100
00000001
00000010
00001000
00000010
00000001
,
00000100
00001000
00010000
00100000
10000000
00100000
00010000
00001000
,
00000100
00000001
00000010
00001000
00010000
00001000
00000010
00001000
,
00010000
00001000
00000100
00001100
00000000
00001100
00000000
00011000
,
00001000
00010000
01000000
10000000
00100000
00010000
00100000
10000000
,
01000000
00010000
00001000
00000010
00000001
00000010
00001000
00010000
,
01000000
10000000
00100000
00010000
00001000
00010000
00100000
00010000
,
00001000
00010000
01000000
01010000
00000000
01010000
00000000
00022000
,
00000000
00000000
00000000
00000000
,
00000000
00000000
00000000
00000000
00000000
00000000
00000000
00033000
,
00000000
00000000
00000000
00000000
;
