#TITLE:Somehow You Found Me;
#ARTIST:DIGI-SEQ-BAND2000;
#BANNER:Somehow You Found Me.png;
#BACKGROUND:Somehow You Found Me-bg.png;
#CDTITLE:./CDTITLES/DanceDanceRevolution HOTTEST PARTY 2.png;
#MUSIC:Somehow You Found Me.ogg;
#SAMPLESTART:75.469;
#SAMPLELENGTH:15;
#BPMS:0=180;
#STAGE:2;

//---------------dance-single - ----------------
#NOTES:
     dance-single:
     :
     Beginner:
     3:
     :
0000
0000
0000
0000
,
0000
0000
0000
0000
,
0000
0000
0000
0000
,
0000
0000
0000
0000
,
0000
0000
0000
0000
,
0100
0000
0100
0000
,
0001
0000
0000
0000
,
0100
0000
0100
0000
,
1000
0000
0000
0000
,
0010
0000
0010
0000
,
1000
0000
0000
0000
,
0010
0000
0010
0000
,
0001
0000
0000
0000
,
0000
1000
0000
0010
,
0000
0001
0000
0010
,
0000
1000
0000
0001
,
0000
0000
0000
0000
,
0000
1000
0000
0010
,
0000
0001
0000
0010
,
0000
1000
0000
0001
,
0000
0000
0000
0000
,
0000
0001
0000
0100
,
0000
1000
0000
0100
,
0000
0001
0000
1000
,
0000
0000
0000
0000
,
0000
0001
0000
0010
,
0000
1000
0000
0010
,
0000
0001
0000
1000
,
0000
0000
0000
0000
,
1000
1000
1000
0000
,
0100
0100
0100
0000
,
0001
0001
0001
0000
,
0100
0000
0000
0000
,
0010
0000
0000
0000
,
1000
0000
1000
0000
,
0001
0000
0001
0000
,
0001
0000
0001
0000
,
0100
0000
0100
0000
,
1000
0000
0000
0000
,
0100
0000
0100
0000
,
0001
0000
0000
0000
,
0000
1000
0000
0010
,
0000
0001
0000
0010
,
0000
1000
0000
0001
,
0000
0000
0000
0000
,
0000
1000
0000
0100
,
0000
0001
0000
0100
,
0000
1000
0000
0001
,
0000
0000
0000
0000
,
0001
0001
0001
0000
,
0010
0010
0010
0000
,
1000
1000
1000
0000
,
0010
0000
0000
0000
,
0100
0000
0000
0000
,
0001
0000
0001
0000
,
1000
0000
1000
0000
,
1000
0000
0000
0000
,
0001
0001
0000
0000
,
1000
1000
0000
0000
,
0001
0000
0000
0000
,
1000
0000
0000
0000
,
0010
0000
0000
0000
,
0010
0010
0010
0010
,
0010
0000
0000
0000
,
0100
0100
0100
0000
,
1000
1000
0000
0000
,
0001
0001
0000
0000
,
1000
0000
0000
0000
,
0001
0000
0000
0000
,
0100
0000
0000
0000
,
0100
0100
0100
0100
,
0100
0000
0100
0000
,
1000
0000
0000
0000
,
0100
0000
0100
0000
,
0001
0000
0000
0000
,
1001
0000
0000
0000
,
0000
0000
0000
0000
;

//---------------dance-single - ----------------
#NOTES:
     dance-single:
     :
     Easy:
     6:
     :
0000
0000
0000
0000
,
0000
0000
0000
0000
,
0000
0000
0000
0000
,
0000
0000
0000
0000
,
0000
0000
0000
0000
,
1000
0000
0001
0000
,
0100
0000
1001
0000
,
1000
0000
0010
0000
,
0100
0000
1001
0000
,
0001
0000
1000
0000
,
0010
0000
1001
0000
,
0001
0000
1000
0000
,
0010
0000
1001
0000
,
0000
0001
0000
0010
,
0000
1000
0000
0100
,
0000
0010
0000
0100
,
0000
0000
0000
0000
,
0000
0001
0000
0100
,
0000
1000
0000
0010
,
0000
0100
0000
0010
,
0000
0000
0000
0000
,
0000
1000
0000
0100
,
0000
0001
0000
0010
,
0000
0100
0000
0010
,
0000
0000
0000
0000
,
0000
1000
0000
0010
,
0000
0001
0000
0100
,
0000
0010
0000
0100
,
0000
0000
0000
0000
,
1000
1000
0100
0100
,
0010
0010
0001
0001
,
0010
0010
0100
0100
,
1000
0000
0000
0000
,
1000
0000
0000
0000
,
0001
0000
1000
0000
,
0010
0000
0010
0000
,
0010
0000
0110
0000
,
1000
0000
0001
0000
,
0100
0000
1001
0000
,
1000
0000
0010
0000
,
0100
0000
1001
0000
,
0000
0001
0000
0010
,
0000
1000
0000
0100
,
0000
0010
0000
0100
,
0000
0000
0000
0000
,
0000
0001
0000
0100
,
0000
1000
0000
0010
,
0000
0100
0000
0010
,
0000
0000
0000
0000
,
0001
0001
0010
0010
,
0100
0100
1000
1000
,
0100
0100
0010
0010
,
0001
0000
0000
0000
,
0001
0000
0000
0000
,
1000
0000
0001
0000
,
0100
0000
0100
0000
,
0100
0000
0000
0000
,
0001
0000
0001
0000
,
1000
0000
1000
0000
,
0001
0001
1000
1000
,
0001
0010
0100
0000
,
0010
0000
0000
0000
,
1000
1000
1000
1000
,
0100
0000
0000
0000
,
1001
1001
1001
0000
,
1000
0000
1000
0000
,
0001
0000
0001
0000
,
1000
1000
0001
0001
,
1000
0100
0010
0000
,
0100
0000
0000
0000
,
0001
0001
0001
0001
,
1000
0000
0100
0000
,
0100
0000
1001
0000
,
0001
0000
0100
0000
,
0010
0000
1001
0000
,
0110
0000
0000
0000
,
0000
0000
0000
0000
;

//---------------dance-single - ----------------
#NOTES:
     dance-single:
     :
     Medium:
     10:
     :
0000
0000
0000
0000
,
0000
0000
0000
0000
,
0000
0000
0000
0000
,
0000
0000
0000
0000
,
0000
0000
0000
0000
,
1000
0100
0000
0001
0010
0000
0000
1100
,
0000
0101
0000
1000
0010
0010
0100
0000
,
1000
0100
0000
0001
0010
0000
0000
1010
,
0000
0011
0000
1000
0100
0100
0010
0000
,
0001
0100
0000
1000
0010
0000
0000
0011
,
0000
1010
0000
0001
0010
0010
0100
0000
,
0001
0100
0000
1000
0010
0000
0000
0101
,
0000
1100
0000
0001
0100
0100
0010
0000
,
1010
0010
0100
1000
,
0001
0000
0010
1100
,
0010
0000
0101
0000
1000
0100
0010
0000
,
0100
0000
0001
0000
0100
0010
1000
0000
,
0011
0001
0100
0001
,
1000
0000
0010
0101
,
0010
0000
0011
0000
1000
0010
0100
0000
,
0010
0000
0001
0000
0010
0100
1000
0000
,
1100
0100
0010
1000
,
0001
0000
0100
1010
,
0100
0000
0011
0000
1000
0010
0100
0000
,
0010
0000
0001
0000
0010
0100
1000
0000
,
0101
0001
0010
0001
,
1000
0000
0100
0011
,
0100
0000
0101
0000
1000
0100
0010
0000
,
0100
0000
0001
0000
0100
0010
1000
0000
,
0100
1100
0001
0101
,
0010
1010
0001
0011
,
0010
0101
0010
1100
,
0001
1000
0010
0000
0100
0000
1001
0000
,
0000
0100
0010
0100
,
1000
1010
0100
1010
,
0022
0033
2200
3300
,
0202
0303
2020
3030
,
1000
0100
0000
0001
0010
0000
0000
1100
,
0000
0101
0000
1000
0001
0001
0100
0000
,
1000
0100
0000
0001
0010
0000
0000
1010
,
0000
0011
0000
1000
0001
0001
0100
0000
,
1010
0010
0100
1000
,
0001
0000
0010
1100
,
0010
0000
0101
0000
1000
0100
0010
0000
,
0100
0000
0001
0000
0100
0010
1000
0000
,
0011
0001
0100
0001
,
1000
0000
0010
0101
,
0010
0000
0011
0000
1000
0010
0100
0000
,
0010
0000
0001
0000
0010
0100
1000
0000
,
0010
0011
1000
1010
,
0100
0101
1000
1100
,
0100
1010
0100
0011
,
1000
0001
0100
0000
0010
0000
1001
0000
,
0000
0010
0100
0010
,
0001
0101
0010
0101
,
2200
3300
0022
0033
,
2020
3030
0000
0000
,
0001
0000
0100
0000
0010
0100
0001
0000
,
1100
0000
0001
0000
1000
0100
0010
0000
,
0001
0010
0001
0000
0001
0010
0001
0000
,
1000
0100
0010
1001
,
0100
1000
0010
0000
0001
0010
0100
0000
,
0010
0000
0010
0000
0010
0100
0010
0100
,
0001
0001
1001
0000
,
0200
0001
1000
0301
,
1000
0000
0010
0000
0100
0010
1000
0000
,
0011
0000
1000
0000
0001
0010
0100
0000
,
1000
0100
1000
0000
1000
0100
1000
0000
,
0001
0010
0100
1001
,
0010
0001
0100
0000
1000
0100
0010
0000
,
0100
0000
0100
0000
0100
0010
0100
0010
,
0100
0001
0000
0010
1000
0000
0000
0101
,
0000
1100
0000
0010
0100
0010
0100
0000
,
0010
1000
0000
0010
0001
0000
0000
0011
,
0000
1010
0000
0010
0100
0010
0100
0000
,
1001
0000
0000
0000
,
0000
0000
0000
0000
;

//---------------dance-single - ----------------
#NOTES:
     dance-single:
     :
     Hard:
     13:
     :
0000
0000
0000
0000
,
0000
0000
0000
0000
,
0000
0000
0000
0000
,
0000
0000
0000
0000
,
0000
0000
0000
0000
,
1000
0100
0000
0100
0001
0000
0000
1100
,
0000
0101
0000
1000
0100
1000
0010
0001
,
0001
0010
0000
0010
1000
0000
0000
1010
,
0000
0011
0001
0010
0100
0010
0100
1000
,
1000
0010
0000
0010
0001
0000
0000
1010
,
0000
0011
0000
1000
0010
1000
0100
0001
,
0001
0100
0000
0100
1000
0000
0000
1100
,
0000
0101
0001
0100
0010
0100
0010
0000
,
0000
0000
1100
0000
0100
0001
0010
0000
,
1100
0000
0100
0000
0100
1000
0100
0001
,
0010
0000
1010
0000
1000
0100
0001
0000
,
0010
0100
0000
0100
0010
0000
1100
0000
,
0000
0000
0101
0000
0100
1000
0010
0000
,
0101
0000
0100
0000
0100
0001
0100
1000
,
0010
0000
0011
0000
0001
0100
1000
0000
,
0100
0010
0000
0010
0100
0000
0011
0000
,
0000
0000
0101
0000
0010
0001
0100
0000
,
0101
0000
0110
0000
0100
0001
0100
1000
,
0010
0000
0011
0000
0001
0100
1000
0000
,
0010
0100
0000
0100
0010
0000
1010
0000
,
0000
0000
1010
0000
0100
1000
0010
0000
,
1010
0000
0110
0000
0010
1000
0010
0001
,
0100
0000
1100
0000
1000
0010
0001
0000
,
0100
0010
0100
0000
1000
0000
1001
0000
,
1000
1000
1100
0000
0100
0100
0110
0000
,
0001
0001
0101
0000
0100
0100
1100
0000
,
1000
1000
1010
0000
0010
0010
0110
0000
,
0001
0000
0100
0000
0001
1000
1001
0000
,
1000
0010
0001
0100
,
1000
0010
1000
0100
1000
0010
1000
0100
,
0001
0001
0100
0100
1000
1000
0100
0100
,
0001
0010
0100
1001
,
1100
0100
0000
0100
0001
0000
0000
1100
,
0000
0101
0000
1000
0100
1000
0010
0001
,
0001
0010
0000
0010
1000
0000
0000
1010
,
0000
0011
0001
0010
0100
0010
0100
0000
,
0000
0000
0011
0000
0010
1000
0100
0000
,
0011
0000
0010
0000
0010
0001
0010
1000
,
0100
0000
0101
0000
0001
0010
1000
0000
,
0100
0010
0000
0010
0100
0000
0110
0000
,
0000
0000
1010
0000
0010
0001
0100
0000
,
1010
0000
0010
0000
0010
1000
0010
0001
,
0100
0000
1100
0000
1000
0010
0001
0000
,
0100
0010
0100
0000
0001
0000
1001
0000
,
0001
0001
0101
0000
0100
0100
0110
0000
,
1000
1000
1100
0000
0100
0100
0110
0000
,
0001
0001
0011
0000
0010
0010
0110
0000
,
1000
0000
0100
0000
1000
0001
1001
0000
,
0001
0010
1000
0100
,
0001
0010
0001
0100
0001
0010
0001
0100
,
1000
1000
0100
0100
0001
0001
0100
0100
,
0010
0010
0110
0000
,
1001
1000
0100
0010
0001
0100
1000
0000
,
1100
0010
0001
1000
0001
0100
0010
1000
,
0100
0010
1100
0000
0100
0010
1000
0100
,
1000
0000
0010
0000
0100
0000
0001
0000
0010
0000
0001
0000
0100
0001
1000
0000
,
0010
0000
0100
0000
1000
0000
0100
0000
0001
0000
0100
0000
0010
1000
0100
0000
,
0010
1000
0010
0100
0010
0001
0010
1000
,
0100
0100
0101
0000
,
1010
0011
1100
0101
,
1001
0001
0010
0100
1000
0010
0001
0000
,
0011
0100
1000
0001
1000
0010
0100
0001
,
0010
0100
0011
0000
0010
0100
0001
0010
,
0001
0000
0100
0000
0010
0000
1000
0000
0100
0000
1000
0000
0010
1000
0001
0000
,
0100
0000
0010
0000
0001
0000
0010
0000
1000
0000
0010
0000
0100
0001
0010
0000
,
0100
0001
0100
0010
0100
1000
0100
0001
,
0001
0100
0000
0100
1000
0000
0000
0011
,
0000
1010
0000
0001
0010
0001
0100
1000
,
1000
0100
0000
0100
0001
0000
0000
0101
,
0000
1100
1000
0100
0010
0100
0010
0000
,
1001
0000
0000
0000
,
0000
0000
0000
0000
;

//---------------dance-single - ----------------
#NOTES:
     dance-single:
     :
     Challenge:
     16:
     :
0000
0000
0000
0000
,
0000
0000
0000
0000
,
0000
0000
0000
0000
,
0000
0000
0000
0000
,
0000
0000
0000
0000
,
0011
0000
0001
0000
0100
0000
0010
1000
0100
0000
0100
0000
0010
0000
0001
0000
,
0010
0000
1000
0000
0010
0000
0001
1000
0010
0000
0010
0000
0100
0000
0001
0000
,
0010
0000
0100
0000
1000
0000
0010
0100
0001
0000
0001
0000
0010
0000
0100
0000
,
1000
0000
0100
0000
0001
0000
0100
0010
0001
0000
0001
0000
0100
0000
0010
0000
,
1010
0000
1000
0000
0010
0000
0100
0001
0010
0000
0010
0000
0100
0000
1000
0000
,
0100
0000
0001
0000
0100
0000
1000
0001
0100
0000
0100
0000
0010
0000
1000
0000
,
0100
0000
0010
0000
0001
0000
0100
0010
1000
0000
1000
0000
0100
0000
0010
0000
,
0001
0000
0010
0000
1000
0000
0010
0100
1000
0100
1000
0000
0010
0000
0100
0000
,
0101
0000
1001
0000
0010
1000
0100
1000
,
0010
0001
0010
0001
0010
1000
0100
0010
,
0001
0100
0110
0001
1000
0100
0110
1000
,
0100
0000
0100
0010
1000
0000
0010
0100
0001
0000
0100
0000
1100
0000
0000
0000
,
0011
0000
1010
0000
0010
0001
0100
0010
,
1000
0100
0001
0100
0010
0001
0100
1000
,
0100
0010
0110
0100
0001
1000
1001
0010
,
0100
0000
0100
0001
1000
0000
1000
0010
0100
0000
0010
0000
1010
0000
0000
0000
,
0100
0000
1001
0000
0100
0001
0010
0001
,
0100
1000
0100
1000
0100
0001
0010
0100
,
1000
0010
0110
1000
0001
0010
0110
0001
,
0010
0000
0010
0100
0001
0000
0100
0010
1000
0000
0100
0000
0110
0000
0000
0000
,
1100
0000
0101
0000
0100
1000
0010
0100
,
0001
0010
1000
0010
0100
1000
0010
0001
,
0010
0100
0001
0001
0011
0010
0100
0100
,
1100
0000
1000
0000
0001
0000
0001
0000
0110
0000
0100
0010
1000
0000
0000
0000
,
0002
0000
0100
0000
0103
0000
0020
0000
1000
0000
1030
0001
0100
0000
0101
0000
,
2000
0000
0100
0000
3100
0000
0020
0000
0001
0000
0031
1000
0010
0000
1010
0000
,
0200
0000
0010
0000
0310
0000
0200
0000
0001
0000
0301
1000
0010
0000
1000
0000
,
1001
0000
0010
0000
1000
0100
0011
0000
,
2000
3200
0302
0013
,
0001
0100
1000
0010
1000
0100
0010
0010
,
0100
0000
1000
0100
0010
0000
0010
0001
0100
0000
0100
0010
1000
0000
0001
0000
,
0100
0000
0000
0000
0100
0000
0000
0000
0100
0000
0000
0000
0010
1000
0010
1000
,
0001
0000
0001
0000
0010
0000
0100
1000
0010
0000
0010
0000
0100
0000
0001
0000
,
0100
0000
1000
0000
0100
0000
0001
1000
0100
0000
0100
0000
0010
0000
0001
0000
,
0100
0000
0010
0000
1000
0000
0100
0010
0001
0000
0001
0000
0100
0000
0010
0000
,
1000
0000
0010
0000
0001
0000
0010
0100
0001
0000
0001
0000
0010
0000
0100
0000
,
1100
0000
1000
0100
0010
0001
0100
0001
,
0010
1000
0100
1000
0010
0001
0100
0010
,
1000
0001
1001
0100
0001
1000
1001
0010
,
0100
0000
0100
1000
0001
0000
0010
0100
1000
0000
0001
0000
0100
0000
0100
0000
,
1010
0000
0011
0000
0010
1000
0100
0010
,
0001
0100
1000
0100
0001
0010
0100
1000
,
0001
0100
1100
1000
0100
0100
1010
0010
,
0001
0000
0001
0000
1100
0000
1000
0000
0010
0000
0010
0100
0001
0100
0001
0000
,
2000
0000
0010
0000
3010
0000
0200
0000
0001
0000
0301
1000
0010
0000
1010
0000
,
0002
0000
0010
0000
0013
0000
0200
0000
1000
0000
1300
0001
0100
0000
0101
0000
,
0020
0000
0100
0000
0130
0000
0200
0000
0010
0000
0310
1000
0001
0000
1000
0000
,
1001
0000
0100
0000
0001
0010
1100
0000
,
0002
0023
2030
3100
,
1000
0010
0001
0100
0001
0010
0100
0100
,
0010
0000
0001
0010
0100
0000
0100
1000
0010
0000
0010
0100
0001
0000
1000
0000
,
0010
0100
0000
0010
0100
0000
0010
0100
0000
0010
0100
0000
0001
0000
1000
0001
,
1000
0000
0010
0100
0001
0000
0001
1000
0010
0000
0100
0000
0001
0000
1000
0010
,
0100
0000
0001
1000
0010
0000
0010
0100
0001
0000
0010
0000
0100
0000
0100
0000
,
1000
0000
0001
0100
0010
0000
1000
0001
0100
0000
0100
0010
1000
0000
0001
0000
,
0100
0000
0010
1000
0001
0000
0100
0010
1000
0001
0100
0010
1000
0000
0001
0000
,
1000
0000
0100
0010
0001
0000
1000
0100
0010
0000
0010
0001
1000
0000
0100
0000
,
0010
0000
0100
1000
0001
0000
0010
0100
1000
0000
1000
0001
0010
0000
0100
0000
,
2000
0010
0001
3100
,
0101
1100
0011
1010
,
1000
0000
0100
0010
0100
0000
1000
0010
0100
0000
1000
0100
0010
0100
1000
0000
,
0100
0000
0001
0100
0010
0000
0100
0001
0100
0000
0010
0100
0001
0100
0010
0000
,
1000
0000
0010
0100
0010
0000
1000
0010
0100
0000
0010
1000
0100
1000
0010
0000
,
0100
0000
0001
0010
0100
0000
0100
0010
0001
0000
0010
0100
1000
0100
0010
0000
,
0001
0000
0001
0100
1000
0000
0100
0000
0001
0000
0100
1000
0100
0000
0001
0000
,
0010
0000
1000
0010
0001
0000
0010
0000
1000
0000
0010
0001
0010
0000
1000
0000
,
0001
0000
0001
0000
0100
0000
0010
1000
0100
0010
0001
0000
0100
0000
0001
0000
,
0010
0000
1000
0000
0010
0000
0001
1000
0010
0100
0001
0000
0100
0000
0001
0000
,
0010
0000
0100
0000
1000
0000
0010
0100
0001
1000
0100
0000
0010
0000
0100
0000
,
1000
0000
0100
0000
0001
0000
0100
1000
0010
0000
0100
0000
0110
0000
0000
0000
,
1001
0000
0000
0000
,
0000
0000
0000
0000
;

//---------------dance-double - ----------------
#NOTES:
     dance-double:
     :
     Easy:
     6:
     :
00000000
00000000
00000000
00000000
,
00000000
00000000
00000000
00000000
,
00000000
00000000
00000000
00000000
,
00000000
00000000
00000000
00000000
,
00000000
00000000
00000000
00000000
,
00100000
00000000
00010000
00000000
,
00001000
00000000
00001100
00000000
,
00000010
00000000
00001000
00000000
,
00010000
00000000
00110000
00000000
,
01000000
00000000
00010000
00000000
,
00001000
00000000
00001010
00000000
,
00000100
00000000
00001000
00000000
,
00010000
00000000
01010000
00000000
,
00000000
00100000
00000000
00100000
,
00000000
10000000
00000000
01000000
,
00000000
00010000
00000000
00001000
,
00000000
00000000
00000000
00000000
,
00000000
00000100
00000000
00000100
,
00000000
00000001
00000000
00000010
,
00000000
00001000
00000000
00010000
,
00000000
00000000
00000000
00000000
,
00000000
00010000
00000000
01000000
,
00000000
10000000
00000000
01000000
,
00000000
00100000
00000000
00010000
,
00000000
00000000
00000000
00000000
,
00000000
00001000
00000000
00000010
,
00000000
00000001
00000000
00000010
,
00000000
00000100
00000000
00001000
,
00000000
00000000
00000000
00000000
,
00000001
00000001
00000100
00000100
,
00000010
00000010
00001000
00001000
,
00000100
00000100
00010000
00010000
,
00001000
00000000
00000000
00000000
,
00100000
00000000
00000000
00000000
,
01000000
00000000
00100000
00000000
,
00010000
00000000
10000000
00000000
,
00010000
00000000
10010000
00000000
,
00100000
00000000
10000000
00000000
,
01000000
00000000
01100000
00000000
,
01000000
00000000
00010000
00000000
,
00001000
00000000
00011000
00000000
,
00000000
00001000
00000000
00000100
,
00000000
00000001
00000000
00000010
,
00000000
00001000
00000000
00010000
,
00000000
00000000
00000000
00000000
,
00000000
00010000
00000000
01000000
,
00000000
10000000
00000000
00100000
,
00000000
00010000
00000000
00100000
,
00000000
00000000
00000000
00000000
,
10000000
10000000
00100000
00100000
,
01000000
01000000
00010000
00010000
,
00100000
00100000
00001000
00001000
,
00010000
00000000
00000000
00000000
,
00001000
00000000
00000000
00000000
,
00000100
00000000
00000010
00000000
,
00000100
00000000
00000100
00000000
,
00000100
00000000
00000000
00000000
,
00000001
00000000
00000001
00000000
,
00001000
00000000
00001000
00000000
,
00000010
00000010
00000100
00000100
,
00000001
00001000
00000001
00000000
,
00000100
00000000
00000000
00000000
,
00010000
00010000
00010000
00010000
,
00001000
00000000
00000000
00000000
,
00011000
00011000
00011000
00000000
,
00010000
00000000
00010000
00000000
,
01000000
00000000
01000000
00000000
,
10000000
10000000
00010000
00010000
,
01000000
00100000
01000000
00000000
,
00100000
00000000
00000000
00000000
,
00001000
00001000
00001000
00001000
,
00010000
00000000
01000000
00000000
,
00010000
00000000
00001000
00000000
,
00010000
00000000
00000100
00000000
,
00000010
00000000
00000110
00000000
,
00001001
00000000
00000000
00000000
,
00000000
00000000
00000000
00000000
;

//---------------dance-double - ----------------
#NOTES:
     dance-double:
     :
     Medium:
     10:
     :
00000000
00000000
00000000
00000000
,
00000000
00000000
00000000
00000000
,
00000000
00000000
00000000
00000000
,
00000000
00000000
00000000
00000000
,
00000000
00000000
00000000
00000000
,
00010000
00001000
00000000
00010000
00001000
00000000
00000000
01000000
,
00000000
10100000
00000000
10000000
01000000
00000000
00100000
00000000
,
00010000
00100000
00000000
00001000
00010000
00000000
00000000
00000100
,
00000000
00000011
00000000
00000001
00000100
00000100
00000010
00000000
,
00001000
00000100
00000000
00010000
00001000
00000000
00000000
00100000
,
00000000
11000000
00000000
00100000
10000000
01000000
10000000
00000000
,
00010000
00100000
00000000
00001000
00010000
00000000
00000000
00000010
,
00000000
00000101
00000000
00000010
00000001
00000001
00000100
00000000
,
00000101
00000010
00001000
00010000
,
00100000
00100000
01000000
00100000
,
10000000
00000000
00110000
00000000
00010000
01000000
10000000
00000000
,
01000000
00000000
00000000
00000000
00010000
00100000
01000000
00000000
,
11000000
00100000
00010000
00001000
,
00000010
00000100
00000010
00000010
,
00000001
00000000
00001010
00000000
00000001
00000100
00001000
00000000
,
00010000
00000000
00000000
00000000
00000100
00001000
00000100
00000000
,
00001100
00000010
00000100
00001000
,
00010000
00010000
00100000
01010000
,
00100000
00000000
10000000
00000000
00100000
01000000
00010000
00000000
,
10000000
00000000
00000000
00000000
01000000
00100000
10000000
00000000
,
10100000
01000000
00010000
00100000
,
01000000
00010000
00001000
00010000
,
00000100
00000000
00010100
00000000
00010000
00001000
00000100
00000000
,
00000001
00000000
00000000
00000000
00001000
00000001
00001000
00000000
,
00000001
00000101
00001000
00001100
,
00000010
00000110
00001000
00011000
,
00100000
00110000
01000000
10100000
,
00010000
10000000
01000000
00000000
00100000
00000000
00100000
00000000
,
10010000
00000000
01000000
00000000
,
00100000
00110000
00100000
00101000
,
00220000
00330000
00022000
00033000
,
00002200
00003300
00000022
00000033
,
00000100
00000001
00000000
00001000
00000010
00000000
00000000
00000110
,
00000000
00001010
00000000
00000100
00001000
00001000
00000100
00000000
,
00010000
00001000
00000000
00100000
00010000
00000000
00000000
00110000
,
00000000
11000000
00000000
00100000
10000000
10000000
01000000
00000000
,
11000000
00100000
00010000
00001000
,
00000010
00000010
00000100
00000010
,
00000001
00000000
00001010
00000000
00001000
00000100
00000001
00000000
,
00000100
00000000
00000000
00000000
00001000
00000010
00000100
00000000
,
00000101
00000010
00001000
00010000
,
00100000
01000000
00100000
00100000
,
10000000
00000000
00110000
00000000
10000000
01000000
00010000
00000000
,
00001000
00000100
00000001
00000100
,
00000001
00000011
00001000
00001010
,
00000100
00000110
00001000
00011000
,
01000000
01010000
00100000
11000000
,
00010000
10000000
00100000
00000000
01000000
00000000
01000000
00000000
,
10010000
00000000
00100000
00000000
,
01000000
01100000
10000000
10010000
,
02200000
03300000
00022000
00033000
,
00000220
00000330
00000000
00000000
,
00000001
00000000
00000010
00000000
00000100
00000010
00000001
00000000
,
00000101
00000000
00000100
00000000
00000010
00001000
00000100
00000000
,
00001000
00000100
00001000
00000000
00010000
00000100
00010000
00000000
,
00001000
00010000
00100000
01100000
,
00100000
10000000
01000000
00000000
00100000
00010000
01000000
00000000
,
00010000
00000000
10000000
00000000
00010000
00100000
00010000
00100000
,
00001000
00010000
00011000
00000000
,
00200000
00001000
00010000
01300000
,
10000000
00000000
01000000
00000000
00100000
01000000
10000000
00000000
,
10100000
00000000
00100000
00000000
01000000
00010000
00100000
00000000
,
00010000
00100000
00010000
00000000
00001000
00100000
00001000
00000000
,
00010000
00001000
00000100
00000110
,
00000100
00000001
00000010
00000000
00000100
00001000
00000010
00000000
,
00001000
00000000
00000001
00000000
00001000
00000001
00001000
00000000
,
00001000
00000100
00000000
00010000
00001000
00000000
00000000
00010000
,
00000000
10100000
00000000
10000000
01000000
01000000
00100000
00000000
,
00010000
01000000
00000000
00001000
00010000
00000000
00000000
00000010
,
00000000
00001100
00000000
00000010
00000001
00000001
00000100
00000000
,
00001001
00000000
00000000
00000000
,
00000000
00000000
00000000
00000000
;

//---------------dance-double - ----------------
#NOTES:
     dance-double:
     :
     Hard:
     13:
     :
00000000
00000000
00000000
00000000
,
00000000
00000000
00000000
00000000
,
00000000
00000000
00000000
00000000
,
00000000
00000000
00000000
00000000
,
00000000
00000000
00000000
00000000
,
00010000
00001000
00000000
00000100
00000001
00000000
00000000
00000011
,
00000000
00001010
00000000
00001000
00000010
00000001
00000100
00001000
,
00001000
00010000
00000000
01000000
10000000
00000000
00000000
10100000
,
00000000
00110000
00100000
00010000
00100000
10000000
01000000
00010000
,
00010000
00001000
00000000
00000010
00000001
00000000
00000000
00000101
,
00000000
00001100
00000000
00001000
00000100
00000001
00000010
00001000
,
00001000
00010000
00000000
00100000
10000000
00000000
00000000
11000000
,
00000000
01010000
01000000
00010000
01000000
10000000
00100000
00010000
,
00001000
00000000
00011000
00000000
00010000
00001000
00000010
00000000
,
00000001
00000000
00000101
00000000
00000010
00001000
00000001
00000100
,
00001000
00000000
00010000
00001000
00010000
01000000
00100000
01000000
,
10000000
00100000
00000000
01000000
00010000
00000000
00110000
00000000
,
00001000
00000000
00010000
00000000
00001000
00000100
00000010
00000000
,
00001000
00000000
00001001
00000000
00000010
00000001
00000100
00000010
,
00001000
00000000
00010100
00000000
00001000
00010000
01000000
00000000
,
00010000
00001000
00000000
00000100
00000010
00000000
00001010
00000000
,
00000100
00000000
00011000
00000000
00001000
00010000
01000000
00000000
,
10000000
00000000
10100000
00000000
01000000
00010000
10000000
00100000
,
00010000
00000000
00001000
00010000
00001000
00000010
00000100
00000010
,
00000001
00000100
00000000
00000010
00001000
00000000
00001100
00000000
,
00010000
00000000
00001000
00000000
00010000
00100000
01000000
00000000
,
00010000
00000000
10010000
00000000
01000000
10000000
00100000
01000000
,
00010000
00101000
00010100
00001010
,
00000001
00000010
00000100
00001000
00010000
00000000
00011000
00000000
,
00100000
00100000
00110000
00000000
01000000
01000000
11000000
00000000
,
00100000
00100000
01100000
00000000
00010000
00010000
00011000
00000000
,
00000100
00000100
00001100
00000000
00000010
00000010
00000011
00000000
,
00000001
00000000
00000100
00000000
00000010
00000100
00000110
00000000
,
00001000
00010000
00100000
10000000
,
00010000
00100000
10000000
00100000
01000000
10000000
00100000
01000000
,
00010000
00010000
00100000
00100000
00001000
00001000
00010000
00010000
,
00021000
00000000
00032000
00000000
,
00013000
00001000
00000000
00000100
00000001
00000000
00000000
00000011
,
00000000
00001010
00000000
00001000
00000010
00000001
00000100
00001000
,
00001000
00010000
00000000
01000000
10000000
00000000
00000000
10100000
,
00000000
00110000
00100000
00010000
00100000
10000000
01000000
00010000
,
00001000
00000000
00011000
00000000
00010000
00001000
00000100
00000000
,
00000001
00000000
00000011
00000000
00000100
00001000
00000001
00000010
,
00001000
00000000
00010000
00001000
00010000
00100000
01000000
00100000
,
10000000
01000000
00000000
00100000
00010000
00000000
01010000
00000000
,
00001000
00000000
00010000
00000000
00001000
00000010
00000100
00000000
,
00001000
00000000
00001001
00000000
00000100
00000001
00000010
00000100
,
00001000
00000000
00010010
00000000
00001000
00010000
00100000
00000000
,
00010000
00001000
00010000
00000100
00001000
00000000
00001001
00000000
,
00000010
00000010
00001010
00000000
00000100
00000100
00000101
00000000
,
00000010
00000010
00000110
00000000
00001000
00001000
00011000
00000000
,
01000000
01000000
01010000
00000000
00100000
00100000
10100000
00000000
,
10000000
00000000
01000000
00000000
00100000
01000000
01100000
00000000
,
00010000
00001000
00000010
00000001
,
00001000
00000010
00000001
00000010
00000100
00000001
00000010
00000100
,
00001000
00001000
00000010
00000010
00010000
00010000
00001000
00001000
,
00022000
00000000
00033000
00000000
,
00110000
00100000
01000000
10000000
00010000
01000000
10000000
00000000
,
11000000
10000000
01000000
00010000
00100000
01000000
00100000
00010000
,
00100000
00001000
00011000
00000000
00000010
00010000
00001000
00010000
,
00000100
00000000
00001000
00000000
00000010
00000000
00000001
00000000
00000010
00000000
00000100
00000000
00000010
00001000
00000010
00000000
,
00000100
00000000
00000001
00000000
00001000
00000000
00000010
00000000
00010000
00000000
00000100
00000000
00010000
00001000
00010000
00000000
,
00001000
00100000
00010000
00100000
01000000
00100000
10000000
00100000
,
00020000
00100000
10030000
00000000
,
10100000
11000000
01010000
00011000
,
00001100
00000100
00000010
00000001
00001000
00000010
00000001
00000000
,
00000011
00000001
00000010
00001000
00000100
00000010
00000100
00001000
,
00000100
00010000
00011000
00000000
01000000
00001000
00010000
00001000
,
00100000
00000000
00010000
00000000
01000000
00000000
10000000
00000000
01000000
00000000
00100000
00000000
01000000
00010000
01000000
00000000
,
00100000
00000000
10000000
00000000
00010000
00000000
01000000
00000000
00001000
00000000
00100000
00000000
00001000
00010000
00001000
00000000
,
00010000
00000100
00001000
00000100
00000010
00000001
00000100
00000100
,
00001000
00010000
00000000
01000000
10000000
00000000
00000000
10100000
,
00000000
00110000
00000000
00010000
00100000
10000000
01000000
00010000
,
00010000
00001000
00000000
00000100
00000001
00000000
00000000
00000011
,
00000000
00001010
00000010
00000100
00001000
00000010
00010000
00000100
,
00010100
00000000
00000000
00000000
,
00000000
00000000
00000000
00000000
;

//---------------dance-double - ----------------
#NOTES:
     dance-double:
     :
     Challenge:
     16:
     :
00000000
00000000
00000000
00000000
,
00000000
00000000
00000000
00000000
,
00000000
00000000
00000000
00000000
,
00000000
00000000
00000000
00000000
,
00000000
00000000
00000000
00000000
,
00101000
00000000
00010000
00000000
00000100
00000000
00001000
00000001
00000010
00000000
00000100
00000000
00000010
00000000
00001000
00000000
,
00000010
00000000
00000001
00000000
00001000
00000000
00000010
00000100
00000010
00000000
00000100
00000000
00001000
00000000
00010000
00000000
,
00000100
00000000
00010000
00000000
00001000
00000000
00100000
00010000
01000000
00000000
00100000
00000000
10000000
00000000
01000000
00000000
,
00010000
00000000
01000000
00000000
10000000
00000000
00010000
01000000
00010000
00000000
00100000
00000000
00001000
00000000
00010000
00000000
,
00000100
00000000
00001000
00000000
00000010
00000000
00001000
00000001
00000100
00000000
00000010
00000000
00000100
00000000
00001000
00000000
,
00000100
00000000
00000001
00000000
00001000
00000000
00000100
00000010
00000100
00000000
00000010
00000000
00000001
00000000
00000100
00000000
,
00001000
00000000
00010000
00000000
00001000
00000000
01000000
00010000
00100000
00000000
01000000
00000000
10000000
00000000
00100000
00000000
,
00010000
00000000
00100000
00000000
10000000
00000000
00010000
01000000
00010000
00000000
10000000
00000000
00100000
00000000
10000000
00000000
,
11000000
00000000
00110000
00000000
00001000
00010000
01000000
10000000
,
00100000
00010000
00100000
00010000
00100000
10000000
00100000
01000000
,
00010000
10000000
10000000
01000000
00010000
00001000
00001000
00000100
,
00000010
00000000
00000100
00000000
00000001
00000000
00001000
00000001
00000100
00000000
00000001
00000000
00000011
00000000
00000000
00000000
,
00000101
00000000
00001010
00000000
00000100
00000010
00000100
00001000
,
00000001
00000010
00001000
00000100
00010000
00000100
00010000
00001000
,
00100000
00010000
00110000
01000000
10000000
00100000
10100000
01000000
,
00010000
00000000
00100000
00000000
00001000
00000000
00010000
00001000
00010000
00000000
00000000
00001000
00000100
00000000
00000000
00000000
,
00000011
00000000
00001100
00000000
00010000
00001000
00000010
00000001
,
00000100
00001000
00000100
00001000
00000100
00000001
00000100
00000010
,
00001000
00000001
00000001
00000010
00001000
00010000
00010000
00100000
,
01000000
00000000
00100000
00000000
10000000
00000000
00010000
10000000
00100000
00000000
10000000
00000000
11000000
00000000
00000000
00000000
,
10100000
00000000
01010000
00000000
00100000
01000000
00100000
00010000
,
10000000
01000000
00010000
00100000
00001000
00100000
00001000
00010000
,
00000100
00000010
00000001
00000001
00000101
00000100
00001000
00001000
,
00011000
00000000
00010000
00000000
00100000
00000000
10100000
00000000
10000000
00000000
10000000
00010000
01000000
00000000
00000000
00000000
,
00200000
00000000
10000000
00000000
10300000
00000000
02000000
00000000
00100000
00000000
03100000
00010000
01000000
00000000
01010000
00000000
,
00200000
00000000
00001000
00000000
00301000
00000000
00020000
00000000
00000100
00000000
00030100
00001000
00000010
00000000
00001010
00000000
,
00000002
00000000
00000100
00000000
00000103
00000000
00000020
00000000
00001000
00000000
00001030
00000100
00010000
00000000
00000100
00000000
,
00010100
00000000
00001000
00000000
00010000
00100000
11000000
00000000
,
20000000
32000000
03020000
00031000
,
00100000
01000000
00010000
00001000
00000010
00000100
00000110
00000000
,
00000001
00000000
00000001
00001000
00000010
00000000
00000010
00010000
00001000
00000000
00001000
01000000
00010000
00000000
10000000
00000000
,
01000000
00000000
00000000
00000000
00010000
00000000
00000000
00000000
00000100
00000000
00000000
00000000
00001000
00000001
00001000
00000000
,
00000010
00000000
00001000
00000000
00000100
00000000
00001000
00000001
00000010
00000000
00000100
00000000
00000010
00000000
00001000
00000000
,
00000010
00000000
00000001
00000000
00001000
00000000
00000010
00000100
00000010
00000000
00000100
00000000
00000001
00000000
00000010
00000000
,
00001000
00000000
00010000
00000000
00001000
00000000
00100000
00010000
01000000
00000000
00100000
00000000
10000000
00000000
01000000
00000000
,
00010000
00000000
01000000
00000000
10000000
00000000
00010000
00100000
00010000
00000000
10000000
00000000
01000000
00000000
10000000
00000000
,
10100000
00000000
01010000
00000000
00001000
00010000
00100000
10000000
,
01000000
00010000
01000000
00010000
01000000
10000000
01000000
00100000
,
00010000
10000000
10000000
00100000
00010000
00001000
00001000
00000010
,
00000100
00000000
00000010
00000000
00000001
00000000
00001000
00000001
00000010
00000000
00000001
00000000
00000101
00000000
00000000
00000000
,
00000011
00000000
00001100
00000000
00000010
00000100
00000010
00001000
,
00000001
00000100
00001000
00000010
00010000
00000010
00010000
00001000
,
01000000
00100000
10000000
10000000
11000000
01000000
00010000
00010000
,
00011000
00000000
00001000
00000000
00000010
00000000
00000010
00000000
00000011
00000000
00000001
00001000
00000100
00000000
00000000
00000000
,
00000020
00000000
00000001
00000000
00000031
00000000
00000200
00000000
00000010
00000000
00000310
00001000
00000100
00000000
00001100
00000000
,
00000020
00000000
00010000
00000000
00010030
00000000
00002000
00000000
01000000
00000000
01003000
00010000
00100000
00000000
00110000
00000000
,
20000000
00000000
01000000
00000000
31000000
00000000
00200000
00000000
01000000
00000000
01300000
00100000
00001000
00000000
00010000
00000000
,
00011000
00000000
00010000
00000000
00001000
00000010
00000101
00000000
,
00000002
00000203
00002300
00013000
,
00000010
00000100
00001000
00010000
00100000
01000000
01100000
00000000
,
10000000
00000000
10000000
01000000
00100000
00000000
00100000
00010000
01000000
00000000
01000000
00001000
00010000
00000000
00010000
00000000
,
00000010
00001000
00000000
00000010
00000100
00000000
00000010
00000001
00000000
00000010
00000100
00000000
00000001
00000000
00001000
00000001
,
00001000
00000000
00000001
00000010
00000100
00000000
00001000
00000100
00000010
00000000
00000001
00000000
00001000
00000000
00000010
00000100
,
00000010
00000000
00001000
00000100
00010000
00000000
00001000
00010000
00000100
00000000
00010000
00000000
00001000
00000000
00100000
00010000
,
00100000
00000000
00010000
01000000
00100000
00000000
10000000
00100000
01000000
00000000
01000000
00100000
10000000
00000000
01000000
00000000
,
00100000
00000000
00010000
00100000
01000000
00000000
10000000
01000000
00100000
00010000
01000000
00001000
00010000
00000000
00001000
00000000
,
00000100
00000000
00000010
00000100
00001000
00000000
00000100
00000010
00000001
00000000
00000010
00000100
00001000
00000000
00010000
00000000
,
00001000
00000000
00000100
00000010
00001000
00000000
00000100
00001000
00000010
00000000
00000100
00000010
00000100
00000000
00001000
00000000
,
00020000
00000100
00001000
00130000
,
10100000
11000000
01010000
00110000
,
00001000
00000000
00100000
00001000
00010000
00000000
00001000
00100000
00010000
00000000
00100000
00010000
00100000
00001000
00010000
00000000
,
00001000
00000000
00010000
00000100
00001000
00000000
00000100
00010000
00001000
00000000
00010000
00000100
00001000
00000100
00010000
00000000
,
00000010
00000000
00001000
00000100
00000010
00000000
00000001
00000010
00000100
00000000
00001000
00000100
00000010
00000001
00001000
00000000
,
00000010
00000000
00000100
00000010
00001000
00000000
00000100
00000010
00001000
00000000
00010000
00001000
00100000
00010000
00100000
00000000
,
01000000
00000000
10000000
01000000
00010000
00000000
01000000
10000000
01000000
00000000
00010000
00001000
00010000
00000000
00001000
00000000
,
00000100
00000000
00000001
00000100
00001000
00000000
00000100
00000001
00000100
00000000
00001000
00010000
00001000
00000000
00100000
00000000
,
00101000
00000000
00010000
00000000
00000100
00000000
00001000
00000001
00000010
00000000
00000100
00000000
00000010
00000000
00001000
00000000
,
00000010
00000000
00000001
00000000
00001000
00000000
00000010
00000100
00000010
00000000
00000100
00000000
00001000
00000000
00010000
00000000
,
00000100
00000000
00010000
00000000
00001000
00000000
00100000
00010000
01000000
00000000
00100000
00000000
10000000
00000000
01000000
00000000
,
00010000
00000000
00001000
00000000
00000100
00000000
00000001
00000010
00000100
00000000
00001000
00000000
00001100
00000000
00000000
00000000
,
00010010
00000000
00000000
00000000
,
00000000
00000000
00000000
00000000
;
