#TITLE:晴天Bon Voyage;
#ARTIST:TOMOSUKE × seiya-murai feat. ALT;
#TITLETRANSLIT:Seiten Bon Voyage;
#BANNER:Seiten Bon Voyage.png;
#BACKGROUND:Seiten Bon Voyage-bg.png;
#CDTITLE:./CDTitles/DanceDanceRevolution 2013.png;
#MUSIC:Seiten Bon Voyage.ogg;
#SAMPLESTART:11.597;
#SAMPLELENGTH:15;
#BPMS:0=230;
#STAGE:3;

//---------------dance-single - ----------------
#NOTES:
     dance-single:
     :
     Beginner:
     4:
     :
0000
0000
0000
0000
,
0000
0000
0000
0000
,
0000
0000
0000
0000
,
0000
0000
0000
0000
,
0000
0000
0000
0000
,
0000
0000
0000
0000
,
0000
1000
0000
0000
,
0000
0000
0001
0000
,
0000
0000
0000
0010
,
0000
0000
0000
0000
,
0100
0000
0000
0000
,
0000
0001
0000
0000
,
0001
0000
0010
0000
,
0000
0010
0000
0100
,
0000
0000
0100
0000
,
0000
1000
1000
0000
,
0000
1000
0000
0000
,
1000
0000
0010
0000
,
0000
0010
0000
0100
,
0000
0000
0100
0000
,
0000
0001
0001
0000
,
0000
0001
0000
0000
,
0000
0000
1000
0000
,
0000
0000
0000
0010
,
0000
0000
0000
0000
,
0100
0000
0000
0000
,
0000
0001
0000
0000
,
0010
0000
0100
0000
,
0000
1000
0000
0010
,
0000
0000
0100
0000
,
0000
0001
0001
0000
,
0000
1000
0000
0000
,
0100
0000
0010
0000
,
0000
0001
0000
0100
,
0000
0000
0010
0000
,
0000
1000
1000
0000
,
0000
0100
0000
0000
,
0010
0000
0000
0000
,
0000
0000
0000
0010
,
0000
0000
0100
0000
,
0000
0000
0000
0000
,
0000
1000
0000
0000
,
0001
0000
1000
0000
,
0000
0000
0000
0010
,
0000
0000
0220
0000
,
0000
0330
0000
0000
,
0000
0000
0000
0000
,
0000
0000
1001
0000
,
0000
0000
0000
0010
,
0000
0010
0000
0100
,
0000
0000
0000
0100
,
0000
0100
0000
0010
,
0000
0000
0000
1000
,
0000
1000
0000
0001
,
0000
0000
0000
0001
,
0000
0001
0000
1000
,
0000
0000
0000
0001
,
0000
0100
0000
0010
,
0000
0000
0000
1000
,
0000
0100
0000
0010
,
0000
0000
0000
0001
,
0000
1000
0000
0100
,
0000
0000
0000
1000
,
0000
0000
0001
0000
,
0100
0000
0000
0001
,
0000
0000
1000
0000
,
0000
0000
0000
1000
,
0000
0001
0000
0000
,
0220
0000
0000
0330
,
0000
0000
0000
1000
,
0000
0000
0010
0000
,
0100
0000
0000
0001
,
0000
0010
0000
0000
,
0100
0000
0000
1000
,
1000
0000
0001
0001
,
0000
0000
0100
0000
,
0010
0000
0000
1000
,
0000
0100
0000
0000
,
0010
0000
0000
0001
,
0001
0000
1000
1000
,
0000
0000
0000
0000
,
0001
0000
0000
0000
,
0000
1000
0000
0000
,
0000
0000
0001
0000
,
0000
0000
0000
0010
,
0000
0000
0000
0000
,
0100
0000
0000
0000
,
0000
0010
0000
0000
,
0000
0000
0000
0100
,
0100
0000
0010
0010
,
0000
0000
0001
0000
,
0100
0000
0000
1000
,
0000
0100
0000
0000
,
0001
0000
0000
0010
,
0010
0000
0100
0100
,
0000
0000
1000
0000
,
0010
0000
0000
0001
,
0000
0010
0000
0000
,
1000
0000
0000
0100
,
0100
0000
0010
0010
,
0000
0000
0000
0000
,
0001
0000
0000
0000
,
0000
1000
0000
0000
,
0000
0000
0010
0000
,
0000
0000
0000
0000
;

//---------------dance-single - ----------------
#NOTES:
     dance-single:
     :
     Easy:
     7:
     :
0000
0000
0000
0000
,
0000
0000
0000
0000
,
0000
0000
0000
0000
,
0000
0000
0000
0000
,
0000
0000
0000
0000
,
0000
0000
0000
0000
,
0000
1000
0000
0000
,
1000
0000
0001
0000
,
0000
0001
0000
1000
,
0000
0000
0001
0000
,
1000
0000
0000
0001
,
0000
0010
0000
0000
,
0100
1000
0001
0000
,
0000
0100
0001
1000
,
0000
0000
1000
0100
,
0000
1000
0100
0010
,
0001
0001
0000
0000
,
0010
0001
1000
0000
,
0000
0010
1000
0001
,
0000
0000
1000
0001
,
0010
0000
0100
0010
,
0001
1000
0000
0200
,
0000
0300
0000
0000
1000
0000
0000
0000
,
0200
0000
0000
0300
0000
0000
0001
0000
,
0000
0000
0200
0000
0000
0300
0000
0000
,
0001
0000
0000
0000
0200
0000
0000
0300
,
0000
0001
0000
0000
,
0100
0001
1000
0000
,
0000
0100
0010
0001
,
0000
0000
1000
0100
,
0000
0010
0001
0100
,
0010
0100
0000
0000
,
1000
0100
0010
0000
,
0000
0001
0100
0010
,
0000
0000
1000
0001
,
0000
0100
1000
0010
,
0100
0001
0000
0000
,
1000
0000
0000
0010
0000
0100
0000
0000
,
0000
0000
0000
1000
,
0000
0000
0000
0000
0001
0000
0000
0100
,
0000
0010
0000
0000
0000
0000
0000
0000
,
0000
0000
1000
0000
0000
0001
0000
0000
,
1000
0000
0000
0000
0002
0000
0000
0003
,
0000
2000
0000
0000
3000
0000
0010
0000
,
0000
0100
0000
0000
2002
0000
0000
0000
,
3003
0010
0000
0000
,
0100
0000
0000
0010
,
0000
0000
1001
0000
,
0000
0000
0000
0001
,
0000
0000
1000
0000
,
0100
0000
0010
0001
,
0000
0000
0010
0000
,
0100
0000
1000
0001
,
0000
0001
0000
0000
,
2000
3000
0010
0100
,
0000
0000
0001
0000
,
0100
0000
0010
1000
,
0000
0010
0000
0100
,
0001
0000
1000
0001
,
0000
1000
0000
0010
,
0100
0000
0001
1000
,
0001
0000
0100
0000
,
0001
0000
0000
1000
,
0000
0000
0001
0000
,
0110
0000
0000
0001
,
0000
1000
0000
0000
0110
0000
0000
0000
,
0000
0000
0000
0010
,
0000
0000
0100
0000
0000
0001
0000
0000
,
1000
0000
0000
0000
,
0000
0000
0000
0100
,
0000
0000
1000
0100
,
0010
0000
0000
0001
,
0010
0100
0000
0000
,
1000
0100
0000
0010
,
0001
0010
0001
1000
,
0000
0000
0010
0100
,
0001
0000
0000
0010
,
0100
1000
0000
0000
,
0001
1000
0010
1000
,
0010
0100
0010
1000
,
0000
1000
0002
0000
0000
0000
0000
0000
,
0000
0000
0000
0000
,
0003
0001
0000
0000
,
0001
0001
1000
0000
,
0000
1000
1000
0001
,
0000
0001
2000
0000
0000
0000
0000
0000
,
0000
0000
0000
0000
,
3000
1000
0000
0000
,
0010
0100
0001
0010
,
0100
1000
0001
0010
,
0000
0001
0000
0000
0100
0000
0000
0000
,
0010
0000
0000
1000
0000
0000
0100
0000
,
0000
0000
0010
0000
0000
0001
0000
0000
,
0100
0001
0000
0100
,
0010
0000
1000
0001
,
0000
0100
0000
0000
1000
0000
0000
0000
,
1000
0000
0000
0100
0000
0000
0001
0000
,
0000
0000
0001
0000
0000
0100
0000
0000
,
1000
0100
0000
0001
,
0010
0100
1000
0002
,
0000
0003
0000
0000
,
2000
0000
3000
0000
,
0000
0002
0000
0003
,
0000
0000
2000
0000
,
3000
0000
0001
0000
,
0000
0000
0000
0000
;

//---------------dance-single - ----------------
#NOTES:
     dance-single:
     :
     Medium:
     9:
     :
0000
0000
0000
0000
,
0000
0000
0000
0000
,
0000
0000
0000
0000
,
0000
0000
0000
0000
,
0000
0000
0000
0000
,
0000
0000
0000
0000
,
0000
1000
0000
0000
,
0100
1000
0001
0000
,
0000
0010
0001
1000
,
0000
0000
0010
0100
,
0001
0000
0000
0010
,
0100
0000
1000
0000
0000
1000
0000
0000
,
0100
0000
1000
0000
0001
0000
0000
0001
,
0000
0100
0001
0010
,
0000
0010
0000
0000
0001
0000
0100
0000
,
0001
2000
3100
0010
,
0100
0000
1000
0000
0000
0100
0000
0000
,
0010
0000
0001
0000
0001
0000
0000
0100
,
0000
0010
1000
1000
,
0000
0010
0000
0000
1000
0000
0001
0000
,
0010
0002
0103
0010
,
1000
0001
0001
0100
,
0000
0100
0000
0000
1000
0000
1000
0000
,
0100
0000
0000
0100
0000
0000
0001
0000
,
0001
0000
0010
0000
0000
0010
0000
0000
,
1000
0000
1000
0000
0010
0000
0000
0010
,
0000
0000
0001
0000
0000
0010
0000
0000
,
0100
0000
1000
0000
0001
0000
0000
0010
,
0000
0100
0010
0001
,
0000
1000
0000
0000
0010
0000
0100
0000
,
0001
0020
0130
1000
,
0010
0000
0100
0000
0000
0001
0000
0000
,
0010
0000
0100
0000
1000
0000
0000
0010
,
0000
0100
0001
0010
,
0000
0001
0000
0000
1000
0000
0010
0000
,
0100
0002
0013
0100
,
1000
0000
1000
0000
0000
0100
0000
0000
,
0001
0000
0000
0110
0000
1001
0000
0000
,
0000
0000
0000
0001
,
0000
0100
0000
0000
1000
0000
0000
0110
,
0000
1001
0000
0000
0000
0000
0000
0000
,
0000
0000
1000
0000
0000
0001
0000
0000
,
1000
0000
0100
0000
0020
0000
0000
0030
,
0000
0002
0000
0000
0003
0000
1100
0000
,
0000
0011
0000
0000
2002
0000
0000
0000
,
3003
0000
0010
0000
0000
0100
0000
0000
,
0001
0000
0000
0100
0000
0000
1000
0000
,
0000
0010
0000
0000
0101
0000
0000
0000
,
0000
0000
0000
0001
,
0000
0001
0000
1000
0000
0000
,
0200
0300
0010
0001
,
0000
0001
0000
0010
0000
0000
,
0200
0300
1000
0001
,
0000
0000
0001
0000
0000
1000
0000
0000
0100
0000
0000
0000
,
2000
0000
0000
0000
0000
3000
0010
0000
0000
0200
0000
0000
,
0300
0001
0000
1000
0000
0000
,
0200
0000
0310
0001
,
0000
0001
0000
0010
0000
0000
,
0002
0000
1003
0001
,
0000
0010
0000
0001
0000
0000
,
0200
0000
0000
0000
0000
0000
0310
0000
0000
2000
0000
3000
,
0002
0003
0000
0110
0000
0000
,
2001
0000
3000
0110
,
0000
1001
0000
0110
0000
0000
,
2002
0000
3003
0101
,
0000
1100
0000
0000
1001
0000
0000
0000
,
0001
0000
0000
1000
0000
0000
0020
0000
,
0030
0000
0200
0000
0300
0002
0000
0000
,
2000
0000
0000
0000
,
0000
3003
0000
0100
,
0000
0001
0000
0000
1000
0000
0100
0000
,
0010
0000
0010
0001
0000
0000
1000
0000
,
0010
0000
0010
0100
0000
0001
0000
0000
,
1000
0001
1000
0002
,
0013
0000
0100
0000
1000
0000
1000
0010
,
0000
0010
0000
0000
1000
0000
0100
0000
,
0001
0000
0000
0100
0000
1000
0100
0000
,
1000
0000
0100
0000
0000
0010
0000
0001
,
0100
1000
0100
0002
,
1003
0010
0100
0002
,
0003
2000
0002
0000
0000
0000
0000
0000
,
0000
0000
0000
0000
,
3003
0000
0001
0000
0000
0010
0000
0000
,
0001
0000
0001
0000
1000
0000
0000
0010
,
0000
1000
0001
2000
,
3000
0002
2000
0000
0000
0000
0000
0000
,
0000
0000
0000
0000
,
3003
0000
1000
0000
0000
0001
0000
0000
,
0100
0100
0001
0010
,
0100
1000
0001
0010
,
0000
0001
0000
0001
0100
0000
0010
0000
,
1000
0000
0000
0010
0000
0010
1000
0000
,
0010
0000
0100
0001
0000
0010
0000
0010
,
0001
0001
1000
0100
,
0020
0032
1003
0001
,
0000
0100
0000
0100
0010
0000
1000
0000
,
0001
0000
0000
0100
0000
0001
0010
0000
,
0001
0000
0001
0000
0010
0100
0000
1000
,
0001
0100
0001
0200
,
0320
1030
1001
0002
,
0000
0003
0100
0100
,
2000
0000
3000
0100
,
0100
0002
0000
0003
,
0100
0100
2000
0000
,
3000
1000
1000
0000
,
0000
0000
0000
0000
;

//---------------dance-single - ----------------
#NOTES:
     dance-single:
     :
     Hard:
     12:
     :
0000
0000
0000
0000
,
0000
0000
0000
0000
,
0000
0000
0000
0000
,
0000
0000
0000
0000
,
0000
0000
0000
0000
,
0000
0000
0000
0000
,
0000
0000
1000
0000
0000
0010
0000
0000
,
0100
0000
0001
0000
1000
0000
0000
0100
,
0000
0010
0001
0100
,
0000
0010
0000
0000
1000
0000
0001
0000
,
0100
0000
0000
0001
0000
0000
1000
0000
,
1100
0000
0002
0000
0000
0203
0000
0301
,
1000
0000
0010
0000
0100
0000
0100
0002
,
0000
1003
0100
0020
,
0000
0032
0000
1003
0010
0000
0100
0000
,
0001
0000
1000
0100
1000
0000
0001
0000
,
0010
0000
0001
0100
0000
0200
0000
0000
,
0310
0000
1000
0000
0001
0000
0001
2000
,
0000
3100
0010
0002
,
0000
0023
0000
0031
1000
0000
0100
0000
,
1000
0000
0001
0100
0001
0000
0010
0000
,
0100
0000
1000
0000
0001
0000
0100
0002
,
0000
1003
0000
0000
0001
0000
1000
0000
,
0100
2000
0000
3001
0000
0000
1000
0000
,
0001
0000
0010
0002
0000
1003
0000
0000
,
0001
0000
1100
0000
0001
0200
0000
0301
,
1000
0000
0001
0000
1000
0020
0000
0000
,
1030
0000
0010
0000
2000
0000
0000
3002
,
0000
0103
0001
0000
1000
0000
0001
0100
,
0001
2000
0000
0000
3001
0000
0100
0000
,
0010
0000
1000
0100
1000
0000
0001
0000
,
0100
0000
0010
0000
0010
2000
0000
0000
,
3001
0000
0100
0000
0001
0000
0001
2000
,
0000
3010
0100
0010
,
0010
0200
0000
0000
0301
0000
0001
0000
,
1000
0000
0001
0010
0100
0000
0010
0000
,
0001
0000
1100
0000
0000
0011
0000
0000
,
1001
0000
0000
0110
0000
1001
0000
0000
,
0000
0000
0000
0101
,
0000
1100
0000
0000
1001
0000
0000
0110
,
0000
1001
0000
0000
0000
0000
0000
0000
,
0000
0000
1000
0000
1000
0001
0000
0001
,
1000
0000
0100
0000
0020
0000
0000
0030
,
0000
0002
0000
0000
0003
0000
1100
0000
,
0000
0011
0000
0000
2002
0000
0000
0000
,
0003
0000
0010
0000
0000
0100
0000
0000
,
3002
0000
0000
0100
0000
0000
1000
0000
,
0000
0013
0000
0000
1100
0000
0000
0000
,
0000
0000
0000
0000
0000
0000
0000
0000
0000
0001
0000
0010
,
0000
0001
0000
0100
0000
0000
,
0002
0000
0000
0000
0000
0000
1003
0000
0000
0001
0000
1000
,
0000
0001
0000
0010
0000
0000
,
0002
0000
0000
0000
0000
0000
1003
0000
0000
0010
0000
0100
,
0000
0000
0001
0000
0000
1000
0000
0000
0100
0000
0000
0000
,
2000
0000
0000
0000
0000
3000
0010
0000
0000
0200
0000
0000
,
0300
0001
0000
0010
0000
0000
,
0200
0000
0000
0000
0000
0000
0310
0000
0000
0001
0000
0010
,
0000
0000
0001
0000
0000
1000
0010
0000
0000
0100
0000
0000
,
0002
0000
0000
0000
0000
0000
1003
0000
0000
0001
0000
0100
,
0000
0000
0010
0000
0000
0100
0001
0000
0000
1000
0000
0000
,
0200
0000
0000
0000
0000
0000
0310
0000
0000
0002
0000
0003
,
2000
0000
3000
0100
0000
0000
0110
0000
0000
0000
0000
0000
,
2001
0000
3010
0110
,
0000
1001
0000
0110
0000
0000
,
2002
0000
3003
0101
,
0000
0110
0000
0000
1100
0000
0000
0000
,
0001
0000
0000
1000
0000
0000
0020
0000
,
0000
0000
0230
0000
0000
0302
0000
0000
,
2000
0000
0000
0000
,
0000
3003
0000
0100
,
0100
0002
0000
0000
1003
0000
0100
0000
,
0010
0000
0010
0002
0000
1003
0001
0000
,
0010
0000
0010
0100
0000
2000
0000
3001
,
0100
0000
0001
0000
1000
0000
0010
0100
,
0010
0000
0100
0000
0001
0000
1000
0100
,
0000
0020
0000
0130
1000
0000
0001
0000
,
0200
0000
0000
0302
0000
1003
0100
0000
,
0001
0000
0200
0000
0000
0310
0000
0001
,
0100
0000
1000
0000
0100
0000
0001
0010
,
1000
0010
0001
0002
,
0000
1003
0002
0000
0100
0000
0100
0000
,
1000
0000
0000
1000
0000
0000
0010
0000
,
0013
0000
0001
0000
0000
0010
0001
0000
,
0100
0000
0010
0000
1000
0000
0000
0010
,
1000
0000
0100
0010
0001
0000
2000
0000
,
0000
3001
2000
0000
0010
0000
0010
0000
,
0001
0000
0000
0001
0000
0000
0100
0000
,
3100
0000
1000
0000
0000
0100
1000
0000
,
0010
0000
0100
0000
0001
0000
0001
0100
,
0001
0000
0010
0100
1000
0000
0020
0000
,
0130
0002
0000
1003
0100
0000
0010
0001
,
2000
0000
3001
0200
0000
0310
1000
0001
,
0010
0000
0100
0001
1000
0010
0000
0010
,
0001
0100
0001
0000
1000
0000
0100
0010
,
0001
0110
1100
0002
,
1003
0100
0000
0100
0020
0000
0032
0000
,
2003
0000
3001
0200
0000
0301
0010
0100
,
0001
0000
0001
0100
0010
1000
0000
0010
,
0002
0000
2003
0000
3001
0000
0100
0010
,
1000
0110
0101
2000
,
0000
0000
0100
3100
,
0002
0000
0000
0100
,
0103
2000
0000
0000
,
0100
3100
0002
0000
,
0000
1000
1003
0000
,
0000
0000
0000
0000
;

//---------------dance-double - ----------------
#NOTES:
     dance-double:
     :
     Easy:
     7:
     :
00000000
00000000
00000000
00000000
,
00000000
00000000
00000000
00000000
,
00000000
00000000
00000000
00000000
,
00000000
00000000
00000000
00000000
,
00000000
00000000
00000000
00000000
,
00000000
00000000
00000000
00000000
,
00000000
10000000
00000000
00000000
,
01000000
00000000
10000000
00000000
,
00000000
00010000
00000000
00100000
,
00000000
00000000
00010000
00000000
,
00000100
00000000
00000000
00000010
,
00000000
00001000
00000000
00000000
,
00000001
00000001
00000010
00000000
,
00000000
00000100
00000100
00010000
,
00000000
00000000
01000000
01000000
,
00000000
00010000
10000000
00000000
,
10000000
00010000
00000000
00000000
,
00100000
00100000
00001000
00000000
,
00000000
00000100
00000100
00000010
,
00000000
00000000
00001000
00001000
,
00000000
00000001
00000010
00000000
,
00000100
00001000
00000000
00000100
,
00000000
00000000
00010000
00000000
,
00001000
00000000
00000000
00100000
,
00000000
00010000
00000000
00000000
,
01000000
00000000
00100000
00000000
,
00000000
10000000
00000000
00000000
,
01000000
00100000
01000000
00000000
,
00000000
00100000
00001000
00100000
,
00000000
00000000
00000010
00010000
,
00000000
00000010
00000100
00000000
,
00000001
00000100
00000000
00000000
,
00000010
00010000
00000100
00000000
,
00000000
00010000
00001000
00100000
,
00000000
00000000
00100000
00010000
,
00000000
01000000
00010000
10000000
,
01000000
10000000
00000000
00000000
,
00100000
00000000
00000000
01000000
00000000
00001000
00000000
00000000
,
00000000
00000000
00000000
00010000
,
00000000
00000100
00000000
00000000
00000000
00000000
00000000
00000010
,
00000000
00000001
00000000
00000000
00000000
00000000
00000000
00000000
,
00000000
00000001
00000000
00000000
,
00000010
00001000
00000100
00000000
,
00000000
00010000
00000000
00000000
00000000
00000000
00001000
00000000
,
00000000
00010000
00000000
00000000
00022000
00000000
00000000
00000000
,
00000000
00033000
00000000
00000000
,
00000000
00000000
00000000
00001000
00000000
00000000
01000000
00000000
,
00000000
00001000
00000000
00000000
00100000
00000000
00000000
00000000
,
00000000
00000000
00000000
10000000
,
00000000
10000000
00000000
00000000
,
00020000
00000000
00000000
00030000
01000000
00000000
00010000
00000000
,
00000000
00100000
00001000
00000000
,
00000200
00000300
00000001
00000010
,
00000000
00001000
00000000
00001000
,
00020000
00030000
00000000
01000000
,
00000000
10000000
01000000
00000000
,
00200000
00300000
00010000
10000000
,
00000000
01100000
00010000
00000000
,
02000000
03000000
00001000
00010000
,
00000000
00000000
00000100
00000000
,
00000020
00000030
00000000
00000001
,
00000001
00000000
00001000
00000000
,
00000020
00000030
00000000
00010000
,
00000000
00001000
00000000
00010000
00000000
00000000
,
00011000
00000000
00000000
00100000
,
00000000
00000000
01000000
00000000
,
10000000
00000000
00000000
00010000
00000000
00000000
01000000
00000000
,
00000000
00000000
00001000
00000000
00000000
00010000
00000000
00000000
,
00001000
00000000
00000000
00000000
,
00000000
00000000
00000000
00000100
,
00000000
00000000
00000100
00010000
,
00000010
00000000
00000000
00000100
,
00000001
00001000
00000000
00000000
,
00000010
00010000
00000000
00000100
,
00010000
00001000
00100000
00100000
,
00000000
00000000
01000000
10000000
,
00010000
00000000
00000000
01000000
,
00001000
00010000
00000000
00000000
,
00000100
00010000
00000000
00000010
,
00001000
00000100
00000010
00000001
,
00000000
00002000
00000000
00000000
,
00000000
00000000
00000000
00000000
,
00003000
00000000
00000000
00000000
,
00000000
00000000
00000000
00000000
,
00000000
00000000
00000000
00001000
,
00000000
00000000
00001000
01000000
,
00010000
00000000
00000000
01000000
,
00001000
00010000
00000000
00000000
,
00010000
00000100
00001000
00000000
,
00001000
00000100
00000010
00000002
,
00000000
00000000
00001003
00000100
,
00020000
00000000
00000000
00031000
,
01000000
00200000
00000000
00000000
,
10300000
01000000
00000000
00010000
,
00001000
00000100
00001000
00020000
,
00000000
00000000
00030000
01000000
,
00200000
00000000
00000000
10300000
,
01000000
00020000
00000000
00000000
,
00031000
00000100
00000000
00000001
,
00000010
00001000
00010000
00000000
,
00000000
00000000
00000100
00000000
,
00010000
00000000
00000000
00001000
,
00000000
01000000
00000000
00000000
,
00001000
00000000
00010000
00000000
,
00000000
00001000
00010000
00000000
,
00000000
00000000
00000000
00000000
;

//---------------dance-double - ----------------
#NOTES:
     dance-double:
     :
     Medium:
     9:
     :
00000000
00000000
00000000
00000000
,
00000000
00000000
00000000
00000000
,
00000000
00000000
00000000
00000000
,
00000000
00000000
00000000
00000000
,
00000000
00000000
00000000
00000000
,
00000000
00000000
00000000
00000000
,
00000000
10000000
00000000
00000000
,
01000000
10000000
00010000
00000000
,
00000000
00100000
00001000
00100000
,
00000000
00000000
00000100
00001000
,
00000001
00000000
00000000
00000100
,
00001000
00000000
00010000
00000000
00000000
00010000
00000000
00000000
,
00001000
00000000
00100000
00000000
00010000
00000000
00000000
00010000
,
00000000
10000000
00100000
10000000
,
00000000
10000000
00000000
00000000
01000000
00000000
00100000
00000000
,
00000000
00010000
00010000
00100000
,
00001000
00000000
00010000
00000000
00000000
00010000
00000000
00000000
,
00000100
00000000
00000010
00000000
00000001
00000000
00000000
00000001
,
00000000
00000100
00000010
00001000
,
00000000
00001000
00000000
00000000
00000010
00000000
00001000
00000000
,
00000000
00000001
00000010
00000100
,
00001000
00000020
00000000
00001030
,
00000000
00000010
00000000
00000000
00000200
00000000
00000000
00000000
,
00001300
00000000
00000000
00010000
00000000
00000000
02000000
00000000
,
00000000
00000000
13000000
00000000
00000000
00010000
00000000
00000000
,
02000000
00000000
00000000
00000000
03010000
00000000
00000000
10000000
,
00000000
00000000
01000000
00000000
00000000
10000000
00000000
00000000
,
01000000
00000000
00100000
00000000
01000000
00000000
00000000
00010000
,
00000000
00001000
00000100
00000010
,
00000000
00001000
00000000
00000000
00000010
00000000
00010000
00000000
,
00000000
00010000
00000100
00001000
,
00000001
00000000
00000100
00000000
00000000
00000001
00000000
00000000
,
00000100
00000000
00000010
00000000
00000100
00000000
00000000
00001000
,
00000000
00010000
01000000
00100000
,
00000000
00010000
00000000
00000000
00100000
00000000
00001000
00000000
,
00000000
00001000
01000000
00010000
,
10000000
00000000
10000000
00000000
00000000
01000000
00000000
00000000
,
00010000
00000000
00000000
00001000
00000000
00010000
00000000
00000000
,
00000000
00000000
00000000
00000001
,
00000000
00000100
00000000
00000000
00001000
00000000
00000000
00010000
,
00000000
00001000
00000000
00000000
00000000
00000000
00000000
00000000
,
00000000
00000000
00000001
00000000
00000000
00000100
00000000
00000000
,
00000010
00000000
00001000
00000000
00000100
00000000
00000000
00010000
,
00000000
00001000
00000000
00000000
01000000
00000000
00100000
00000000
,
00000000
00010000
00000000
00000000
00022000
00000000
00000000
00000000
,
00033000
00000000
00010000
00000000
00000000
00000100
00000000
00000000
,
00010000
00000000
00000000
00000010
00000000
00000000
00001000
00000000
,
00000000
00000010
00000000
00000000
00000220
00000000
00000000
00000000
,
00000000
00000000
00000000
00000330
00000000
00000000
00000010
00000000
,
00000000
00000010
00000000
00000100
,
00002000
00003000
00010000
00010000
,
00000000
01000000
00000000
10000000
00000000
00000000
,
00200000
00300000
01000000
00010000
,
00000000
00100000
00000000
00000000
00001000
00000000
,
00020000
00030000
00001000
00001000
,
00000000
00000100
00000000
00000001
00000000
00000000
,
00000020
00000030
00000001
00001000
,
00000000
00000010
00000000
00001000
00000000
00000000
,
00000020
00000030
00000100
00000100
,
00000000
00001000
00000000
00010000
00000000
00000000
,
00200000
00300000
01000000
00100000
,
00100000
00000000
10000000
00000000
,
00020000
00030000
00000000
01000000
,
00000000
00010000
00000000
00100000
00000000
00000000
,
22000000
00000000
33000000
00100000
,
00000000
00010000
00000000
00000000
01000000
00000000
00000000
00000000
,
00010000
00000000
00000000
10000000
00000000
00000000
01000000
00000000
,
00000000
00000000
00010000
00000000
00000000
00001000
00000000
00000000
,
00000200
00000000
00000000
00000000
,
00000000
00000300
00000000
00000010
,
00000000
00001000
00000000
00000000
00000100
00000000
00010000
00000000
,
00000100
00000000
00000000
00001000
00000000
00000000
00000100
00000000
,
00010000
00000000
00001000
00000000
00000000
00100000
00000000
00000000
,
01000000
00100000
00010000
10000000
,
01000000
00100000
00010000
00100000
,
00000000
00010000
00000000
00000000
01000000
00000000
00001000
00000000
,
01000000
00000000
00000000
00010000
00000000
00000000
01000000
00000000
,
00001000
00000000
00010000
00000000
00000000
00000010
00000000
00000000
,
00000100
00000010
00001000
00000001
,
00000010
00000100
00010000
00001000
,
00000000
00002000
00020000
00000000
00000000
00000000
00000000
00000000
,
00000000
00000000
00000000
00000000
,
00033000
00000000
00000000
00000000
,
00000000
00000000
00000000
00000000
,
00000000
00000000
00000000
00001000
,
00000000
00000000
00010000
01000000
,
00010000
00000000
00000000
00001000
,
00000100
00001000
00000000
00000000
,
00010000
00100000
00010000
00001000
,
00001000
00010000
00001000
00002000
,
00000000
00023000
00000000
00000000
01030000
00000000
10000000
00000000
,
20000000
00000000
00000000
32000000
00000000
00000000
03010000
00000000
,
00001000
00000000
00002000
00000000
00000000
00003200
00000000
00000000
,
00000301
00000100
00000001
00000010
,
00000001
00000100
00001000
00020000
,
00000000
02030000
00000000
00000000
13000000
00000000
00100000
00000000
,
00020000
00000000
00000000
00032000
00000000
00000000
00003100
00000000
,
00000001
00000000
00000020
00000000
00000000
00002030
00000000
00000000
,
00013000
01000000
10000000
00100000
,
10000000
01000000
00010000
00001000
,
00000000
00000000
00000100
00000000
,
00000010
00000000
00000000
00000001
,
00000000
00000010
00000000
00000000
,
00010000
00000000
00001000
00000000
,
00000000
01000000
00100000
00000000
,
00000000
00000000
00000000
00000000
;

//---------------dance-double - ----------------
#NOTES:
     dance-double:
     :
     Hard:
     11:
     :
00000000
00000000
00000000
00000000
,
00000000
00000000
00000000
00000000
,
00000000
00000000
00000000
00000000
,
00000000
00000000
00000000
00000000
,
00000000
00000000
00000000
00000000
,
00000000
00000000
00000000
00000000
,
00000000
00000000
10000000
00000000
00000000
10000000
00000000
00000000
,
01000000
00000000
00010000
00000000
00001000
00000000
00000000
00001000
,
00000000
00000010
00000001
00000100
,
00000000
00000100
00000000
00000000
00001000
00000000
00010000
00000000
,
01000000
00000000
00000000
01000000
00000000
00000000
00010000
00000000
,
00001000
00000000
00000010
00000000
00000000
00000001
00000000
00000010
,
00000100
00000000
00010000
00000000
00001000
00000000
00000000
01000000
,
00000000
00010000
00100000
00000000
00001000
00000000
00010000
00000000
,
00000000
01000000
00000000
00100000
01000000
00000000
10000000
00000000
,
00010000
02000000
03002000
00023000
,
00030020
00000000
00000130
00000000
00000000
00000001
00000000
00000010
,
00000100
00000000
00010000
00000000
00001000
00000000
00000000
00100000
,
00000000
00001000
00010000
00000000
01000000
00000000
10000000
00000000
,
00000000
00100000
00000000
01000000
00100000
00000000
10000000
00000000
,
00010000
00200000
00302000
00023000
,
00030100
00000010
00000001
00000011
,
00000000
00010000
00000100
00000000
00010000
00000000
01000000
00000000
,
11000000
00000000
00000000
00001000
00100000
00000000
01000000
00000000
,
10000000
00000000
11000000
00000000
00000000
00001000
00100000
00000000
,
00001000
00000000
00000100
00000000
00000101
00000000
00000000
00010000
,
00000010
00000000
00000100
00000000
00000000
00000001
00000000
00000001
,
00000010
00000000
00001000
00000000
00010000
00000000
00000000
01000000
,
00000000
01000000
10000000
00000000
00010000
00000000
00010000
00000000
,
00000000
10000000
00000000
10000000
01000000
00000000
00010000
00000000
,
00001000
00000200
00002300
00023000
,
02030000
00000000
00000000
00000000
00000000
00000000
00000000
00000000
00000000
00000000
00000000
00000000
00000000
00000000
00000000
00000000
00000000
00000000
00000000
00000000
00000000
00000000
00000000
00000000
00000000
00000000
00000000
00000000
00000000
00000000
00000000
00000000
00000000
00000000
00000000
00000000
00000000
00000000
00000000
00000000
00000000
00000000
00000000
00000000
00000000
00000000
00000000
03000000
00100000
00000000
00000000
00000000
00000000
00000000
00000000
00000000
00000000
00000000
00000000
00000000
00000000
00000000
00000000
00000000
00000000
00000000
00000000
00000000
00000000
00000000
00000000
00000000
00000000
00000000
00000000
00000000
00000000
00000000
00000000
00000000
00000000
00000000
00000000
00000000
00000000
00000000
00000000
00000000
00000000
00000000
00000000
00000000
00000000
00000000
00000000
00000000
00000000
00000000
00000000
00000000
00000000
00000000
00000000
00000000
00000000
00000000
00000000
00000000
00000000
00000000
00000000
00000000
00000000
00000000
00000000
00000000
00000000
00000000
00000000
00000000
00010000
00000000
00000000
00000000
00000000
00000000
00000000
00000000
00000000
00000000
00000000
00000000
00000000
00000000
00000000
00000000
00000000
00000000
00000000
00000000
00000000
00000000
00000000
00000000
00000000
00000000
00000000
00000000
00000000
00000000
00000000
00000000
00000000
00000000
00000000
00000000
00000000
00000000
00000000
00000000
00000000
00000000
00000000
00000000
00000000
00000000
00000000
00000000
10000000
00000000
00000000
00000000
00000000
00000000
00000000
00000000
00000000
00000000
00000000
00000000
00000000
00000000
00000000
00000000
00000000
00000000
00000000
00000000
00000000
00000000
00000000
00000000
,
00100000
00000000
00010000
00000000
00001000
00000000
00000000
00000100
,
00000000
00000100
00001000
00000000
00000001
00000000
00000010
00000000
,
00000000
00001000
00000000
00000001
00000100
00000000
00001000
00000000
,
00010000
02000000
03020000
00032000
,
00003100
00000000
00000110
00000000
00000000
00001001
00000000
00000000
,
00010100
00000000
00000000
00101000
00000000
00110000
00000000
00000000
,
00000000
00000000
00000000
01100000
,
00000000
10010000
00000000
00000000
01001000
00000000
00000000
00010010
,
00000000
00001010
00000000
00000000
00000000
00000000
00000000
00000000
,
00000000
00000000
00001001
00000000
00000000
00000110
00000000
00000000
,
00000010
00000000
00001000
00000000
00000200
00000000
00000000
00010300
,
00000000
00002000
00000000
00000000
01003000
00000000
01100000
00000000
,
00000000
01001000
00000000
00000000
00022000
00000000
00000000
00000000
,
00033000
00000000
00001000
00000000
00000000
00000100
00000000
00000000
,
00000001
00000000
00000000
00000010
00000000
00000000
00001000
00000000
,
00000000
01000000
00000000
00000000
20020000
00000000
00000000
00000000
,
00000000
00000000
00000000
30030000
00000000
00000000
00010000
00000000
,
00000000
01000000
00000000
01100000
00000000
00000000
,
20200000
30300000
00010000
10000000
,
00000000
00000000
01000000
00000000
00000000
00010000
00001000
00000000
00000000
00000100
00000000
00000000
,
00000202
00000303
00000010
00000100
,
00000000
00000000
00001000
00000000
00000000
00010000
00000000
00000000
00100000
00000000
00000000
00000000
,
20200000
30300000
00010000
01001000
,
01000000
00000000
00001000
00000000
00000000
00000000
00010000
00000000
00000000
00000010
00000000
00000000
,
00000220
00000000
00000000
00000330
00000000
00000000
00000001
00000000
00000000
00001000
00000000
00000010
,
00000000
00010000
00000000
00011000
00000000
00000000
,
00020020
00000000
00000000
00030030
00000000
00000000
00001000
00000000
00010000
01000000
00000000
00000000
,
00000000
10000000
00000000
00101000
00000000
00000000
,
02002000
00000000
00000000
03003000
00000000
00000000
00001000
00000000
00000000
00010000
00000000
00000100
,
00001000
00000100
00000000
00000110
00000000
00000000
,
00002002
00003003
00000000
00000011
,
00000000
00010100
00000000
00101000
00000000
00000000
,
22000000
00000000
33000000
00110000
,
00000000
00011000
00000000
00000000
00001010
00000000
00000000
00000000
,
00010000
00000000
00000000
00000100
00000000
00000000
00002000
00000000
,
00000000
00000000
00000100
00000000
00000000
00000001
00000000
00000000
,
00000020
00000000
00000000
00000000
,
00000000
00003030
00000000
00000010
,
00000000
00001000
00000000
00001000
00000100
00000000
00010000
00000000
,
00000100
00000000
00000000
00001000
00000000
00000001
00000100
00000000
,
00001000
00000000
00010000
00000000
00000000
00100000
00000000
10000000
,
01000000
00010000
01000000
20000000
,
32000000
03200000
00320000
00130000
,
00000000
00010000
00000000
00010000
01000000
00000000
00001000
00000000
,
01000000
00000000
00000000
00010000
00000000
10000000
01000000
00000000
,
00010000
00000000
00001000
00000000
00000000
00000010
00000000
00000001
,
00000100
00001000
00000100
00000002
,
00000023
00000230
00020300
00031000
,
00000000
00020000
00002000
00000000
00000000
00000000
00000000
00000000
,
00000000
00000000
00000000
00000000
,
00033000
00000000
00000000
00000000
,
00000000
00000000
00000000
00000000
,
00000000
00000000
00000000
10000000
,
00000000
01000000
00000000
00000000
00010000
00000000
00001000
00000000
,
00000100
00000000
00000000
00000001
00000000
00000000
00000010
00000000
,
00001000
00000000
00010000
00000000
00000000
01000000
00000000
00000000
,
10000000
00000000
00100000
00000000
10000000
00000000
00010000
10000000
,
00010000
12000000
00010000
03002000
,
00000000
00000100
00000000
00000000
00003010
00000000
00001000
00000000
,
00020000
00000000
00000000
01000000
00000000
00000000
00130000
00000000
,
00010000
00000000
00002000
00000000
00000000
00000100
00000000
00000000
,
00003010
00000000
00000100
00000000
00000001
00000000
00001000
00000001
,
00001000
00000201
00001000
00020300
,
00000000
01000000
00000000
00000000
00230000
00000000
00310000
00000000
,
00002000
00000000
00000000
00000100
00000000
00000000
00003020
00000000
,
00001030
00000000
00020000
00000000
00000000
01000000
00000000
00000000
,
00230000
00000000
00310000
00000000
10000000
00000000
00100000
00010000
,
00001000
00000100
00000001
00001000
,
00000000
00000000
00000001
00000100
,
00010000
00000000
00000000
10000000
,
01000000
00001000
00000000
00000000
,
00000001
00000010
00010000
00000000
,
00000000
10000000
00100000
00000000
,
00000000
00000000
00000000
00000000
;
