#TITLE:Right on time (Ryu☆Remix);
#ARTIST:Ryu☆;
#BANNER:Right on time (Ryu Remix).png;
#BACKGROUND:Right on time (Ryu Remix)-bg.png;
#CDTITLE:./CDTitles/GuitarFreaks & DrumMania XG2.png;
#MUSIC:Right on time (Ryu Remix).ogg;
#SAMPLESTART:18.896;
#SAMPLELENGTH:15;
#BPMS:0=149;
#STAGE:2;

//---------------dance-single - ----------------
#NOTES:
     dance-single:
     :
     Beginner:
     2:
     :
0000
0000
0000
0000
,
0000
0000
0000
0000
,
0000
0000
0000
0000
,
0000
0000
0000
0000
,
0000
0000
0000
0000
,
0000
0000
0000
0000
,
0010
0000
0010
0000
,
0010
0000
0000
0000
,
0100
0000
0100
0000
,
0100
0000
0000
0000
,
0010
0010
0010
0000
,
0000
0000
0000
0000
,
0001
0000
0001
0000
,
0001
0001
0001
0000
,
1000
0000
1000
0000
,
0010
0010
0010
0000
,
1000
0000
1000
0000
,
1000
1000
1000
0000
,
0001
0000
0001
0000
,
0010
0000
0010
0000
,
0010
0000
0000
0000
,
0100
0000
0000
0000
,
0001
0000
0001
0000
,
1000
0000
1000
0000
,
0001
0000
0001
0000
,
0001
0000
0000
0000
,
1000
0000
1000
0000
,
1000
0000
0000
0000
,
0100
0000
0100
0000
,
0100
0000
0000
0000
,
0010
0000
0010
0000
,
0010
0000
0000
0000
,
0001
0000
0000
0000
,
1000
0000
0000
0000
,
0001
0000
0001
0000
,
0001
0000
0000
0000
,
1000
0000
0000
0000
,
0001
0000
0000
0000
,
1000
0000
1000
0000
,
1000
0000
1000
0000
,
0000
0000
0000
0000
,
0001
0000
0001
0000
,
0001
0001
0001
0000
,
1000
0000
1000
0000
,
0010
0010
0010
0000
,
1000
0000
1000
0000
,
1000
1000
1000
0000
,
0001
0000
0001
0000
,
0010
0010
0010
0000
,
0100
0000
0100
0000
,
0100
0100
0100
0000
,
0010
0000
0010
0000
,
0010
0010
0010
0000
,
0001
0000
0001
0000
,
1000
1000
1000
0000
,
0001
0000
0001
0000
,
0010
0000
0010
0000
,
0010
0000
0000
0000
,
1000
0000
0000
0000
,
0010
0000
0010
0000
,
0100
0100
0100
0100
,
0100
0000
0000
0000
,
0000
0000
0000
0000
;

//---------------dance-single - ----------------
#NOTES:
     dance-single:
     :
     Easy:
     7:
     :
0000
0000
0000
0000
,
0000
0000
0000
0000
,
0000
0000
0000
0000
,
0000
0000
0000
0000
,
0000
0000
0000
0000
,
0000
0000
0000
0000
,
1000
1000
1000
1000
,
1000
1000
1000
1000
,
0001
0001
0001
0001
,
0001
0001
0001
0001
,
1001
0110
1001
0000
,
0000
0000
0000
0010
,
1001
0010
1001
0010
,
1000
0001
1000
0010
,
1001
0100
0010
0100
,
1001
0110
1001
0000
,
1001
0100
1001
0100
,
1000
0001
1000
0100
,
1001
0100
1001
0010
,
2002
3003
0220
0330
,
2002
0000
0000
3003
,
0110
0000
0000
0000
,
0100
0100
0100
0100
,
0020
0000
0000
0030
,
1000
1000
1000
1000
,
0001
0001
0001
0001
,
1000
1000
0001
0001
,
0100
0000
0000
0100
0000
0000
0000
0000
,
0001
0001
0001
0001
,
1000
1000
1000
1000
,
0010
0010
0100
0100
,
0010
0000
0000
0010
0000
0000
0000
0000
,
0200
0000
0000
0300
,
0001
0001
0001
0000
,
0020
0000
0000
0030
,
1000
1000
1000
0000
,
0002
1000
1000
1003
,
0020
0100
0100
0130
,
2000
0001
0001
3001
,
0100
0010
0100
1001
,
0000
0000
0000
0010
,
1001
0010
1001
0010
,
1000
0001
1000
0010
,
1001
0100
0010
0100
,
1001
0110
1001
0100
,
1001
0100
1001
0100
,
0001
1000
0001
0100
,
1001
0100
0010
0100
,
0110
0000
0000
0110
0000
0000
0000
0000
,
1001
1001
1000
0001
,
0110
0110
0100
0010
,
1001
1000
0110
0010
,
1001
0110
1001
0010
,
1001
1001
0110
0110
,
1001
1001
0110
0110
,
1001
0110
1001
0110
,
2002
3003
0220
0330
,
2002
0000
0000
3003
,
0100
0000
0000
0000
,
0100
0100
0100
0100
,
0110
0110
0110
0110
,
1001
0000
0000
0000
,
0000
0000
0000
0000
;

//---------------dance-single - ----------------
#NOTES:
     dance-single:
     :
     Medium:
     9:
     :
0000
0000
0000
0000
,
0000
0000
0000
0000
,
0000
0000
0000
0000
,
0000
0000
0000
0000
,
0000
0000
0000
0000
,
0000
0000
0000
0000
,
0001
1000
0101
0101
,
1000
0001
1100
1100
,
0001
0101
1000
1100
,
0001
1000
0001
1000
0001
1000
0001
1000
,
0100
0110
1001
0000
,
0000
0000
0000
0000
0000
0000
1000
0100
,
1000
0000
0001
0100
0001
0000
1000
0010
,
1000
0000
0001
0010
0001
0000
1000
0001
,
1000
0000
0010
0100
0010
0000
0100
0000
,
1001
0000
0110
0000
1001
0000
0010
1000
,
0001
0000
0001
1000
0100
0000
0010
0001
,
1000
0000
1000
0001
0100
0000
0010
1000
,
0010
0000
0100
0001
0100
0000
0010
0000
,
2200
3300
0022
0033
,
2002
0000
0000
3003
,
0110
0000
0000
0000
,
1000
0100
0001
0010
,
1000
0000
0000
1000
0000
0000
0001
0000
0000
0001
0000
0000
1000
0000
0001
0000
,
1000
0000
0100
0000
1000
0000
0001
1000
,
0001
0000
0100
0000
0010
0000
1000
0001
,
1000
0000
0010
0000
0100
0000
0001
0100
,
0001
0000
0000
1010
0000
0000
0100
0100
,
0100
0000
0001
0000
0010
0000
0001
1000
,
0001
0000
0100
0000
0010
0000
1000
0001
,
1000
0000
0100
0000
0010
0000
0100
1000
,
0100
0000
0000
0011
0000
0000
0100
0100
,
0010
0100
0000
0001
0000
1000
0000
1000
,
0100
0100
0000
0010
0000
0001
0000
0001
,
0100
0100
0000
0010
0000
1000
0001
1000
,
0010
0000
0000
0010
0000
0000
0010
0000
0000
0000
0100
0000
0100
0000
0000
0000
,
0100
0011
0100
1010
,
0001
0101
1000
1100
,
0001
1000
0001
1000
0001
1000
0001
1000
,
0001
0010
0100
1000
0001
0000
0100
0100
,
0000
0000
0000
0000
0000
0000
0010
1000
,
0100
0000
0100
1000
0010
0000
0010
0001
,
0100
0000
0100
0001
0010
0000
0010
0100
,
0010
0000
1000
0001
1000
0001
0010
0000
,
1001
0000
0110
0000
1001
0000
0010
0100
,
0100
0000
0100
1000
0001
0000
0001
0100
,
0010
0000
0010
1000
0100
0000
0010
0001
,
0001
0000
0001
0100
0010
1000
0010
0000
,
1000
0001
0000
1001
0000
0000
0010
1000
,
1000
0000
1000
1000
1000
0000
1000
0001
,
0001
0000
0001
0100
0100
0000
0100
0010
,
0010
0000
0010
0010
0100
0010
0100
0000
,
1100
0000
0011
0000
1001
0000
0010
0010
,
0010
0000
1000
1000
1000
0000
0100
0100
,
0100
0000
0001
0001
0001
0000
0010
0010
,
0010
0000
0100
0100
0100
0100
0100
0000
,
0202
0303
2020
3030
,
2002
0000
0000
3003
,
0110
0000
0000
0000
,
1000
1100
0001
0101
,
1000
0000
0000
0100
0000
0000
0010
0000
0000
0001
0000
0000
0100
0000
0010
0000
,
0110
0000
0000
0000
,
0000
0000
0000
0000
;

//---------------dance-single - ----------------
#NOTES:
     dance-single:
     :
     Hard:
     14:
     :
0000
0000
0000
0000
,
0000
0000
0000
0000
,
0000
0000
0000
0000
,
0000
0000
0000
0000
,
0000
0000
0000
0000
,
0000
0000
0000
0000
,
0001
0010
0100
0010
0001
0100
0001
0010
,
0100
1000
0010
1000
0100
0010
0100
1000
,
0001
1000
0001
1000
0010
0100
0010
0100
,
0001
0001
1000
1000
0001
0001
1000
1000
,
1010
0101
1001
0000
,
0000
0000
0000
0000
0000
0000
0001
0011
,
0001
0000
1000
1010
1000
0000
0010
0110
,
0010
0000
0100
0110
0100
0000
0001
0101
,
0001
0000
1000
1100
1000
0000
0001
0000
,
1100
0000
0011
0000
1001
0000
0100
0110
,
0010
0000
0010
0110
0100
0000
1000
1001
,
0001
0000
0001
1001
1000
0000
0001
0101
,
0100
0000
0000
0000
1000
0000
1100
0000
0100
0000
0000
0010
0000
0000
0100
0000
,
2002
3003
0220
0330
,
1001
0000
1000
0000
0100
1000
0000
0001
0000
1000
0001
1000
0000
0010
0000
0010
,
1000
0000
0001
0000
0100
0001
0000
1000
0000
0001
1000
0001
0000
1000
0010
0100
,
0001
0000
0010
0000
0100
1000
0000
0001
0000
1000
0001
0010
0000
0100
0000
0100
,
1000
0000
0010
0000
0100
0001
0000
1000
0000
0001
1000
0001
1000
0100
0010
0001
,
1000
0100
1000
0100
0010
0001
0100
0001
,
1000
0100
1000
0100
0010
0001
0100
0001
,
1000
0100
1000
0100
0010
0001
0100
0001
,
0101
0000
0000
0011
0000
0000
0101
0001
,
0001
0010
0001
0010
0001
0100
1000
0100
,
0001
0010
0001
0010
0001
0100
1000
0100
,
0001
0000
0010
0000
0001
0000
0010
0000
0001
0000
0000
1000
0000
0000
0001
0000
,
1001
0000
0100
1001
0000
0000
0100
0010
,
1100
1200
0000
0310
0000
1010
0000
0010
,
0101
0000
0201
0000
0000
0000
0310
0000
0000
0000
0011
0000
0000
0100
0000
0000
,
0110
0000
0210
0000
0000
0000
0301
0000
0000
0000
1010
0000
0000
1001
0000
0000
,
1010
0000
0000
1001
0000
0000
0101
0000
0000
0000
0110
0000
0110
0000
0000
0000
,
0010
1000
0100
0001
,
0010
0000
0000
0000
1100
0000
0000
0000
0011
0000
0000
0000
1000
0000
0000
0001
,
1000
0010
1000
0010
0100
0001
0100
0001
,
1000
0001
1000
0001
1000
0100
0010
0001
1000
0000
0000
0000
0110
0000
0100
0000
,
0000
0000
0000
0000
0000
0000
1000
1000
,
0101
0000
0010
0010
1100
0000
0001
0001
,
0110
0000
1000
1000
0011
0000
0100
0100
,
1010
0000
0000
0000
0010
0000
0010
0000
1001
0000
0100
0000
0000
0010
0000
0000
,
1001
0000
0000
0000
0110
0000
0000
0000
1001
0000
0000
0000
0010
0000
0100
0001
,
0100
0000
0000
0000
0101
0000
0001
0000
1001
0000
0000
0000
0100
0000
0010
1000
,
0010
0000
0000
0000
1010
0000
1000
0000
1001
0000
0000
0000
0100
0000
0010
0100
,
0010
0000
0000
0000
0110
0000
0100
0000
1100
0000
0000
0001
0000
0000
0100
0001
,
0100
0000
0010
0000
0000
0000
1001
0000
0000
0000
0000
0000
0010
1000
0010
1000
,
0100
0000
0000
0000
1100
0000
1000
0000
0101
0000
0000
0000
0010
0001
0010
0001
,
0100
0000
0000
0000
0101
0000
0001
0000
1010
0000
0000
0000
0100
1000
0100
1000
,
0001
0000
0000
0000
1001
0000
1000
0000
0110
0000
0010
0000
0000
0100
0000
0000
,
1001
0000
0000
0000
0110
0000
0000
0000
1001
0000
0000
0000
0010
1000
0001
0100
,
0010
0000
0000
0000
1000
0010
0100
0001
0010
0000
0000
0000
0100
1000
0010
0100
,
0001
0000
0000
0000
0010
0001
0100
0010
1000
0000
0000
0000
0100
0010
0001
0010
,
0100
0000
0000
0000
1000
0010
0100
0010
1000
0000
0001
1000
0001
0000
1000
0000
,
2001
3100
1002
0103
,
1001
0000
0100
0000
0010
0100
0000
1000
0000
0001
0100
0001
0000
0010
0000
0010
,
0100
0000
1000
0000
0010
0100
0000
0001
0000
1000
0010
1000
0000
0001
0100
0010
,
1000
0000
0100
0000
0010
0001
0000
1000
0000
0001
1000
0010
0000
0100
0000
0010
,
0100
0000
0001
0000
0010
0100
0000
1000
0000
0001
0010
0100
1000
0100
0010
0001
,
1000
0000
0000
0000
,
0000
0000
0000
0000
;

//---------------dance-single - ----------------
#NOTES:
     dance-single:
     :
     Challenge:
     13:
     :
0000
0000
0000
0000
,
0000
0000
0000
0000
,
0000
0000
0000
0000
,
0000
0000
0000
0000
,
0000
0000
0000
0000
,
0000
0000
0000
0000
,
1100
1100
1010
1010
,
0101
0101
0011
0011
,
1100
0101
0011
1010
,
0011
0101
1100
1010
,
0110
0110
1001
MMMM
,
MMMM
0000
MMMM
0000
MMMM
0000
1010
MMMM
,
1010
0000
0011
MMMM
0011
0000
0110
MMMM
,
0110
0000
0101
0000
1100
0000
1100
MMMM
,
1100
0000
0101
MMMM
0101
0000
0110
MMMM
,
1001
0000
0110
0000
1001
0000
0100
0001
,
MMMM
0000
0100
1000
MMMM
0000
0100
0010
,
MMMM
0000
1010
0000
0011
0000
0010
0001
,
MMMM
0000
0010
1000
MMMM
0000
0010
1000
,
1010
MMMM
0011
MMMM
,
0202
0000
0000
0303
,
2200
0000
0000
3300
,
0101
1100
1010
0011
,
1001
0000
0000
MMMM
0000
0000
0110
0000
0000
MMMM
0000
0000
1001
0000
MMMM
0000
,
1100
1100
1100
1100
,
1010
1010
1010
1010
,
0011
0000
0011
0000
0011
0000
0011
0011
,
0101
0000
0000
MMMM
0000
0000
2002
0000
0000
0000
0000
0000
3003
0000
0000
0000
,
0011
0011
0011
0011
,
0101
0000
0101
0000
0101
0000
0101
0101
,
1100
0000
0000
0000
1100
0000
0000
0000
1100
0000
0000
1100
0000
0000
1100
0000
,
1001
0000
0000
MMMM
0000
0000
0220
0000
0000
0000
0000
0000
0330
0000
0000
0000
,
1001
0101
0000
MMMM
0000
1100
0000
MMMM
,
1001
0000
1010
0000
0000
0000
MMMM
0000
0000
0000
0011
0000
0000
0110
0000
0000
,
1100
0000
0110
0000
0000
0000
MMMM
0000
0000
0000
0011
0000
0000
0101
0000
0000
,
1100
0000
0000
1010
0000
0000
0011
0000
0000
0000
0110
0000
0110
0000
MMMM
0000
,
1001
MMMM
1001
MMMM
0110
MMMM
0110
MMMM
,
1001
MMMM
1001
MMMM
0110
MMMM
0110
MMMM
,
1010
MMMM
0101
MMMM
0011
MMMM
1100
MMMM
,
1000
0001
0010
0100
1000
0000
1001
1001
,
MMMM
0000
MMMM
0000
MMMM
0000
0101
MMMM
,
0101
0000
1100
MMMM
1100
0000
0110
MMMM
,
0110
0000
1010
0000
0011
0000
0011
MMMM
,
0011
0000
1010
MMMM
1010
MMMM
0110
MMMM
,
1001
0000
0110
0000
1001
0000
0010
1000
,
MMMM
0000
0010
0001
MMMM
0000
0010
0100
,
MMMM
0000
0101
0000
1100
0000
0100
1000
,
MMMM
0000
0100
0001
MMMM
0000
0100
0001
,
0101
1001
MMMM
1100
0000
0000
1000
1100
,
1001
0000
0001
0101
1001
0000
0010
1010
,
0110
0000
0100
0101
0110
0000
0010
0011
,
1100
0000
1000
1010
0101
0000
0100
1100
,
1001
0000
0110
0000
1001
0000
0101
1001
,
1001
MMMM
1010
0110
0110
MMMM
0101
1001
,
1001
MMMM
0011
0110
0110
MMMM
1100
0110
,
0011
MMMM
0101
1010
1100
MMMM
0011
1010
,
1001
MMMM
0110
MMMM
,
0022
0000
0000
0033
,
2020
0000
0000
3030
,
0110
1001
0110
1001
,
1100
0000
0000
0101
0000
0000
0011
0000
0000
1010
0000
0000
1100
0000
0110
0000
,
1001
0000
0000
0000
,
0000
0000
0000
0000
;

//---------------dance-double - ----------------
#NOTES:
     dance-double:
     :
     Easy:
     7:
     :
00000000
00000000
00000000
00000000
,
00000000
00000000
00000000
00000000
,
00000000
00000000
00000000
00000000
,
00000000
00000000
00000000
00000000
,
00000000
00000000
00000000
00000000
,
00000000
00000000
00000000
00000000
,
00000100
00000100
00000100
00000100
,
00001000
00001000
00001000
00001000
,
00010000
00010000
00010000
00010000
,
01000000
01000000
01000000
01000000
,
10010000
01100000
10010000
00000000
,
00000000
00000000
00000000
00000000
,
10010000
00100000
10010000
00100000
,
01000000
00010000
00001000
00000000
,
00011000
00010000
00001000
00000100
,
00001001
00000110
00001001
00000000
,
00001001
00000010
00001001
00000010
,
00000100
00001000
00010000
00000000
,
00011000
00001000
00010000
01000000
,
01100000
00000000
00011000
00000000
,
00000220
00000000
00000000
00000330
,
00001001
00000000
00000000
00000000
,
00000100
00000100
00000100
00000100
,
00002000
00000000
00000000
00003000
,
00010000
00010000
00010000
00010000
,
01000000
01000000
01000000
01000000
,
10000000
10000000
00100000
00100000
,
00010000
00000000
00000000
00010000
00000000
00000000
00000000
00000000
,
00001000
00001000
00001000
00001000
,
00000100
00000100
00000100
00000100
,
00000001
00000001
00000010
00000010
,
00000100
00000000
00000000
00000100
00000000
00000000
00000000
00000000
,
00000220
00000000
00000000
00000330
,
00001000
00001000
00001000
00000000
,
00022000
00000000
00000000
00033000
,
01000000
01000000
01000000
00000000
,
00020000
10000000
10000000
10030000
,
00200000
01000000
01000000
01300000
,
00020000
00001000
00001000
00031000
,
00000100
00000010
00000100
00001001
,
00000000
00000000
00000000
00000010
,
00001001
00000010
00001001
00000010
,
00000100
00001000
00010000
00001000
,
00011000
00001000
00010000
01000000
,
10010000
01100000
10010000
00000000
,
10010000
00100000
10010000
00100000
,
01000000
00010000
00001000
00010000
,
00011000
00010000
00001000
00000100
,
00000110
00000000
00000000
00000110
00000000
00000000
00000000
00000000
,
00001001
00001001
00000001
00000100
,
00000110
00000110
00000100
00001000
,
00011000
00011000
00010000
01000000
,
10010000
01100000
10010000
01000000
,
10010000
00100000
01100000
00010000
,
00011000
00000100
00000110
00000010
,
00001001
00000100
00000110
00001000
,
00011000
00000000
01100000
00000000
,
20020000
00000000
00000000
30030000
,
01100000
00000000
00000000
00000000
,
01000000
01000000
01000000
01000000
,
00010000
00001000
00011000
00011000
,
00011000
00000000
00000000
00000000
,
00000000
00000000
00000000
00000000
;

//---------------dance-double - ----------------
#NOTES:
     dance-double:
     :
     Medium:
     9:
     :
00000000
00000000
00000000
00000000
,
00000000
00000000
00000000
00000000
,
00000000
00000000
00000000
00000000
,
00000000
00000000
00000000
00000000
,
00000000
00000000
00000000
00000000
,
00000000
00000000
00000000
00000000
,
00001000
00100000
00101000
00110000
,
00010000
10000000
10010000
11000000
,
00100000
00010000
00110000
00101000
,
00011000
00000000
00010100
00000000
00001000
00000100
00000010
00000001
,
00000100
00000110
00001001
00000000
,
00000000
00000000
00000000
00000012
,
00000103
00002010
00003100
00002100
,
00013000
01020000
00031000
00120000
,
01030000
20100000
31000000
00100000
,
10010000
00000000
01100000
00000000
10010000
00000000
10000000
01000000
,
10000000
00000000
00010000
01000000
00010000
00000000
00100000
01000000
,
00100000
00000000
00010000
00001000
00010000
00000000
00001000
00000100
,
00001000
00000000
00000001
00000100
00000001
00000000
00000010
00000000
,
00000220
00000330
00022000
00033000
,
02200000
00000000
00000000
03300000
,
10010000
00000000
00000000
00000000
,
10000000
10000000
00010000
00010000
,
10000000
00000000
00000000
01000000
00000000
00000000
00010000
00000000
00000000
00001000
00000000
00000000
00000100
00000000
00000001
00000000
,
00000001
00000000
00001000
00000000
00000001
00000000
00000100
00000010
,
00000100
00000000
00001000
00000000
00010000
00000000
00001000
00010000
,
00001000
00000000
00100000
00000000
01000000
00000000
10000000
00010000
,
10000000
00000000
00000000
10010000
00000000
00000000
01000000
01000000
,
01000000
00000000
00100000
00000000
10000000
00000000
00010000
01000000
,
00010000
00000000
00100000
00000000
00001000
00000000
00010000
00000100
,
00010000
00000000
00000010
00000000
00001000
00000000
00000001
00000100
,
00000001
00000000
00000000
00001001
00000000
00000000
00000010
00000100
,
00000001
00000001
00000000
00001000
00000000
00000010
00000000
00000100
,
00001000
00001000
00000000
00010000
00000000
01000000
00000000
00100000
,
10000000
10000000
00000000
00010000
00000000
00100000
00000000
01000000
,
00100000
00000000
00000000
00100000
00000000
00000000
00100000
00000000
00000000
00000000
01000000
00000000
01000000
00000000
00000000
00000000
,
10000000
00110000
00001000
01010000
,
00100000
00011000
00001100
00000010
,
00000001
00000100
00000001
00000100
00000010
00001000
00000010
00001000
,
00000100
00010000
00001000
00100000
00010000
00000000
01000000
01000000
,
00000000
00000000
00000000
00000000
00000000
00000000
10000000
00100000
,
10000000
00000000
00010000
00100000
00010000
00000000
01000000
00100000
,
01000000
00000000
00010000
00001000
00010000
00000000
00001000
00000010
,
00001000
00000000
00000001
00000010
00000001
00000000
00000100
00000000
,
00001001
00000000
00000110
00000000
00001001
00000000
00000001
00000100
,
00000010
00000000
00000010
00000100
00001000
00000000
00001000
00010000
,
01000000
00000000
01000000
00100000
10000000
00000000
00100000
01000000
,
00010000
00000000
00010000
00000100
00001000
00000010
00000100
00000000
,
00000100
00000010
00000000
00001001
00000000
00000000
00000001
00000001
,
00000001
00000000
00000100
00000100
00000100
00000000
00001000
00001000
,
00001000
00000000
00010000
00010000
00010000
00000000
00100000
00100000
,
00100000
00000000
10000000
10000000
10000000
00010000
10000000
00000000
,
10010000
00000000
01100000
00000000
10010000
00000000
10000000
01000000
,
00010000
00000000
10000000
00100000
00010000
00000000
00001000
00000100
,
00000001
00000000
00001000
00000010
00000001
00000000
00000001
00000100
,
00001000
00000000
00010000
00100000
10000000
00100000
00010000
00000000
,
00022000
00033000
00000220
00000330
,
00002002
00000000
00000000
00003003
,
00000110
00000000
00000000
00000000
,
00000001
00000101
00001000
00001100
,
00000001
00000000
00000000
00000100
00000000
00000000
00001000
00000000
00000000
00010000
00000000
00000000
01000000
00000000
00100000
00000000
,
01100000
00000000
00000000
00000000
,
00000000
00000000
00000000
00000000
;

//---------------dance-double - ----------------
#NOTES:
     dance-double:
     :
     Hard:
     14:
     :
00000000
00000000
00000000
00000000
,
00000000
00000000
00000000
00000000
,
00000000
00000000
00000000
00000000
,
00000000
00000000
00000000
00000000
,
00000000
00000000
00000000
00000000
,
00000000
00000000
00000000
00000000
,
00000010
00001000
00000100
00010000
00001000
00000100
00000010
00010000
,
00001000
00010000
01000000
00100000
00010000
01000000
00100000
01000000
,
00100000
10000000
01000000
00100000
00010000
01000000
00100000
10000000
,
00010000
00100000
01000000
00010000
00001000
00000100
00000010
00000100
,
00000101
00001100
00001001
00000000
,
00000000
00000000
00000000
00000000
00000000
00000000
00000001
00000100
,
00001000
00000000
00010000
00100000
10000000
00000000
10000000
01000000
,
00010000
00000000
00001000
00000010
00000001
00000000
00000001
00000100
,
00001000
00000000
00010000
01000000
10000000
00000000
00100000
00000000
,
00110000
00000000
10100000
00000000
10010000
00000000
00100000
01000000
,
00010000
00000000
00000010
00000100
00001000
00000000
00010000
01000000
,
00100000
00000000
00001000
00000100
00000010
00000000
00010000
00001000
,
00000010
00000000
00000000
00000000
00001000
00000000
00010000
00000000
00100000
00000000
00000000
01000000
00000000
00000000
00100000
00000000
,
02200000
03300000
00022000
00033000
,
00000100
00000000
00000010
00000000
00001000
00000010
00000000
00000100
00000000
00000001
00001000
00000001
00000000
00000100
00000000
00000010
,
00001000
00000000
00000100
00000000
00010000
00000100
00000000
00001000
00000000
00000010
00010000
00000010
00000000
00001000
00000100
00010000
,
00001000
00000000
00100000
00000000
00010000
10000000
00000000
01000000
00000000
10000000
00010000
10000000
00000000
01000000
00000000
00100000
,
00010000
00000000
10000000
00000000
00010000
01000000
00000000
00001000
00000000
00100000
00010000
00100000
00001000
00010000
00001000
00010000
,
00000100
00001000
00000100
00010000
00000100
00001000
00000001
00000010
,
00000100
00001000
00000100
00010000
00001000
00010000
00000100
00010000
,
00001000
01000000
00010000
01000000
00100000
10000000
01000000
10000000
,
11000000
00000000
00000000
00110000
00000000
00000000
01100000
01000000
,
01000000
00010000
00100000
00001000
00010000
00001000
00100000
00001000
,
01000000
00010000
00100000
00001000
00010000
00000010
00001000
00000100
,
00010000
00000000
00000100
00000000
00001000
00000000
00000010
00000000
00000100
00000000
00000000
00000001
00000000
00000000
00000100
00000000
,
00000101
00000000
00000010
00001010
00000000
00000000
00000010
00000100
,
00000101
00000201
00000000
00000010
00000000
00001300
00000000
00000010
,
00001100
00000000
00002100
00000000
00000000
00000000
00003010
00000000
00000000
00000000
00000100
00000000
00000000
00001000
00000000
00000000
,
00011000
00000000
00021000
00000000
00000000
00000000
00130000
00000000
00000000
00000000
00110000
00000000
00000000
01100000
00000000
00000000
,
10100000
00000000
00000000
10010000
00000000
00000000
11000000
00000000
00000000
00000000
01100000
00000000
01100000
00000000
00000000
00000000
,
10000000
00100000
00001000
00000100
,
00000010
00010000
00100000
10000000
,
01000000
10000000
00100000
01000000
00010000
00100000
00001000
00010000
,
00000100
00001000
00000100
00001000
00000100
00000010
00000100
00000010
00000001
00000000
00000000
00000000
00000100
00000000
00000100
00000000
,
00000000
00000000
00000000
00000000
00000000
00000000
00001000
00010000
,
00011000
00000000
00100000
01000000
01100000
00000000
10000000
01000000
,
11000000
00000000
00010000
00100000
00110000
00000000
00001000
00010000
,
00011000
00000000
00000000
00000000
00000100
00000000
00000010
00000000
00000110
00000000
00000001
00000000
00000000
00001000
00000000
00000000
,
00001100
00000000
00000011
00000000
00001001
00000000
00000110
00001000
,
00010000
00000000
00011000
01000000
10000000
00000000
01100000
00010000
,
00001000
00000000
00011000
00000100
00000001
00000000
00000110
00001000
,
00010000
00000000
00000000
00000000
00011000
00000000
01000000
00000000
10000000
00000000
00000000
00010000
00000000
00000000
01000000
00000000
,
01000000
00000000
00100000
00000000
00000000
00000000
10010000
00000000
00000000
00000000
00000000
00000000
10000000
00000000
10000000
01000000
,
10000000
00000000
00000000
00000000
01000000
00000000
01000000
00100000
01000000
00000000
00000000
00000000
00100000
00000000
00100000
00010000
,
00100000
00000000
00000000
00000000
00001000
00000000
00001000
00010000
00001000
00000000
00000000
00000000
00000100
00000000
00000100
00000010
,
00000100
00000000
00000000
00000000
00000001
00000000
00000001
00001000
00000001
00000000
00000100
00000000
00000000
00000010
00000000
00000000
,
00001010
00000000
00000000
00000000
00000011
00000000
00000000
00000000
00001001
00000000
00000000
00000000
00000001
00000100
00000001
00000010
,
00000001
00000000
00000000
00000000
00001000
00000010
00001000
00000001
00001000
00000000
00000000
00000000
00000100
00001000
00000100
00010000
,
00000100
00000000
00000000
00000000
00010000
00001000
00010000
00000010
00010000
00000000
00000000
00000000
00001000
00100000
00010000
01000000
,
00100000
00000000
00000000
00000000
10000000
00100000
01000000
00010000
00100000
00000000
01000000
00000000
10000000
00000000
00010000
00000000
,
10020000
00031000
00012000
00003001
,
00000010
00000000
00000100
00000000
00001000
00000100
00000000
00000010
00000000
00000001
00001000
00000001
00000000
00000010
00000000
00000100
,
00001000
00000000
00000010
00000000
00010000
00000010
00000000
00001000
00000000
00000100
00010000
00000100
00000000
00001000
00000010
00010000
,
00001000
00000000
01000000
00000000
00010000
10000000
00000000
00100000
00000000
10000000
00010000
10000000
00000000
00100000
00000000
01000000
,
00010000
00000000
10000000
00000000
00010000
00100000
00000000
00001000
00000000
01000000
00010000
01000000
00001000
00010000
00001000
00000100
,
00000010
00000000
00000000
00000000
,
00000000
00000000
00000000
00000000
;

//---------------dance-double - ----------------
#NOTES:
     dance-double:
     :
     Challenge:
     13:
     :
00000000
00000000
00000000
00000000
,
00000000
00000000
00000000
00000000
,
00000000
00000000
00000000
00000000
,
00000000
00000000
00000000
00000000
,
00000000
00000000
00000000
00000000
,
00000000
00000000
00000000
00000000
,
00011000
00011000
00001010
00001010
,
00000011
00000011
00000101
00000101
,
00001100
00001100
00011000
00011000
,
00110000
00110000
10100000
10100000
,
10010000
01100000
10010000
MMMMMMMM
,
MMMMMMMM
00000000
MMMMMMMM
00000000
MMMMMMMM
00000000
00110000
MMMMMMMM
,
00110000
00000000
11000000
MMMMMMMM
11000000
00000000
01100000
MMMMMMMM
,
01100000
00000000
01010000
00000000
00011000
00000000
00001100
MMMMMMMM
,
00001100
00000000
00000011
MMMMMMMM
00000011
00000000
00000101
MMMMMMMM
,
00001001
00000000
00000110
00000000
00001001
00000000
00000001
00000010
,
MMMMMMMM
00000000
00000010
00000100
MMMMMMMM
00000000
00000100
00001000
,
MMMMMMMM
00000000
00001100
00000000
00011000
00000000
00010000
00100000
,
MMMMMMMM
00000000
00100000
01000000
MMMMMMMM
00000000
01000000
10000000
,
11000000
MMMMMMMM
01010000
MMMMMMMM
,
00022000
00000000
00000000
00033000
,
00002200
00000000
00000000
00003300
,
00000101
00000011
00001010
00001100
,
00000110
00000000
00000000
MMMMMMMM
00000000
00000000
00011000
00000000
00000000
MMMMMMMM
00000000
00000000
01100000
00000000
MMMMMMMM
00000000
,
11000000
11000000
11000000
11000000
,
00110000
00110000
00110000
00110000
,
00011000
00000000
00011000
00000000
00011000
00000000
00011000
00011000
,
00010100
00000000
00000000
MMMMMMMM
00000000
00000000
00002002
00000000
00000000
00000000
00000000
00000000
00003003
00000000
00000000
00000000
,
00000011
00000011
00000011
00000011
,
00001100
00000000
00001100
00000000
00001100
00000000
00001100
00001100
,
00011000
00000000
00000000
00000000
00011000
00000000
00000000
00000000
00011000
00000000
00000000
00011000
00000000
00000000
00011000
00000000
,
00101000
00000000
00000000
MMMMMMMM
00000000
00000000
20020000
00000000
00000000
00000000
00000000
00000000
30030000
00000000
00000000
00000000
,
10100000
10100000
00000000
MMMMMMMM
00000000
01001000
00000000
MMMMMMMM
,
00011000
00000000
00010100
00000000
00000000
00000000
MMMMMMMM
00000000
00000000
00000000
00001010
00000000
00000000
00000110
00000000
00000000
,
00000101
00000000
00000101
00000000
00000000
00000000
MMMMMMMM
00000000
00000000
00000000
00000011
00000000
00000000
00000110
00000000
00000000
,
00001100
00000000
00000000
00011000
00000000
00000000
00110000
00000000
00000000
00000000
01100000
00000000
01100000
00000000
MMMMMMMM
00000000
,
10100000
MMMMMMMM
01010000
MMMMMMMM
00101000
MMMMMMMM
00010100
MMMMMMMM
,
00001010
MMMMMMMM
00000101
MMMMMMMM
00001001
MMMMMMMM
00010010
MMMMMMMM
,
00010100
MMMMMMMM
00101000
MMMMMMMM
01001000
MMMMMMMM
10010000
MMMMMMMM
,
10000000
01000000
00100000
00010000
00001000
00000000
00011000
00011000
,
MMMMMMMM
00000000
MMMMMMMM
00000000
MMMMMMMM
00000000
00001100
MMMMMMMM
,
00001100
00000000
00000011
MMMMMMMM
00000011
00000000
00000110
MMMMMMMM
,
00000110
00000000
00001010
00000000
00011000
00000000
00110000
MMMMMMMM
,
00110000
00000000
11000000
MMMMMMMM
11000000
00000000
10100000
MMMMMMMM
,
10010000
00000000
01100000
00000000
10010000
00000000
10000000
01000000
,
MMMMMMMM
00000000
01000000
00100000
MMMMMMMM
00000000
00100000
00010000
,
MMMMMMMM
00000000
00110000
00000000
00011000
00000000
00001000
00000100
,
MMMMMMMM
00000000
00000100
00000010
MMMMMMMM
00000000
00000010
00000001
,
00000011
00000011
MMMMMMMM
00001001
00000000
00000000
00000001
00000101
,
00001001
00000000
00001000
00001001
00001100
00000000
00000100
00001100
,
00010100
00000000
00010000
00010100
00011000
00000000
00001000
00011000
,
00101000
00000000
00100000
00110000
01100000
00000000
01000000
11000000
,
10010000
00000000
01100000
00000000
10010000
00000000
01010000
10010000
,
10010000
MMMMMMMM
00110000
00011000
00011000
MMMMMMMM
00001100
00001001
,
00001001
MMMMMMMM
00001010
00011000
00011000
MMMMMMMM
00110000
01100000
,
00110000
MMMMMMMM
00101000
00011000
00010100
MMMMMMMM
00001010
00000110
,
00001010
MMMMMMMM
00011000
MMMMMMMM
,
02200000
00000000
00000000
03300000
,
00000220
00000000
00000000
00000330
,
00000101
00001010
00010100
00101000
,
01010000
00000000
00000000
10100000
00000000
00000000
11000000
00000000
00000000
01010000
00000000
00000000
00110000
00000000
00011000
00000000
,
00001100
00000000
00000000
00000000
,
00000000
00000000
00000000
00000000
;
