#TITLE:RЁVOLUTIΦN;
#ARTIST:TËЯRA;
#TITLETRANSLIT:REVOLUTION;
#BANNER:REVOLUTION.png;
#BACKGROUND:REVOLUTION-bg.png;
#CDTITLE:./CDTITLES/GuitarFreaks & DrumMania V4.png;
#MUSIC:REVOLUTION.ogg;
#SAMPLESTART:30.877;
#SAMPLELENGTH:15;
#BPMS:0=202;
#STOPS:200=0.297;

//---------------dance-single - ----------------
#NOTES:
     dance-single:
     :
     Beginner:
     3:
     :
0000
0000
0000
0000
,
0000
0000
0000
0000
,
0000
0000
0000
0000
,
0000
0000
0000
0000
,
0000
0000
0000
0000
,
0000
0000
1000
0000
,
1000
0000
1000
0000
,
0000
0000
0001
0000
,
0001
0000
0001
0000
,
0000
0000
0000
0000
,
1000
0000
0000
0000
,
1000
0000
0000
0000
,
1000
0000
1000
0000
,
1000
0000
0000
0000
,
0001
0000
0000
0000
,
0001
0000
0000
0000
,
0001
0000
0001
0000
,
0001
0000
0000
0000
,
0100
0000
0000
0000
,
0100
0000
0000
0000
,
0001
0000
0001
0000
,
0001
0000
0000
0000
,
0100
0000
0000
0000
,
0100
0000
0000
0000
,
1000
0000
1000
0000
,
1000
0000
0000
0000
,
0001
0000
0000
0000
,
1000
0000
0000
0000
,
0010
0000
0010
0000
,
0010
0000
0000
0000
,
0001
0000
0000
0000
,
1000
0000
0000
0000
,
0100
0000
0100
0000
,
0100
0000
0000
0000
,
0001
0000
0000
0000
,
1000
0000
0000
0000
,
0010
0000
0010
0000
,
0010
0000
0000
0000
,
0001
0000
0000
0000
,
1000
0000
0000
0000
,
0100
0000
0100
0000
,
0100
0000
0000
0000
,
0001
0000
0000
0000
,
0010
0000
0000
0000
,
1000
0000
0000
0000
,
0010
0000
0000
0000
,
0001
0000
0001
0000
,
0001
0000
0000
0000
,
1000
0000
1000
0000
,
1000
0000
0000
0000
,
0000
0000
0000
0100
,
0000
0000
0000
0100
,
0000
0000
0000
0001
,
0000
0001
0000
0001
,
0000
0000
0000
0100
,
0000
0000
0000
0100
,
0000
0000
0000
1000
,
0000
1000
0000
1000
,
0000
0000
0000
0002
,
0000
0000
0000
0003
,
0000
0000
0000
2000
,
0000
0000
0000
3000
,
0000
0000
0000
0002
,
0000
0000
0000
0003
,
0000
0000
0000
1001
,
0000
0000
0000
0000
,
0000
0000
0000
0001
,
0000
0000
0000
1000
,
0000
0000
0000
0010
,
0000
0010
0000
0010
,
0000
0000
0000
0001
,
0000
0000
0000
1000
,
0000
0000
0000
0100
,
0000
0100
0000
0100
,
0000
0000
0000
0001
,
0000
0001
0000
0001
,
0000
0000
0000
0100
,
0000
0100
0000
0100
,
0000
0000
0000
1000
,
0000
1000
0000
1000
,
0000
0000
0000
0010
,
0000
0010
0000
0010
,
0000
0000
0000
0001
,
0000
0001
0000
1000
,
0000
1000
0000
0010
,
0000
0010
0000
0010
,
0000
0000
0000
1000
,
0000
1000
0000
0001
,
0000
0001
0000
0100
,
0000
0100
0000
0100
,
0000
0000
0000
0001
,
0000
0001
0000
1000
,
0000
1000
0000
0100
,
0000
0100
0100
0100
,
0000
0000
0000
1000
,
0000
1000
0000
0001
,
0000
0001
0000
0010
,
0000
0010
0010
0010
,
0000
0000
0000
1000
,
0000
0001
0000
0001
,
0000
1000
1001
0000
,
0000
0000
0000
0000
;

//---------------dance-single - ----------------
#NOTES:
     dance-single:
     :
     Easy:
     7:
     :
0000
0000
0000
0000
,
0000
0000
0000
0000
,
0000
0000
0000
0000
,
0000
0000
0000
0000
,
0000
0000
0000
0000
,
0000
0000
0001
0000
,
0010
0000
0001
0000
,
0100
0000
1000
0000
,
0010
0000
1000
0000
,
0100
0000
0010
0100
,
0010
0000
0010
0000
,
0001
0001
0100
0000
,
0010
0000
0010
0000
,
0001
0001
0100
0000
,
0010
0000
0010
0000
,
1000
1000
0100
0000
,
0010
0000
0010
0000
,
1000
1000
0100
0000
,
0010
0010
0001
1000
,
0010
0010
0000
0010
,
0100
0100
0001
1000
,
0100
0100
0000
0100
,
1000
1000
0010
0000
,
0001
0001
0010
0000
,
1000
1000
0001
0001
,
0010
0000
0100
0100
,
2000
0000
3002
0000
,
2003
0000
3001
0000
,
1000
0100
0010
0001
,
1000
0000
0010
0010
,
0002
0000
2003
0000
,
3002
0000
1003
0000
,
0001
0010
0100
1000
,
0001
0000
0100
0100
,
2000
0000
3002
0000
,
2003
0000
3001
0000
,
1000
0100
0010
0001
,
1000
0000
0100
0100
,
0002
0000
2003
0000
,
3002
0000
1003
0000
,
0001
0100
0010
1000
,
2002
0000
3003
0000
,
0100
0000
0010
0000
,
1000
0001
0010
0000
,
0100
0000
0010
0000
,
0001
1000
0010
0000
,
0100
0000
0100
0000
,
0100
0100
0010
0010
,
1000
0000
1000
0000
,
1000
1000
0001
0002
,
0003
0000
0000
0100
,
0100
0001
0010
0100
,
0100
1000
0000
0010
,
0010
0100
1000
0010
,
0010
0001
0000
1000
,
0100
0010
0000
0001
,
0010
0100
0000
1000
,
0001
0100
0010
0110
,
0000
1000
1000
2000
,
0000
0000
0000
3002
,
0000
0000
0000
0203
,
0000
0000
0000
0320
,
0000
0000
0000
2030
,
0000
0000
0000
3002
,
0000
0000
0000
0023
,
0000
0000
0000
0130
,
0000
0010
0010
0002
,
0000
2003
0000
3002
,
0000
1003
1000
0001
,
0010
1000
0010
0001
,
0000
0100
0010
0002
,
0000
2003
0000
3002
,
0000
1003
1000
0010
,
0001
0100
1000
0010
,
0000
1000
0001
2000
,
0000
3002
0000
2003
,
0000
3001
0001
1000
,
0010
0001
0010
1000
,
0000
0100
0100
0002
,
0000
2003
0000
3002
,
0000
1003
1000
0001
,
0100
0010
1000
1001
,
0000
0010
0010
2000
,
0100
3002
0100
2003
,
0100
3002
0103
1000
,
0100
0010
0001
0100
,
0100
0010
0010
0002
,
0100
2003
0100
3002
,
0100
2003
3100
0001
,
0100
0010
1000
0001
,
0000
0001
1000
0002
,
0010
2003
0010
3002
,
0010
2003
3010
0001
,
0010
1000
0010
0001
,
1000
0100
0010
0002
,
0010
2003
0010
3002
,
0010
2003
3010
1001
,
0000
0000
0000
0100
,
0100
0100
0000
0001
,
1000
0010
0100
0001
,
1000
0001
1001
0000
,
0000
0000
0000
0000
;

//---------------dance-single - ----------------
#NOTES:
     dance-single:
     :
     Medium:
     11:
     :
0000
0000
0000
0000
,
0000
0000
0000
0000
,
0000
0000
0000
0000
,
0000
0000
0000
0000
,
0000
0000
0000
0000
,
0000
0000
0010
0000
,
0001
1000
0001
0100
,
0010
0100
0100
0000
,
1000
0001
1000
0100
,
0010
0100
0010
0000
0002
0000
2003
0000
,
3100
1000
0100
0010
,
0100
0000
1000
0000
0100
0010
0001
0010
,
0100
0010
0001
0010
,
0100
0000
0010
0000
0001
1000
0100
0010
,
0001
0100
0010
0100
,
0001
0000
0100
0000
0010
0100
1000
0100
,
0010
0000
0000
1010
0000
0000
0001
0000
,
0000
0011
0000
0000
0100
0000
0010
0000
,
2000
0010
0100
3010
,
0002
0100
0010
0103
,
0020
1000
0001
1030
,
0200
0001
1000
0301
,
1000
1100
0010
0000
,
0100
0101
1000
0000
,
0001
0110
1000
0110
,
0010
0000
0000
0000
0001
1000
0001
0000
,
2001
0100
3002
0010
,
2003
0100
3002
0013
,
0100
1001
0010
1001
,
0101
0010
0100
0001
,
1002
0100
2003
0010
,
3002
0100
2003
3010
,
1000
0100
0010
1000
,
0100
0000
0001
0000
1000
0001
0100
0000
,
0200
1000
0320
0001
,
0230
1000
0320
0031
,
1000
1100
0001
0011
,
1001
0000
0010
0000
0100
0010
0100
0000
,
0020
1000
0230
0001
,
0320
1000
0230
0301
,
1000
0010
0001
0100
,
2002
0000
0000
3003
,
0100
0000
1001
0000
,
1000
1000
1100
0010
,
1000
0010
0000
1000
0001
0000
1000
0100
,
1000
0001
1000
0001
1000
0001
1000
0001
,
0100
0000
1000
0001
,
0010
1000
0000
0000
0001
0000
0001
0000
,
0100
0000
0001
1000
,
0010
0001
0000
0000
1001
0000
2002
0000
,
3003
0000
0000
1020
,
0001
0100
1030
0102
,
0010
0100
1003
0210
,
0001
1000
0310
2001
,
0100
0010
3001
0100
,
0010
0100
0001
0000
0000
0000
0100
0000
,
0010
0100
1000
0000
0000
0000
0010
0000
,
0010
0000
0100
0010
0100
0000
0110
0000
,
0000
1001
1001
0021
,
0000
0000
0000
2030
,
0000
0000
3000
0201
,
0000
0000
0000
2300
,
0000
0000
3000
1020
,
0000
0000
0000
0032
,
0000
0000
0003
0220
,
0000
0000
0000
0000
0330
0000
0010
0100
,
0000
0010
0100
0000
1001
0000
2010
0000
,
3001
0012
1003
2100
,
3001
0102
1003
0010
,
1100
0001
1010
0101
,
0010
1000
0001
0012
,
0103
2010
3100
0102
,
0013
2100
3010
0001
,
0010
0100
0001
0010
,
0100
0000
1000
0100
0010
0000
0011
0000
,
0011
1001
1001
1100
,
1100
1001
1001
0010
,
1000
0100
0001
0010
,
0100
0000
1000
0001
1000
0000
1010
0000
,
1010
1001
1001
0101
,
0101
1001
1001
0010
,
0001
0100
1000
0010
,
0100
0000
0001
0000
1001
0000
0001
0100
,
0001
0000
0001
0100
0001
0000
0001
1000
,
0001
0000
0001
1000
0001
0000
1000
0000
,
1100
0001
0101
0010
,
1000
0000
0001
0000
0100
0000
1000
0010
,
1000
0000
1000
0010
1000
0000
1000
0001
,
1000
0000
1000
0001
1000
0000
0001
0000
,
0010
1000
0010
0001
,
1000
0000
0100
0100
0010
0000
0001
1000
,
0001
1000
0001
1000
0001
1000
0100
0010
,
0100
0010
0100
0010
0100
0010
0001
0000
,
0101
1001
0011
0100
,
1000
0000
0010
0100
0010
0000
1000
0010
,
1000
0010
1000
0010
1000
0010
0100
0001
,
0100
0001
0100
0001
0100
0001
0010
0000
,
0000
0000
0000
0010
0100
0000
0001
1000
,
0100
0010
0001
0000
1000
0000
0001
0100
,
0000
0001
0010
0000
1000
0100
0000
1000
,
0010
1010
1001
0000
,
0000
0000
0000
0000
;

//---------------dance-single - ----------------
#NOTES:
     dance-single:
     :
     Hard:
     14:
     :
0000
0000
0000
0000
,
0000
0000
0000
0000
,
0000
0000
0000
0000
,
0000
0000
0000
0000
,
0000
0000
0000
0000
,
0000
0000
0000
0000
0010
0100
0001
0000
,
0100
0000
1000
0000
0001
0000
0010
0001
,
1000
0100
0010
0000
0100
1000
0010
0000
,
0100
0000
0001
0000
1000
0001
0100
0010
,
0100
0001
1000
0000
2000
0000
3002
0000
,
0103
0001
0100
0001
0100
0010
0100
0010
,
0100
0001
0100
0001
0100
1000
0100
1000
,
0100
0001
0100
0001
0010
0001
0010
0001
,
0100
0001
0100
0001
0010
0100
1000
0100
,
0010
0001
0010
0001
1000
0001
1000
0001
,
0010
0001
0010
0001
1000
0100
0001
0100
,
1000
1000
0000
0001
0001
0000
0100
0100
,
0000
0010
0010
0000
0110
0000
1001
0000
,
1000
0100
0010
0001
0010
0100
1000
0000
,
0001
0100
0010
1000
0010
0100
0001
0000
,
1000
0010
0100
0001
0010
0100
1000
0000
,
0001
0010
0100
1000
0100
0010
0001
0000
,
1000
0100
0001
0100
1000
0000
0001
1000
,
0010
0001
0010
1000
0001
0000
1000
0000
,
0001
0010
0100
1000
0100
0001
0100
1000
,
0010
0000
1000
0001
1000
0100
0010
0000
,
0001
0001
0010
0000
1000
1000
0010
0000
,
0001
0001
0010
0000
1000
1000
0010
0000
,
0011
0101
0011
1100
,
1001
0000
0100
0000
0001
0100
0010
0000
,
1000
1000
0100
0000
0001
0001
0100
0000
,
1000
1000
0100
0000
0001
0001
0100
0000
,
0010
0000
0001
0100
0010
0000
1000
0100
,
0010
0000
0100
0000
0010
0100
0010
0000
,
1100
1000
0010
0000
0101
0001
0010
0000
,
1100
1000
0010
0000
0101
0001
0010
0000
,
0100
0001
0100
0010
0100
1000
0100
0010
,
0100
0000
1000
0000
0001
1000
0100
0000
,
0011
0010
0100
0000
1010
0010
0100
0000
,
0011
0010
0100
0000
1010
0010
0100
0000
,
0001
0010
0100
0010
1000
0010
0100
0000
,
1000
0100
1000
0100
0010
0001
0010
0001
,
0010
0100
0000
0100
1000
0000
1000
0100
,
0000
0100
0001
0000
0001
0010
0100
0010
,
0001
0001
0000
0100
0100
0000
0010
0010
,
0000
1000
1000
0000
0010
0100
0010
0100
,
0001
0000
0001
0000
1001
0000
0010
0100
,
0000
0100
0001
0000
1000
0001
1000
0001
,
0100
0000
0100
0000
0110
0000
0010
1000
,
0000
1000
0001
0000
0010
0001
0100
2000
,
0000
3000
0000
0000
0000
0000
0000
0000
0000
0000
0000
0000
0000
0000
0000
0000
0000
0000
0000
0000
0000
0000
0000
0000
0000
0000
0000
0000
0000
0000
0000
0000
0000
0000
0000
0000
0000
0000
0000
0000
0000
0000
0000
0000
0000
0000
0000
0000
0001
0000
0000
0000
0000
0000
0000
0000
0100
0000
0000
0000
0000
0000
0000
0000
,
0010
0100
0001
0100
0010
0100
0001
1000
,
0100
1000
0001
1000
0100
1000
0010
0100
,
0010
1000
0010
0100
0010
1000
0010
0100
,
0001
1000
0100
0010
0001
0000
0001
0100
,
1000
0100
0001
0000
1000
0001
0010
1000
,
0010
0001
1000
0000
0001
0000
1000
0010
,
0100
0001
0100
1000
0100
0001
0010
0000
,
0100
0000
1000
0001
1000
0000
2200
0000
,
0300
0200
0300
0002
,
0003
0002
3003
0220
,
0300
0200
0300
2000
,
3000
2000
3030
0022
,
0003
0002
0030
2000
,
3000
2000
3003
0220
,
0000
0000
0000
0000
0330
0000
0010
0100
,
0000
0001
1000
0000
1001
0000
0100
0100
,
1000
0000
0100
0100
0001
0000
0100
0100
,
1000
0000
0100
0100
0001
0000
0011
0000
,
0101
1100
1010
0100
,
0010
0000
1000
0001
1000
0000
1000
1000
,
0010
0000
0001
0001
0010
0000
1000
1000
,
0100
0000
0001
0001
0100
0000
1000
0100
,
0001
0100
1000
0100
0001
0100
1000
0000
,
0001
0000
0100
0100
0010
0000
1010
0000
,
0101
0011
1100
0110
,
1001
0000
1100
0000
0011
0000
1000
0010
,
0100
1000
0100
0010
1000
0001
0010
0000
,
0100
0000
1000
1000
0001
0000
0101
0000
,
1010
1100
0011
1001
,
0110
0000
1010
0000
0101
0000
0010
0100
,
0001
0010
0001
0100
0010
1000
0001
0000
,
0100
0000
0010
0100
0010
0000
1000
0100
,
1000
0100
0001
0100
0001
0100
1000
0010
,
1000
0010
0001
0010
0001
0010
1000
0001
,
0100
0010
1000
0001
0010
0100
1000
0010
,
0100
0001
1000
0100
0010
0001
0100
1000
,
0100
1000
0100
0001
0100
0001
1000
0010
,
1000
0010
0001
0010
0001
0010
0100
0001
,
1000
0010
0100
0001
0010
0100
1000
0000
,
1001
0000
0100
0100
0010
0000
1000
0100
,
1000
0010
0001
0100
0001
0010
1000
0100
,
1000
0010
0001
0100
0001
0010
1000
0001
,
0100
0010
1000
0001
0010
0100
1000
0010
,
0100
0001
1000
0100
0010
0001
0100
1000
,
0010
1000
0100
0001
0010
0001
1000
0010
,
1000
0000
0100
0000
0001
0000
0010
0000
0001
0000
0100
0010
0100
0000
0000
0000
,
0000
0000
0000
0010
0110
0000
0100
0001
,
1000
0001
1000
0000
1001
0000
0011
0100
,
0000
1010
0100
0000
0101
0010
0000
1100
,
0010
0000
0001
1000
1001
0000
0000
0000
,
0000
0000
0000
0000
;

//---------------dance-single - ----------------
#NOTES:
     dance-single:
     :
     Challenge:
     17:
     :
0000
0000
0000
0000
,
0000
0000
0000
0000
,
0000
0000
0000
0000
,
0000
0000
0000
0000
,
0000
0000
0000
0000
,
0000
0000
0000
0000
0100
0001
0010
0001
,
0100
0010
0100
0010
1000
0001
1000
0100
,
1000
0001
0010
0000
0100
1000
0010
1000
,
0100
0010
0100
0010
0001
1000
0100
1000
,
0100
0010
0001
0100
0002
0000
2003
0000
,
3001
0100
1000
0100
0001
0010
1000
0010
,
0001
0100
1000
0100
0001
1000
1000
1000
,
0001
0010
1000
0010
0001
0100
1000
0100
,
0001
0010
1000
0010
0001
0100
0100
0100
,
0010
1000
0100
0001
0100
1000
0010
0001
,
0010
1000
0100
0001
0100
0010
0010
0010
,
0100
1000
1000
0100
0001
0001
0100
0010
,
0010
0001
1000
0001
1001
0000
1100
0000
,
1000
1000
0001
0001
0010
0001
0010
0001
,
0100
0100
0010
0010
1000
0100
1000
0100
,
0010
0010
0001
0001
1000
0010
1000
0010
,
1000
1000
0100
0100
1000
0001
1000
0001
,
0100
0100
0001
0001
0010
0100
1000
0100
,
1000
1000
0010
0010
0100
0010
1000
0001
,
0100
0100
0010
0010
1000
0001
0100
0100
,
0010
0000
1000
0100
1000
0100
1000
0100
1000
0100
0010
0001
0010
0001
1000
0100
,
2000
0010
0010
0000
3002
0010
0010
0000
,
2003
0010
0010
0000
3001
0010
0010
0000
,
1000
0000
0001
0000
0100
0000
0001
1000
0001
0000
0010
0000
0001
0000
0100
0000
,
0010
0000
0010
1000
0001
0100
0010
0000
,
2000
0010
0010
0000
3002
0010
0010
0000
,
2003
0010
0010
0000
3001
0010
0010
0000
,
0001
0000
0100
0000
0010
0000
1000
0100
1000
0000
0010
0000
0100
0000
0001
0000
,
0100
0000
0110
0000
1000
0100
0010
0001
,
0101
0010
1000
0000
1100
0010
0001
0000
,
0101
0010
1000
0000
1100
0010
0001
0000
,
1000
0000
0010
0000
0100
0000
0001
0010
0001
0000
1000
0000
0100
0000
0010
0000
,
0100
0000
0000
0000
0010
0000
0000
0000
0001
0000
1000
0010
1000
0000
0010
0000
,
1010
0100
0001
0000
0011
0100
1000
0000
,
1010
0100
0001
0000
0011
0100
1000
0001
,
0100
0000
0001
0000
0010
0000
0100
1000
0100
0000
0010
0000
0001
0000
0100
0000
,
1000
1000
1000
0100
0100
0100
0010
0010
,
0010
0100
1000
0001
0010
0100
0001
0010
,
1000
0001
0100
0010
0001
1000
0001
1000
,
0100
0001
0101
1000
0010
1010
0001
0011
,
0100
0100
0100
0100
0010
0010
0010
0010
,
1000
0100
0010
1000
0100
0010
1000
0100
,
0010
1000
0100
0010
0100
0100
0100
0100
,
0001
0100
0010
0001
0100
0010
0001
0100
,
0010
0001
0100
0010
1000
1000
1000
2000
,
0000
3000
0000
0000
0000
0000
0000
0000
0000
0000
0000
0000
0000
0000
0000
0000
0100
0000
0000
0000
0000
0000
0000
0000
0001
0000
0000
0000
1000
0000
0000
0000
0001
0000
0000
0000
1000
0000
0000
0000
0001
0000
0000
0000
1000
0000
0000
0000
0100
0000
0000
0000
0000
0000
0000
0000
0100
0000
0000
0000
0000
0000
0000
0000
,
0010
0010
0001
0001
0010
0010
0100
0100
,
1000
1000
0010
0010
0100
0100
0001
0001
,
1000
1000
0001
0001
1000
1000
0010
0100
,
0001
1000
0100
0100
0010
0010
0001
0100
,
1000
0100
0001
0010
1000
0001
1000
0010
,
0001
0100
1000
0001
1000
0100
0010
0010
,
0100
0010
0010
0100
0001
1000
1001
0000
,
1010
0000
0100
0010
0100
0000
0001
0000
1000
0000
0001
0000
0200
0000
0000
0000
,
0000
0010
0000
0010
,
0000
0010
0300
0002
,
0103
2000
3100
0002
,
0103
2000
3100
0020
,
0000
0100
0000
0100
,
0000
0100
0030
2002
,
0000
0000
0000
0000
3003
0000
1001
1001
,
0000
0000
1000
0100
1000
0000
0100
0000
0010
0000
0001
0000
0101
0000
0001
0000
,
0010
0100
1100
1000
0010
0100
0101
0001
,
0010
0100
1100
1000
0010
0100
0100
0010
,
1000
0000
0001
0100
0001
0000
0010
0000
0001
0000
0100
0000
0010
0000
1000
0000
,
0001
0000
0100
0000
0001
0000
1000
0010
1000
0000
0010
0000
1010
0000
0100
0000
,
0001
0010
0011
0100
1000
0010
1010
0100
,
0001
0010
0011
0100
1000
0001
1000
0100
,
0010
0000
0001
1000
0001
0000
0100
0000
0010
0000
1000
0000
1001
0000
0000
0000
,
0010
0000
0100
0000
0001
1000
0001
1000
0001
0000
0000
0000
1010
0000
1000
0000
,
1010
0000
0011
0001
0011
0000
1100
1000
,
1100
0000
0101
0001
0101
0000
1000
0100
,
0010
0000
0100
0010
0100
0000
1000
0000
0001
0000
0010
0000
0001
0000
0100
0000
,
0010
0000
1000
0000
0001
0000
1000
0100
1000
0000
0010
0000
1100
0000
0100
0000
,
0110
0000
0101
0100
0110
0000
1010
0010
,
0110
0000
0011
0010
0110
0000
1000
0001
,
1000
0000
0001
1000
0100
0000
0010
0000
0100
0000
0010
0001
1000
0000
0001
0100
,
0001
0100
0001
0100
0010
1000
0100
1000
0100
1000
0100
1000
0010
0000
0100
0000
,
0001
0100
0001
0100
0001
0000
0010
0000
0100
1000
0100
1000
0100
0000
1000
0000
,
0001
1000
0001
1000
0001
0000
0100
0000
0010
1000
0010
1000
0010
0000
0100
0000
,
0001
0010
0001
0010
0001
0000
1000
0000
0010
0100
0010
0100
0010
0000
1000
0000
,
0001
1000
0001
1000
0001
0000
0100
0000
0001
1000
0001
1000
0100
0000
0100
0000
,
0010
0001
0010
0001
1000
0000
0100
0000
1000
0100
1000
0100
0010
0000
0001
0000
,
1000
0001
1000
0001
0100
0000
0010
0000
0100
0001
0100
0001
1000
0000
0001
0000
,
0010
0100
0010
0100
1000
0000
0001
0000
0100
0010
0100
0010
1000
0000
0001
0000
,
1000
0000
0000
0001
0000
0000
1000
0000
0000
0001
0000
0000
0100
0000
0000
0000
0000
0000
0001
0000
0000
0000
0000
0000
0100
0000
0000
0010
0000
0000
0100
0000
0000
0010
0000
0000
1000
0000
0000
0000
0100
0000
0000
0000
1000
0000
0000
0000
,
0001
0010
0001
1000
0100
1000
0001
0100
0001
0010
0100
0010
,
0001
1000
0001
0100
0010
0100
0001
1000
0001
1000
0100
1000
,
0001
0010
0001
1000
0010
1000
0001
0100
0001
1000
0010
1000
,
0001
0100
0001
0010
0100
0010
0001
1000
0001
0010
0100
1000
,
0010
0100
0001
0100
0010
1000
0100
0010
0001
0100
0010
1000
,
0001
0000
0000
0000
0010
0000
0000
0000
0100
0000
0000
0000
1000
0000
0000
0000
0001
0000
0000
0000
0100
0000
0000
0000
0010
0000
0000
0000
1000
0000
0000
0000
0001
0000
0000
0000
0100
0000
0000
0001
0000
0000
0100
0000
0000
0001
0000
0000
,
1000
0001
1000
0001
1000
0010
1000
0010
0100
0010
0100
0010
1000
0000
0001
0000
,
1000
0001
1001
0000
0110
0000
1010
1010
,
0100
0011
0011
0100
1010
1010
0100
0011
,
0011
0100
0110
0010
1001
0000
0000
0000
,
0000
0000
0000
0000
;

//---------------dance-double - ----------------
#NOTES:
     dance-double:
     :
     Easy:
     7:
     :
00000000
00000000
00000000
00000000
,
00000000
00000000
00000000
00000000
,
00000000
00000000
00000000
00000000
,
00000000
00000000
00000000
00000000
,
00000000
00000000
00000000
00000000
,
00000000
00000000
00000010
00000000
,
00000100
00000000
00001000
00000000
,
00000000
00000000
00010000
00000000
,
00001000
00000000
00010000
00000000
,
00000000
00000000
01000000
00100000
,
01000000
00000000
01000000
00000000
,
10000000
10000000
01000000
00000000
,
00010000
00000000
00010000
00000000
,
00001000
00001000
00010000
00000000
,
00000010
00000000
00000010
00000000
,
00000100
00000100
00000001
00000000
,
00001000
00000000
00001000
00000000
,
00000001
00000001
00000100
00000000
,
00001000
00010000
00001000
00100000
,
00010000
00020000
00000000
00030000
,
10000000
01000000
10000000
00100000
,
01000000
00200000
00000000
00300000
,
10000000
01000000
00010000
00000000
,
00001000
00010000
00001000
00000000
,
00000100
00000001
00001000
00000001
,
00000100
00000000
00000010
00000010
,
00000200
00000000
00000320
00000000
,
00000230
00000000
00000320
00000000
,
00000130
00000000
00001000
00010000
,
00001000
00000000
00010000
00010000
,
02000000
00000000
03200000
00000000
,
02300000
00000000
03200000
00000000
,
01300000
10000000
01000000
00100000
,
00010000
00000000
01000000
01000000
,
00020000
00000000
20030000
00000000
,
30020000
00000000
20030000
00000000
,
31000000
01000000
00010000
00010000
,
00001000
00000000
00000100
00000100
,
00000002
00000000
00002003
00000000
,
00003002
00000000
00002003
00000000
,
00003001
00000010
00000100
00001000
,
00002002
00000000
00003003
00000000
,
00000100
00000000
00001000
00000000
,
00010000
00001000
00010000
00000000
,
01000000
00000000
00010000
00000000
,
00001000
00010000
00001000
00000000
,
00000100
00000000
00000100
00000000
,
00000001
00000000
00000100
00000100
,
00001000
00000000
00001000
00000000
,
00010000
00000000
00001000
00020000
,
00030000
00000000
00000000
01000000
,
01000000
10000000
00010000
01000000
,
01000000
00010000
00000000
00100000
,
00100000
00001000
00010000
00001000
,
00001000
00010000
00000000
00001000
,
00000100
00000001
00000000
00000001
,
00001000
00000100
00000000
00000010
,
00000010
00000001
00000100
00001000
,
00000000
00010000
00001000
00020000
,
00000000
00000000
00000000
00030000
,
00000000
00000000
00000000
00000020
,
00000000
00000000
00000000
00000030
,
00000000
00000000
00000000
00002000
,
00000000
00000000
00000000
00003000
,
00000000
00000000
00000000
02000000
,
00000000
00000000
00000000
03000000
,
00000000
00100000
00100000
20000000
,
00000000
30020000
00000000
20030000
,
00000000
30020000
00000000
00130000
,
01000000
00010000
00001000
00010000
,
00000000
00000010
00000010
00002000
,
00000000
00003002
00000000
00002003
,
00000000
00003002
00000000
00000103
,
00000010
00001000
00000100
00001000
,
00000000
00000100
00000100
00001000
,
00001000
00000001
00000001
00001000
,
00001000
00000001
00000001
00000100
,
00000100
00001000
00001000
00010000
,
00000000
01000000
01000000
10000000
,
10000000
00010000
00010000
10000000
,
10000000
00010000
00010000
10000000
,
00100000
01000000
00010000
10010000
,
00000000
00100000
00100000
10000000
,
01000000
00010000
01000000
10000000
,
01000000
00010000
01000000
10000000
,
01000000
00010000
00001000
00010000
,
00000000
00010000
00010000
00001000
,
00000100
00000001
00000100
00001000
,
00000100
00000001
00000100
00000010
,
00001000
00000001
00000100
00000010
,
00000000
00000100
00000100
00001000
,
00010000
01000000
10000000
00100000
,
00010000
00001000
00000100
00000001
,
00000010
00001000
00010000
00001000
,
00010000
00000100
00000010
00000001
,
00000100
00001000
00010000
00100000
,
10000000
01000000
00010000
00011000
,
00000000
00000000
00000000
00000100
,
00000100
00000100
00000000
00000001
,
00000100
00000010
00001000
00000100
,
00010000
00001000
00011000
00000000
,
00000000
00000000
00000000
00000000
;

//---------------dance-double - ----------------
#NOTES:
     dance-double:
     :
     Medium:
     11:
     :
00000000
00000000
00000000
00000000
,
00000000
00000000
00000000
00000000
,
00000000
00000000
00000000
00000000
,
00000000
00000000
00000000
00000000
,
00000000
00000000
00000000
00000000
,
00000000
00000000
00100000
00001000
,
00010000
00000010
00010000
00001000
,
00100000
01000000
00100000
00001000
,
00010000
00000010
00010000
00001000
,
00000100
00000100
00000002
00002003
,
00003001
00000100
00000001
00000100
,
00000001
00000000
00000100
00000000
00000001
00000100
00000010
00000000
,
00001000
00000100
00001000
00000100
,
00001000
00000000
00000100
00000000
00001000
00000100
00010000
00001000
,
00010000
00001000
00100000
00001000
,
01000000
00000000
00001000
00000000
00100000
00010000
10000000
00000000
,
01000000
00000000
00000000
00010000
00000000
00000000
00001000
00000000
,
00000000
00010000
00000000
00000000
00011000
00000000
00011000
00000000
,
00000100
00001000
00000100
00000000
00000010
00000000
00000001
00000000
,
00001000
00000002
00000010
00001003
,
00000001
00000100
00000001
00000000
00001000
00000000
00000010
00000000
,
00010000
00002000
00010000
00103000
,
00010000
00010000
01001000
00000000
,
00100000
00100000
11000000
00000000
,
01000000
00100000
00001000
00010000
,
00100000
00000000
00010000
00011000
,
00002000
00010000
00203000
01000000
,
00302000
00010000
02003000
00100000
,
03010000
10000000
01000000
00010000
,
00001000
00000000
00000100
00000000
00000010
00000100
00000010
00000000
,
00002000
00010000
00003020
00000100
,
00020030
00001000
00030020
00000100
,
00001030
00000001
00000010
00001000
,
00010000
00000000
01000000
00000000
00100000
01000000
00100000
00000000
,
02000000
10000000
03020000
00001000
,
00230000
10000000
00320000
00001000
,
00030100
00000010
00000001
00000100
,
00000010
00000000
00001000
00000000
00000001
00000100
00000001
00000000
,
00000020
00000001
00002030
00010000
,
00003200
00000001
00002300
00010000
,
00003100
00001000
00010000
01000000
,
20020000
00000000
00000000
30030000
,
01000000
00000000
11000000
00000000
,
00100000
00100000
00010000
00001000
,
00010000
00001000
00000000
00010000
00000100
00000000
00001000
00000100
,
00000000
00001000
00000001
00000000
00000010
00000001
00000010
00000001
,
00000100
00000000
00000010
00000100
,
00000010
00010000
00000000
00000000
00100000
00000000
00100000
00000000
,
01000000
00000000
00010000
00100000
,
00100000
00001000
00000000
00000000
00000010
00000000
00000220
00000000
,
00000330
00000000
00000000
00000002
,
00000010
00000100
00001003
00000200
,
00000010
00001000
00010300
00002000
,
00010000
00100000
01003000
00200000
,
00010000
01000000
10300000
01000000
,
00010000
00001000
00010000
00000000
00001000
00000000
00000100
00000000
,
00000010
00000100
00000010
00000000
00001000
00000000
00000001
00000000
,
00000100
00001000
00010000
00011000
,
00000000
00100000
01000000
00200000
,
00000000
00320000
00000000
00032000
,
00000000
00003010
00000000
00000200
,
00000000
00002300
00000000
00023000
,
00000000
01030000
00000000
00200000
,
00000000
00320000
00000000
00032000
,
00000000
00003010
00000000
00002002
,
00000000
00000000
00000000
00000000
00003003
00000000
00000010
00000100
,
00000000
00000001
00001000
00000000
00000100
00000000
00000020
00000000
,
00000001
00002030
00010000
00003200
,
00000001
00002300
00010000
00003010
,
00000001
00000100
00001000
00010000
,
00001000
00000000
00100000
00010000
00100000
00000000
02000000
00000000
,
10000000
03020000
00001000
00230000
,
10000000
00320000
00001000
01030000
,
10000000
00100000
00010000
00001000
,
00010000
00000000
00001000
00010000
00001000
00000000
00011000
00000000
,
00011000
00010100
00010100
00001001
,
00001001
00000101
00000101
00001000
,
00000100
00000001
00000010
00001000
,
00010000
00000000
00001000
00010000
00001000
00000000
00011000
00000000
,
00011000
01001000
01001000
10010000
,
10010000
11000000
11000000
00010000
,
01000000
10000000
00100000
00010000
,
00001000
00000000
00010000
00000000
00011000
00000000
00010000
00001000
,
00010000
00000000
00010000
00000100
00010000
00000000
00001000
00010000
,
00001000
00000000
00001000
01000000
00001000
00000000
00010000
00000000
,
00100000
10000000
01000000
00100000
,
01000000
00000000
01100000
00000000
00010000
00000000
00001000
00010000
,
00001000
00000000
00001000
00100000
00001000
00000000
00010000
00001000
,
00010000
00000000
00010000
00000010
00010000
00000000
00001000
00000000
,
00000100
00000001
00000010
00001000
,
00010000
00000000
00011000
00000000
00011000
00000000
00001000
01000000
,
00001000
01000000
00010000
01000000
00010000
01000000
00100000
10000000
,
00100000
10000000
00010000
10000000
00010000
10000000
01000000
00000000
,
00010000
10000000
00100000
01100000
,
00010000
00000000
00001000
00010000
00001000
00000000
00010000
00000100
,
00010000
00000100
00001000
00000100
00001000
00000100
00000010
00000001
,
00000010
00000001
00001000
00000001
00001000
00000001
00000100
00000000
,
00000000
00000000
00000000
00000010
00000100
00000000
00000000
00000010
,
00010000
00001000
01000000
00000000
00100000
00000000
10000000
00100000
,
00000000
01000000
00010000
00000000
00100000
00001000
00000000
00010000
,
00000100
00000010
00001001
00000000
,
00000000
00000000
00000000
00000000
;

//---------------dance-double - ----------------
#NOTES:
     dance-double:
     :
     Hard:
     14:
     :
00000000
00000000
00000000
00000000
,
00000000
00000000
00000000
00000000
,
00000000
00000000
00000000
00000000
,
00000000
00000000
00000000
00000000
,
00000000
00000000
00000000
00000000
,
00000000
00000000
00000000
00000000
00000010
00001000
00000010
00000000
,
00000100
00000000
00000001
00000000
00000010
00000000
00000100
00001000
,
00000001
00000000
00000100
00000000
00001000
00010000
00001000
00000000
,
01000000
00000000
00100000
00000000
10000000
00000000
00010000
00100000
,
01000000
10000000
01000000
00000000
00020000
00000000
00032000
00000000
,
00013000
00000010
00010000
00000000
00001000
00000010
00001000
00000000
,
00000100
00000010
00000100
00000010
00000001
00000100
00000010
00000000
,
00000100
00000001
00000100
00000000
00000010
00000100
00000010
00000000
,
00001000
00000010
00001000
00000010
00010000
00001000
00010000
00000000
,
00001000
00010000
00001000
00000000
01000000
00001000
01000000
00000000
,
00010000
00100000
00010000
00100000
01000000
00100000
10000000
00000000
,
00100000
00100000
00000000
01000000
01000000
00000000
00010000
00010000
,
00000000
00001000
00001000
00000000
00010000
00000000
00011000
00000000
,
00010000
00000010
00001000
00000100
00010000
00000010
00000100
00000000
,
00000001
00001000
00000100
00001000
00000010
00010000
00001000
00000000
,
01000000
00010000
10000000
00100000
01000000
00010000
00100000
00000000
,
00001000
00100000
00010000
01000000
00100000
10000000
00010000
00000000
,
00100000
01000000
10000000
01000000
00010000
00000000
00001000
00010000
,
00001000
00000100
00000001
00000100
00000010
00000000
00001000
00000000
,
00000001
00000100
00000010
00001000
00000100
00001000
00000010
00010000
,
00001000
00000000
00001000
00010000
01000000
00100000
01000000
00000000
,
10000000
01000000
00100000
00000000
00100000
01000000
00010000
00000000
,
00001000
00000100
00000010
00000000
00000010
00000100
00000001
00000000
,
00000100
00001100
00000100
00000101
,
00000010
00000000
00000100
00000000
00001000
00000001
00001000
00000000
,
00000001
00000010
00000100
00000000
00000100
00000010
00001000
00000000
,
00010000
00100000
01000000
00000000
01000000
00100000
10000000
00000000
,
00010000
00000000
10000000
01000000
00010000
01000000
10000000
01000000
,
00010000
00000000
01000000
00000000
10000000
00010000
10000000
00000000
,
10000000
10000000
01000000
00000000
00100000
00100000
00010000
00000000
,
00001000
00001000
00000100
00000000
00000010
00000010
00000001
00000000
,
00000100
00000001
00001000
00000010
00010000
00000100
00001000
00000010
,
00000100
00000000
00000001
00000000
00001000
00000001
00001000
00000000
,
00000001
00001000
00001000
00000000
00000100
00010000
00010000
00000000
,
00001000
00100000
00100000
00000000
00010000
10000000
10000000
00000000
,
00010000
10000000
01000000
00010000
00001000
00010000
01000000
00100000
,
00010000
10000000
00010000
10000000
00100000
01000000
00100000
00000000
,
10000000
00100000
00000000
00100000
00010000
00000000
00010000
00001000
,
00000000
00001000
00000010
00000000
00000010
00000001
00000001
00000000
,
00000100
00000000
00000100
00001000
00000000
00001000
00010000
00000000
,
00010000
01000000
00000000
01000000
10000000
00010000
10000000
00000000
,
01000000
00000000
01010000
10000000
,
00100000
00000000
00010000
00000000
00001000
00010000
00001000
00010000
,
00000100
00000000
00001100
00000001
,
00000010
00000000
00001000
00000000
00010000
00001000
00010000
00002000
,
00000000
00003000
00000000
00000000
00000000
00000000
00000000
00000000
00000000
00000000
00000000
00000000
00000000
00000000
00000000
00000000
00000000
00000000
00000000
00000000
00000000
00000000
00000000
00000000
00000000
00000000
00000000
00000000
00000000
00000000
00000000
00000000
00000000
00000000
00000000
00000000
00000000
00000000
00000000
00000000
00000000
00000000
00000000
00000000
00000000
00000000
00000000
00000000
00100000
00000000
00000000
00000000
00000000
00000000
00000000
00000000
00001000
00000000
00000000
00000000
00000000
00000000
00000000
00000000
,
00100000
00010000
00100000
00001000
00100000
00000000
01000000
10000000
,
00100000
10000000
01000000
10000000
00100000
00000000
01000000
00010000
,
01000000
00001000
01000000
00010000
01000000
00000000
00001000
00010000
,
00001000
00010000
00000100
00001000
00000010
00000000
00000100
00000001
,
00000010
00000100
00001000
00000000
00000001
00000100
00000010
00001000
,
00000100
00010000
00001000
00000000
00010000
00000000
00001000
00000100
,
00000010
00000100
00001000
00010000
00001000
00000000
00010000
00000000
,
00011000
00000000
00010000
00100000
10000000
00000000
20200000
00000000
,
30000000
00020000
00030000
20000000
,
30000000
00020000
00330000
00202000
,
00000000
00000000
00303000
00020200
,
00000000
00000000
00030300
00002020
,
00003000
00000002
00000003
00002000
,
00003000
00000002
00000033
00002002
,
00000000
00000000
00000000
00000000
00003003
00000000
00000010
00000100
,
00000000
00001000
00010000
00000000
00011000
00000000
00010000
00001000
,
00100000
00000000
00001000
00010000
00000100
00000000
00010000
00001000
,
01000000
00000000
00001000
00010000
00000010
00000000
00000110
00000000
,
00000011
00000110
00001010
00000101
,
00000010
00000000
00000100
00000100
00001000
00000000
00010000
00001000
,
00000100
00000000
00001000
00010000
00100000
00000000
00010000
00001000
,
00000010
00000000
00001000
00010000
01000000
00000000
10000000
01000000
,
00010000
00000000
00010000
01000000
10000000
00000000
00010000
00000000
,
01000000
00000000
00100000
00100000
00010000
00000000
00101000
00000000
,
01010000
00101000
00011000
00010010
,
00001100
00000000
00011000
00000000
00001010
00000000
00000010
00001000
,
00000001
00000100
00000010
00001000
00000001
00000100
00001000
00000000
,
00010000
00000000
00001000
00000100
00000010
00000000
00010010
00000000
,
00001100
00010010
00011000
00101000
,
01010000
00000000
00011000
00000000
00110000
00000000
00100000
00001000
,
01000000
00010000
00100000
10000000
00010000
01000000
10000000
00000000
,
00100000
00000000
10000000
00010000
01000000
00000000
00100000
10000000
,
00100000
10000000
00100000
00010000
00100000
00010000
00001000
00010000
,
00001000
00010000
00001000
00000010
00001000
00000010
00000001
00000010
,
00000001
00000010
00000001
00000100
00000001
00000100
00001000
00000100
,
00001000
00000100
00001000
00010000
00001000
00010000
01000000
00010000
,
01000000
00010000
01000000
10000000
01000000
10000000
00100000
10000000
,
00100000
10000000
00100000
00010000
00100000
00010000
00001000
00010000
,
00001000
00010000
00001000
00000100
00001000
00000100
00000001
00000100
,
00000001
00000100
00000001
00001000
00000010
00000000
00000100
00000001
,
00000010
00000001
00000100
00001000
00000100
00000010
00010000
00001000
,
00000100
00001000
00010000
00100000
01000000
00010000
10000000
00010000
,
00100000
01000000
00010000
00001000
00100000
00010000
00100000
00001000
,
00010000
00000010
00000100
00000001
00000010
00000100
00001000
00000001
,
00001000
00000100
00010000
00001000
00000100
00000010
00000100
00010000
,
00001000
00000000
00100000
00000000
00010000
00000000
00100000
00000000
01000000
00000000
00010000
10000000
00010000
00000000
00000000
00000000
,
00000000
00000000
00000000
01000000
01100000
00000000
10000000
01000000
,
00100000
00010000
00001000
00000000
00011000
00000000
00010000
00000100
,
00001000
00000010
00000100
00000001
00000010
00000100
00010000
00001000
,
00100000
00010000
01000000
00100000
10000000
00000000
00000000
00000000
,
00000000
00000000
00000000
00000000
;

//---------------dance-double - ----------------
#NOTES:
     dance-double:
     :
     Challenge:
     17:
     :
00000000
00000000
00000000
00000000
,
00000000
00000000
00000000
00000000
,
00000000
00000000
00000000
00000000
,
00000000
00000000
00000000
00000000
,
00000000
00000000
00000000
00000000
,
00000000
00000000
00000000
00000000
00000100
00000010
00001000
00010000
,
00100000
10000000
00010000
01000000
10000000
01000000
00100000
10000000
,
00100000
00010000
00001000
00000010
00000100
00001000
00000001
00000010
,
00001000
00000001
00000100
00000010
00000001
00001000
00000100
00010000
,
00001000
00010000
00100000
10000000
00020000
00000000
20030000
00000000
,
30010000
00100000
10000000
00100000
00010000
01000000
10000000
01000000
,
00010000
10000000
00100000
00010000
00001000
00010000
00010000
00010000
,
00001000
00000010
00000001
00001000
00000010
00000001
00000010
00001000
,
00000001
00000100
00000001
00000010
00001000
00010000
00010000
00010000
,
00001000
00010000
00100000
10000000
00100000
00010000
00100000
10000000
,
01000000
00010000
01000000
10000000
00100000
01000000
01000000
01000000
,
00100000
10000000
10000000
00010000
00100000
00100000
00001000
00010000
,
00010000
00000100
00001000
00001000
00000020
00000000
00000130
00000000
,
00000001
00000001
00001000
00001000
00000001
00000010
00000001
00000010
,
00000100
00000100
00001000
00001000
00000100
00010000
00000100
00010000
,
00100000
00100000
01000000
01000000
00001000
00100000
00001000
00100000
,
00010000
00010000
10000000
10000000
01000000
10000000
01000000
10000000
,
00100000
00100000
00010000
00010000
10000000
01000000
00100000
00010000
,
00001000
00001000
00010000
00010000
00001000
00000100
00000010
00000001
,
00000010
00000010
00001000
00001000
00000001
00000100
00000010
00001000
,
00001000
00000000
00000001
00000010
00000001
00000000
00001000
00000100
00001000
00000000
00000100
00010000
00000100
00010000
00001000
00000000
,
00020000
00100000
00100000
00000000
00032000
00000100
00000100
00000000
,
00023000
00100000
00100000
00000000
00032000
00000100
00000100
00000000
,
00013000
00000000
00100000
00000000
01000000
00000000
00100000
01000000
00100000
00000000
10000000
00000000
01000000
00000000
00100000
00000000
,
00010000
00000000
01000000
00100000
00010000
00001000
00010000
00000000
,
00002000
00000010
00000010
00000000
00023000
01000000
01000000
00000000
,
00032000
00000010
00000010
00000000
00023000
01000000
01000000
00000000
,
00031000
00000000
00000010
00000000
00000100
00000000
00000010
00000100
00000010
00000000
00000001
00000000
00000010
00000000
00000100
00000000
,
00001000
00000000
00000001
00000000
00000010
00000001
00000100
00000000
,
00000110
00001000
00010000
00000000
01100000
00010000
00001000
00000000
,
00000110
00001000
00010000
00000000
01100000
00010000
00001000
00000000
,
00000010
00000000
00000001
00000000
00001000
00000000
00000010
00000100
00000010
00000000
00001000
00000000
00000100
00000000
00010000
00000000
,
00001000
00000000
00010000
00000000
01000000
10000000
01000000
00000000
,
01100000
00010000
00001000
00000000
00000110
00001000
00010000
00000000
,
01100000
00010000
00001000
00000000
00000110
00001000
00010000
00000000
,
00001000
00000010
00000001
00000010
00001000
00000010
00000001
00000100
,
00001000
00001000
00010000
00010000
01000000
01000000
10000000
10000000
,
00100000
01000000
10000000
00010000
00100000
01000000
00001000
00010000
,
00100000
00010000
00001000
00000100
00000001
00000010
00000001
00000101
,
00000001
00000100
00000110
00000100
00001000
00001100
00001000
00010000
,
00010000
00010000
00100000
01000000
00100000
01000000
00100000
01000000
,
10000000
01000000
00010000
10000000
01000000
00010000
10000000
00100000
,
00010000
10000000
00100000
00010000
00001000
00010000
00001000
00010000
,
00001000
00000100
00000001
00001000
00000100
00000001
00001000
00000010
,
00000001
00001000
00000010
00000001
00000010
00000100
00000010
00000200
,
00000000
00000300
00000000
00000000
00000000
00000000
00000000
00000000
00000000
00000000
00000000
00000000
00000000
00000000
00000000
00000000
00000000
00000000
00000000
00000000
00000000
00000000
00000000
00000000
00000000
00000000
00000000
00000000
00000000
00000000
00000000
00000000
00000000
00000000
00000000
00000000
00000000
00000000
00000000
00000000
00000000
00000000
00000000
00000000
00000000
00000000
00000000
00000000
00000001
00000000
00000000
00000000
00000000
00000000
00000000
00000000
00000001
00000000
00000000
00000000
00000000
00000000
00000000
00000000
,
00000100
00000100
00000010
00000010
00001000
00001000
00100000
00100000
,
00010000
00010000
10000000
10000000
01000000
01000000
00100000
00100000
,
10000000
10000000
01000000
01000000
00010000
00010000
00001000
00001000
,
00000100
00000100
00000001
00000001
00000010
00000010
00000001
00000100
,
00001000
00000100
00000001
00001000
00000100
00010000
00001000
00010000
,
01000000
10000000
00010000
00100000
00001000
00010000
00001000
00001000
,
00000100
00001000
00001000
00010000
00010000
00100000
00010000
00010000
,
00001000
00000000
00010000
00001000
00010000
00000000
00001000
00000000
00000100
00000000
00000010
00000000
00000200
00000000
00000000
00000000
,
00000000
00001000
00000000
00000001
,
00000000
00001000
00000300
00020000
,
00000000
01000000
00000000
00032000
,
00000000
00000100
00000000
02003000
,
00000000
00010000
00000000
10000000
,
00000000
00010000
03000000
20020000
,
00000000
00000000
00000000
00000000
30030000
00000000
01000000
01000000
,
00000000
00000000
10000000
01000000
10000000
00000000
01000000
00000000
00100000
00000000
01000000
00000000
01100000
00000000
00010000
00000000
,
00001000
00000000
00000110
00001000
00010000
00000000
01100000
00010000
,
00001000
00000000
00000110
00001000
00010000
00000000
01000000
10000000
,
00100000
00000000
01000000
00100000
01000000
00000000
00010000
00000000
00100000
00000000
01000000
00000000
00010000
00000000
00000000
00000000
,
00011000
00000000
00000000
00000000
00000100
00000000
00000001
00001000
00000001
00000000
00000100
00000000
00000110
00000000
00001000
00000000
,
00010000
00000000
01100000
00010000
00001000
00000000
00000110
00001000
,
00010000
00000000
01100000
00010000
00001000
00000000
00000100
00000001
,
00000010
00000000
00000100
00000010
00000100
00000000
00000010
00000000
00001000
00000000
00000001
00000000
00000100
00000000
00000000
00000000
,
00001000
00000000
00000001
00001000
00000001
00000000
00000110
00001000
,
00010000
01000000
01100000
00010000
00001000
00000100
00000110
00001000
,
00010000
01000000
01100000
00010000
00001000
00000100
00000010
00001000
,
00000001
00000000
00000100
00000010
00000100
00000000
00001000
00000000
00000100
00000000
00010000
00000000
00001000
00000000
00100000
00000000
,
00010000
00000000
01000000
00000000
00100000
00000000
10000000
01000000
10000000
00000000
00100000
00000000
01100000
00000000
00010000
00000000
,
00001000
00000010
00000110
00001000
00010000
00100000
01100000
00010000
,
00001000
00000010
00000110
00001000
00010000
00100000
01000000
00010000
,
10000000
01000000
00010000
10000000
00100000
00010000
00001000
00000000
,
00010000
00001000
00000100
00000001
00000010
00000100
00000010
00000001
,
00000100
00000001
00000100
00000001
00000100
00000000
00000010
00000000
00001000
00000001
00001000
00000001
00001000
00000000
00000010
00000000
,
00010000
00000100
00010000
00000100
00010000
00000000
00001000
00000000
00100000
00010000
00100000
00010000
00100000
00000000
00010000
00000000
,
10000000
01000000
10000000
01000000
10000000
00000000
00100000
00000000
01000000
00100000
01000000
00100000
01000000
00000000
00010000
00000000
,
00100000
00010000
00100000
00010000
00100000
00000000
00001000
00000000
00010000
00001000
00010000
00000000
00001000
00000000
00010000
00000000
,
00000100
00001000
00000100
00001000
00000001
00000000
00001000
00000000
00000010
00000100
00000010
00000100
00000001
00000000
00001000
00000000
,
00000010
00000100
00000010
00000100
00001000
00000000
00010000
00000000
00001000
00010000
00001000
00010000
00001000
00000000
00100000
00000000
,
01000000
10000000
01000000
10000000
00010000
00000000
01000000
00000000
00100000
10000000
00100000
10000000
00010000
00000000
00100000
00000000
,
00001000
00000000
00000000
00010000
00000000
00000000
00001000
00000000
00000000
00010000
00000000
00000000
00000100
00000000
00000000
00000000
00000000
00000000
00001000
00000000
00000000
00000000
00000000
00000000
00000010
00000000
00000000
00001000
00000000
00000000
00000010
00000000
00000000
00001000
00000000
00000000
00000001
00000000
00000000
00000000
00000100
00000000
00000000
00000000
00000001
00000000
00000000
00000000
,
00001000
00000100
00001000
00000010
00000100
00000010
00010000
00000100
00010000
00001000
01000000
00001000
,
00100000
00010000
00100000
01000000
10000000
01000000
00100000
00010000
00100000
00001000
00010000
00001000
,
00010000
00000100
00010000
00000010
00001000
00000010
00000100
00000001
00000100
00000010
00000100
00000010
,
00001000
00000001
00001000
00000100
00010000
00000100
00010000
00001000
00010000
00001000
00100000
00010000
,
00100000
10000000
00100000
01000000
10000000
01000000
00100000
01000000
00010000
00001000
00010000
00001000
,
00000100
00000000
00000000
00000000
00000010
00000000
00000000
00000000
00000100
00000000
00000000
00000000
00000001
00000000
00000000
00000000
00001000
00000000
00000000
00000000
00000001
00000000
00000000
00000000
00000010
00000000
00000000
00000000
00000100
00000000
00000000
00000000
00001000
00000000
00000000
00000000
00000001
00000000
00000000
00000010
00000000
00000000
00000001
00000000
00000000
00000010
00000000
00000000
,
00000001
00001000
00000001
00001000
00000100
00001000
00000100
00001000
00000100
00010000
00000100
00010000
00001000
00000000
00010000
00000000
,
01000000
10000000
11000000
00000000
10010000
00000000
10100000
10000000
,
01000000
01100000
00010000
00001000
00000110
00000010
00000100
00000101
,
00000001
00000010
00000100
00000010
00001001
00000000
00000000
00000000
,
00000000
00000000
00000000
00000000
;
