#TITLE:Qipchãq;
#ARTIST:world sequence;
#BANNER:Qipchaq.png;
#BACKGROUND:Qipchaq-bg.png;
#CDTITLE:./CDTitles/DanceDanceRevolution 2013.png;
#MUSIC:Qipchaq.ogg;
#SAMPLESTART:62.4;
#SAMPLELENGTH:15;
#BPMS:0=150;
#STAGE:3;

//---------------dance-single - ----------------
#NOTES:
     dance-single:
     :
     Beginner:
     3:
     :
0000
0000
0000
0000
,
0000
0000
0000
0000
,
0000
0000
0000
0000
,
0000
0000
0000
0000
,
0000
0000
0000
0000
,
0001
0001
0000
0000
,
0010
0010
0000
0000
,
1000
1000
0000
0000
,
0100
0100
0000
0000
,
0001
0000
0010
0000
,
0001
0000
0001
0000
,
1000
0000
0010
0000
,
1000
1000
1000
0000
,
0001
0000
0100
0000
,
0001
0000
0001
0000
,
1000
0000
0100
0000
,
1000
0000
0000
0000
,
0010
0000
1000
0000
,
0100
0000
0000
0000
,
0010
0000
0001
0000
,
0100
0000
0000
0000
,
0010
0010
0010
0000
,
1000
1000
1000
0000
,
0100
0100
0100
0000
,
0001
0001
0001
0000
,
0010
0000
0001
0000
,
1000
0000
0000
0000
,
0010
0000
1000
0000
,
0001
0000
0000
0000
,
1000
1000
0000
0000
,
0000
0000
0000
0000
,
0001
0001
0000
0000
,
0000
0000
0000
0000
,
0100
0100
0000
0000
,
0000
0000
0000
0000
,
0010
0010
0000
0000
,
0000
0000
0000
0000
,
1001
0000
0000
0000
,
0000
0000
0000
0000
,
0001
0000
0010
0000
,
0100
0000
1000
0000
,
0010
0000
0100
0000
,
0001
0000
1000
0000
,
0002
0000
0003
0000
,
2000
0000
3000
0000
,
0001
0000
1001
0000
,
1000
0000
1001
0000
,
1000
0000
0010
0000
,
0100
0000
0001
0000
,
0010
0000
0100
0000
,
1000
0000
0001
0000
,
2000
0000
3000
0000
,
0002
0000
0003
0000
,
1000
0000
1001
0000
,
0001
0000
1001
0000
,
1001
0000
0000
0000
,
1001
1001
0000
0000
,
0000
0000
0000
0000
;

//---------------dance-single - ----------------
#NOTES:
     dance-single:
     :
     Easy:
     5:
     :
0000
0000
0000
0000
,
0000
0000
0000
0000
,
0000
0000
0000
0000
,
0000
0000
0000
0000
,
0000
0000
0000
0000
,
1000
1000
0100
0000
,
0001
0001
0100
0000
,
1000
1000
0010
0000
,
2002
0000
3003
0000
,
1000
0010
1000
0010
,
0100
0000
0100
0000
,
0010
1000
0100
1000
,
0001
0001
0001
0000
,
0001
0010
0001
0010
,
0100
0000
0100
0000
,
0010
0001
0100
0001
,
1001
0000
0000
0000
,
0010
0000
0010
0000
,
0100
0001
0010
1000
,
0001
0000
0100
0000
,
1000
0010
0001
0000
,
0110
0000
1001
0000
,
0110
0000
1001
0000
,
0110
0000
1001
0000
,
0110
0000
1001
0000
,
0010
0000
0010
0000
,
0100
1000
0010
0001
,
1000
0000
0100
0000
,
0001
2000
0000
3000
,
0010
0000
0000
1000
0000
0000
0010
0000
,
0000
2000
0000
0000
0000
0000
3000
0000
,
0010
0000
0000
0001
0000
0000
0010
0000
,
0000
0002
0000
0000
0000
0000
0003
0000
,
1000
0000
0000
0100
0000
0000
1000
0000
,
0000
0200
0000
0000
0000
0000
0300
0000
,
0001
0000
0000
0100
0000
0000
0001
0000
,
0000
0200
0000
0000
0000
0000
0300
0000
,
2002
0000
0000
0000
,
0000
0000
0000
3003
,
0001
0010
1000
0000
,
0001
0010
0001
0100
,
0010
1000
0100
0000
,
1000
1000
0001
0001
,
0010
0001
0100
0000
,
0010
1000
0100
0000
,
0010
0010
0000
0000
1000
1000
0000
0000
,
0100
0100
0000
0000
0001
0001
0000
0000
,
1000
0010
0001
0000
,
1000
0010
1000
0100
,
0010
0001
0100
0000
,
0001
0001
1000
1000
,
0010
1000
0100
0000
,
0010
0001
0100
0000
,
0010
0010
0000
0000
0001
0001
0000
0000
,
0100
0100
0000
0000
1000
1000
0000
0000
,
1001
0000
0000
0000
,
0110
1001
0000
0000
,
0000
0000
0000
0000
;

//---------------dance-single - ----------------
#NOTES:
     dance-single:
     :
     Medium:
     8:
     :
0000
0000
0000
0000
,
0000
0000
0000
0000
,
0000
0000
0000
0000
,
0000
0000
0000
0000
,
0000
0000
0000
0000
,
0001
0010
0001
0000
1100
0000
1000
0010
,
1000
0000
0101
0000
1000
0001
0100
0000
,
0001
1000
0001
0000
0110
0000
1000
0001
,
1000
0000
0110
0000
0001
1000
0100
0000
,
0002
0013
2000
3010
,
0001
0100
0010
0000
0100
0000
0001
0000
,
0020
0031
0200
0301
,
1000
0001
0100
0001
2000
0000
3000
0000
,
2000
3010
0002
0013
,
1000
0100
0010
0000
0100
0000
1000
0000
,
0020
1030
0200
1300
,
0001
1000
0100
1000
0002
0000
1003
0000
,
0010
0000
1000
0001
0010
0000
0001
0000
,
0100
0010
1000
0000
0010
0000
0001
0000
,
1000
0000
0001
0010
0100
0000
1000
0000
,
0001
0100
0010
0000
1000
0000
0100
0000
,
0110
0100
0000
0000
1001
0001
0000
0000
,
0011
0010
0000
0000
1100
0100
0000
0000
,
0101
0100
0000
0000
1010
0010
0000
0000
,
1001
1000
0000
0000
0110
0010
0000
0000
,
0010
0000
0001
1000
0010
0000
1000
0000
,
0100
0010
0001
0000
0010
0000
1000
0000
,
0001
0000
1000
0010
0100
0000
0001
0000
,
1000
0100
0020
0000
0000
0000
0030
0000
,
0000
0001
0001
0000
1000
1000
0000
0100
,
0100
0020
0000
0000
0100
0000
0130
0000
,
0000
1000
1000
0000
0001
0001
0000
0100
,
0100
0020
0000
0000
0100
0000
0130
0000
,
0000
1000
1000
0000
0100
0100
0000
0010
,
0010
0002
0000
0000
1000
0000
1003
0000
,
0000
0001
0001
0000
0100
0100
0000
0010
,
0010
2000
0000
0000
0001
0000
3001
0000
,
0220
0000
0000
0000
,
0000
0000
0000
0330
,
1000
0000
0010
0000
0001
0100
0010
0000
,
2000
3010
2000
3100
,
0010
0001
0100
0000
0010
1000
0100
0000
,
0001
0010
1000
0100
,
0011
1100
0001
0100
,
1010
0101
1000
0100
,
0010
0010
0100
1000
0001
0001
0000
0000
,
0010
0010
0100
0001
1000
1000
0000
0000
,
0001
0000
0010
0000
1000
0100
0010
0000
,
0002
0013
0002
0103
,
0010
1000
0100
0000
0010
0001
0100
0000
,
1000
0010
0001
0100
,
1010
0101
1000
0100
,
0011
1100
0001
0100
,
0010
0010
0100
0001
1000
1000
0000
0000
,
0010
0010
0100
1000
0001
0001
0000
0000
,
1001
0000
0000
0000
,
0110
1001
0000
0000
,
0000
0000
0000
0000
;

//---------------dance-single - ----------------
#NOTES:
     dance-single:
     :
     Hard:
     12:
     :
0000
0000
0000
0000
,
0000
0000
0000
0000
,
0000
0000
0000
0000
,
0000
0000
0000
0000
,
0000
0000
0000
0000
,
0010
1000
1010
0000
0101
0000
0001
0010
,
0011
0000
0000
0000
1100
0000
0000
0001
1000
0000
0100
0000
0010
0000
0001
0000
,
1000
0001
1001
0000
0110
0000
0001
1000
,
1001
0000
0000
0000
0110
0000
0000
0100
0010
0000
1000
0000
0001
0000
1000
0000
,
1200
0310
0201
0310
,
1000
0100
0010
0100
1000
0000
0001
0000
,
1020
0130
0021
0130
,
0001
0100
1000
0100
0002
0000
0003
0000
,
0201
0310
1200
0310
,
0001
0100
0010
0100
0001
0000
1000
0000
,
0021
0130
1020
0130
,
1000
0100
0001
0100
2000
0000
3001
0000
,
0110
0000
1000
0001
0010
0000
0010
0100
,
1000
0001
0100
0000
0010
0000
1000
0001
,
1000
0000
1000
0010
0100
0000
0100
0001
,
0010
0100
1000
0000
0001
0000
0100
0000
,
0110
0110
0001
1000
0110
0110
0000
0000
,
1001
1001
0100
0010
1001
1001
0000
0000
,
0110
0110
1000
0001
0110
0110
0000
0000
,
1001
1001
0010
0100
1001
1001
0000
0000
,
0110
0000
0001
1000
0010
0000
0010
0100
,
0001
1000
0100
0000
0010
0000
0001
1000
,
0001
0000
0001
0010
0100
0000
0100
1000
,
0010
0100
0202
0000
0000
0000
0303
0000
,
1000
0010
0010
1000
0001
0001
1000
0100
,
0100
0120
0000
0000
0100
0000
0130
0000
,
0001
0010
0010
0001
1000
1000
0001
0100
,
0100
0210
0000
0000
0010
0000
0310
0000
,
0100
0001
0001
0100
0010
0010
0100
1000
,
1000
1002
0000
0000
1000
0000
1003
0000
,
0100
1000
1000
0100
0010
0010
0100
0001
,
0001
2001
0000
0000
0001
0000
3001
0000
,
0220
0000
0000
0000
,
0000
0000
0000
0330
,
0001
0000
0000
0001
0010
0000
0000
0010
0100
0000
0000
0100
1000
0000
0000
1000
,
0001
0000
0000
0001
0100
0000
0000
0100
0010
0000
0000
0010
1000
0000
0000
1000
,
0100
0000
0000
0100
0001
0000
0000
0001
0100
0000
0000
0100
1000
0000
0000
1000
,
0001
0000
0000
0001
0100
0000
0000
0100
1000
0000
0000
1000
0100
0000
0000
0100
,
0010
0000
0000
0010
1000
0000
0000
1000
0100
0000
0000
0100
0010
0000
0000
0010
,
0001
0000
0000
0001
0100
0000
0000
0100
0010
0000
0000
0010
1000
0000
0000
0000
,
1010
1010
0100
0001
1001
1001
1000
0100
,
0110
0110
0010
0001
0101
0101
0000
0000
,
1000
0000
0000
1000
0010
0000
0000
0010
0100
0000
0000
0100
0001
0000
0000
0001
,
1000
0000
0000
1000
0100
0000
0000
0100
0010
0000
0000
0010
0001
0000
0000
0001
,
0100
0000
0000
0100
1000
0000
0000
1000
0100
0000
0000
0100
0001
0000
0000
0001
,
1000
0000
0000
1000
0100
0000
0000
0100
0001
0000
0000
0001
0100
0000
0000
0100
,
0010
0000
0000
0010
0001
0000
0000
0001
0100
0000
0000
0100
0010
0000
0000
0010
,
1000
0000
0000
1000
0100
0000
0000
0100
0010
0000
0000
0010
0001
0000
0000
0000
,
0011
0011
0100
1000
1001
1001
0001
0100
,
0110
0110
0010
1000
1100
1100
0010
0001
,
1001
0000
0000
0000
,
0110
1001
0000
0000
,
0000
0000
0000
0000
;

//---------------dance-double - ----------------
#NOTES:
     dance-double:
     :
     Easy:
     5:
     :
00000000
00000000
00000000
00000000
,
00000000
00000000
00000000
00000000
,
00000000
00000000
00000000
00000000
,
00000000
00000000
00000000
00000000
,
00000000
00000000
00000000
00000000
,
00000001
00000010
00000100
00000000
,
00001000
00000010
00000100
00000000
,
00001000
00010000
00001000
00000000
,
00022000
00000000
00033000
00000000
,
00100000
00010000
00100000
00010000
,
01000000
00000000
01000000
00000000
,
00100000
10000000
00010000
10000000
,
01000000
01000000
01000000
00000000
,
00010000
00001000
00010000
00001000
,
00000100
00000000
00000100
00000000
,
00000010
00001000
00000100
00001000
,
00001001
00000000
00000000
00000000
,
00000010
00000000
00000010
00000000
,
00000100
00001000
00000010
00000001
,
00000100
00000000
00001000
00000000
,
00010000
00001000
00010000
00000000
,
00100000
01000000
01100000
00000000
,
10000000
00010000
10010000
00000000
,
00100000
01000000
01100000
00000000
,
00010000
00001000
00011000
00000000
,
00000010
00000000
00000010
00000000
,
00000100
00000001
00000010
00001000
,
00000001
00000000
00000100
00000000
,
00001000
00020000
00000000
00030000
,
00001000
00000000
00000000
00010000
00000000
00000000
00001000
00000000
,
00000000
00200000
00000000
00000000
00000000
00000000
00300000
00000000
,
00001000
00000000
00000000
00010000
00000000
00000000
00001000
00000000
,
00000000
02000000
00000000
00000000
00000000
00000000
03000000
00000000
,
00010000
00000000
00000000
10000000
00000000
00000000
00010000
00000000
,
00000000
00200000
00000000
00000000
00000000
00000000
00300000
00000000
,
00010000
00000000
00000000
10000000
00000000
00000000
00010000
00000000
,
00000000
02000000
00000000
00000000
00000000
00000000
03000000
00000000
,
20020000
00000000
00000000
00000000
,
00000000
00000000
00000000
30030000
,
01000000
10000000
00100000
00000000
,
10000000
01000000
00010000
00001000
,
00010000
00001000
00000010
00000000
,
00000001
00000001
00001000
00001000
,
00000010
00001000
00000100
00000000
,
00000010
00000001
00000100
00000000
,
00000010
00000010
00000000
00000000
00010000
00010000
00000000
00000000
,
00001000
00001000
00000000
00000000
00100000
00100000
00000000
00000000
,
00010000
10000000
01000000
00000000
,
10000000
00100000
00010000
00001000
,
00010000
00001000
00000100
00000000
,
00000001
00000001
00001000
00001000
,
00000100
00001000
00000010
00000000
,
00000100
00000001
00000010
00000000
,
00000100
00000100
00000000
00000000
00010000
00010000
00000000
00000000
,
00001000
00001000
00000000
00000000
01000000
01000000
00000000
00000000
,
10010000
00000000
00000000
00000000
,
01100000
10010000
00000000
00000000
,
00000000
00000000
00000000
00000000
;

//---------------dance-double - ----------------
#NOTES:
     dance-double:
     :
     Medium:
     8:
     :
00000000
00000000
00000000
00000000
,
00000000
00000000
00000000
00000000
,
00000000
00000000
00000000
00000000
,
00000000
00000000
00000000
00000000
,
00000000
00000000
00000000
00000000
,
10000000
00100000
10000000
00000000
01010000
00000000
00010000
00100000
,
00001000
00000000
00011000
00000000
00001000
00000100
00000010
00000000
,
00001000
00000001
00001000
00000000
00000110
00000000
00000100
00010000
,
00001000
00000000
00110000
00000000
10000000
00010000
01000000
00000000
,
00100000
10000000
00100000
00010000
,
10000000
01000000
00010000
00000000
00001000
00000000
00010000
00000000
,
00001000
00000100
00000001
00000100
,
00001000
00000100
00000010
00000100
00002000
00000000
00003000
00000000
,
00000010
00000001
00000010
00001000
,
00000001
00000100
00001000
00000000
00010000
00000000
00001000
00000000
,
00010000
01000000
10000000
01000000
,
00010000
01000000
00100000
01000000
00020000
00000000
10030000
00000000
,
00100000
00000000
00010000
10000000
00100000
00000000
10000000
00000000
,
01000000
00100000
00010000
00000000
00001000
00000000
00000100
00000000
,
00000010
00000000
00000001
00000100
00000010
00000000
00000100
00000000
,
00000001
00001000
00000100
00000000
00010000
00000000
00001000
00000000
,
01001000
01000000
00000000
00000000
00110000
00010000
00000000
00000000
,
00101000
00100000
00000000
00000000
00011000
00001000
00000000
00000000
,
00010010
00010000
00000000
00000000
00001100
00000100
00000000
00000000
,
00010100
00010000
00000000
00000000
00011000
00001000
00000000
00000000
,
00100000
00000000
00010000
10000000
00100000
00000000
10000000
00000000
,
01000000
00100000
00010000
00000000
00001000
00000000
00000100
00000000
,
00000010
00000000
00000001
00000100
00000010
00000000
00000100
00000000
,
00000001
00001000
00000020
00000000
00000000
00000000
00000030
00000000
,
00000000
00000100
00000100
00000000
00001000
00001000
00000000
00010000
,
00010000
00002000
00000000
00000000
01000000
00000000
01003000
00000000
,
00000000
00010000
00010000
00000000
10000000
10000000
00000000
01000000
,
01000000
00200000
00000000
00000000
01000000
00000000
01300000
00000000
,
00000000
00100000
00100000
00000000
00010000
00010000
00000000
00001000
,
00001000
00020000
00000000
00000000
00001000
00000000
00031000
00000000
,
00000000
00000100
00000100
00000000
00000010
00000010
00000000
00000001
,
00000001
00002000
00000000
00000000
00000001
00000000
00003001
00000000
,
00000220
00000000
00000000
00000000
,
00000000
00000000
00000000
00000330
,
00001000
00000000
00000100
00000000
00000010
00000001
00000100
00000000
,
00000020
00010000
00000230
00000001
,
00000320
00010000
00000130
00001000
,
00010000
00000000
00100000
00000000
01000000
00010000
10000000
00000000
,
10100000
01010000
10000000
01000000
,
00110000
11000000
00010000
01000000
,
00100000
00100000
01000000
00001000
00010000
00010000
00000000
00000000
,
00001000
00001000
00010000
01000000
10000000
10000000
00000000
00000000
,
00010000
00000000
01000000
00000000
00100000
10000000
01000000
00000000
,
00200000
00001000
02300000
10000000
,
03200000
00001000
01300000
00010000
,
00001000
00000000
00000010
00000000
00000100
00001000
00000001
00000000
,
00000011
00001100
00000001
00000100
,
00001010
00000101
00001000
00000100
,
00000010
00000010
00000100
00010000
00001000
00001000
00000000
00000000
,
00010000
00010000
00001000
00000100
00000001
00000001
00000000
00000000
,
00001001
00000000
00000000
00000000
,
00000110
00001001
00000000
00000000
,
00000000
00000000
00000000
00000000
;

//---------------dance-double - ----------------
#NOTES:
     dance-double:
     :
     Hard:
     11:
     :
00000000
00000000
00000000
00000000
,
00000000
00000000
00000000
00000000
,
00000000
00000000
00000000
00000000
,
00000000
00000000
00000000
00000000
,
00000000
00000000
00000000
00000000
,
00000001
00000010
00000011
00000000
00001100
00000000
00000010
00001000
,
00001010
00000000
00000000
00000000
00011000
00000000
00000000
00100000
00010000
00000000
01000000
00000000
00100000
00000000
10000000
00000000
,
01000000
10000000
11000000
00000000
01010000
00000000
00100000
01000000
,
01010000
00000000
00000000
00000000
00011000
00000000
00000000
00000100
00000010
00000000
00000001
00000000
00001000
00000000
00000001
00000000
,
00000201
00000310
00001200
00000310
,
00000001
00000100
00001000
00010000
00001000
00000000
00010000
00000000
,
00020010
00031000
00102000
00013000
,
01000000
10000000
00010000
01000000
00200000
00000000
00300000
00000000
,
12000000
03100000
02010000
03100000
,
10000000
01000000
00010000
00001000
00010000
00000000
00001000
00000000
,
00102000
00013000
00020010
00031000
,
00000100
00000001
00001000
00000100
00000020
00000000
00000130
00000000
,
00000110
00000000
00000001
00001000
00000010
00000000
00000100
00001000
,
00010000
01000000
10000000
00000000
00010000
00000000
01000000
00000000
,
01100000
00000000
10000000
01000000
00100000
00000000
00010000
00100000
,
01000000
00010000
00001000
00000000
00000100
00000000
00000001
00000000
,
00000011
00000011
00000100
00001000
00001100
00001100
00000000
00000000
,
00000101
00000101
00001000
00010000
00011000
00011000
00000000
00000000
,
01010000
01010000
00100000
10000000
10100000
10100000
00000000
00000000
,
11000000
11000000
00010000
00001000
00011000
00011000
00000000
00000000
,
00000110
00000000
00000001
00001000
00000100
00000000
00000010
00000100
,
00001000
00000001
00000100
00000000
00001000
00000000
00010000
00000000
,
00110000
00000000
01000000
10000000
00100000
00000000
01000000
00100000
,
10000000
00010000
20020000
00000000
00000000
00000000
30030000
00000000
,
00100000
10000000
10000000
00010000
01000000
01000000
00001000
00010000
,
00010000
00000200
00000000
00000000
00001000
00000000
00001300
00000000
,
00000010
00000001
00000001
00001000
00000100
00000100
00010000
00001000
,
00001000
02000000
00000000
00000000
00100000
00000000
03100000
00000000
,
10000000
01000000
01000000
00100000
00010000
00010000
00001000
00000100
,
00000100
00000020
00000000
00000000
00000100
00000000
00000130
00000000
,
00000001
00000100
00000100
00000010
00001000
00001000
00010000
01000000
,
01000000
00200000
00000000
00000000
10000000
00000000
10300000
00000000
,
20020000
00000000
00000000
00000000
,
00000000
00000000
00000000
30030000
,
00010000
00000000
00000000
00010000
10000000
00000000
00000000
10000000
01000000
00000000
00000000
01000000
00010000
00000000
00000000
00010000
,
00001000
00000000
00000000
00001000
00000100
00000000
00000000
00000100
00000001
00000000
00000000
00000001
00000010
00000000
00000000
00000010
,
00000100
00000000
00000000
00000100
00001000
00000000
00000000
00001000
00000010
00000000
00000000
00000010
00010000
00000000
00000000
00010000
,
00001000
00000000
00000000
00001000
00000100
00000000
00000000
00000100
00000001
00000000
00000000
00000001
00001000
00000000
00000000
00001000
,
00000100
00000000
00000000
00000100
00000010
00000000
00000000
00000010
00001000
00000000
00000000
00001000
00010000
00000000
00000000
00010000
,
00100000
00000000
00000000
00100000
10000000
00000000
00000000
10000000
00010000
00000000
00000000
00010000
10000000
00000000
00000000
00000000
,
11000000
11000000
00010000
01000000
01010000
01010000
00001000
00010000
,
00011000
00011000
00000100
00001000
00001100
00001100
00000000
00000000
,
00001000
00000000
00000000
00001000
00000001
00000000
00000000
00000001
00000100
00000000
00000000
00000100
00001000
00000000
00000000
00001000
,
00010000
00000000
00000000
00010000
01000000
00000000
00000000
01000000
10000000
00000000
00000000
10000000
00100000
00000000
00000000
00100000
,
01000000
00000000
00000000
01000000
00010000
00000000
00000000
00010000
00100000
00000000
00000000
00100000
00001000
00000000
00000000
00001000
,
00010000
00000000
00000000
00010000
01000000
00000000
00000000
01000000
10000000
00000000
00000000
10000000
00010000
00000000
00000000
00010000
,
01000000
00000000
00000000
01000000
00100000
00000000
00000000
00100000
00010000
00000000
00000000
00010000
00001000
00000000
00000000
00001000
,
00000010
00000000
00000000
00000010
00000001
00000000
00000000
00000001
00001000
00000000
00000000
00001000
00000001
00000000
00000000
00000000
,
00000101
00000101
00001000
00000100
00001100
00001100
00010000
00001000
,
00011000
00011000
01000000
00010000
01010000
01010000
00100000
10000000
,
10100000
00000000
00000000
00000000
,
11000000
01010000
00000000
00000000
,
00000000
00000000
00000000
00000000
;
