#TITLE:PRANA;
#ARTIST:TAG;
#BANNER:PRANA.png;
#BACKGROUND:PRANA-bg.png;
#CDTITLE:./CDTitles/jubeat saucer.png;
#MUSIC:PRANA.ogg;
#SAMPLESTART:11.489;
#SAMPLELENGTH:15;
#BPMS:0=188;
#STOPS:228=0.319;
#STAGE:3;

//---------------dance-single - ----------------
#NOTES:
     dance-single:
     :
     Beginner:
     4:
     :
0000
0000
0000
0000
,
0000
0000
0000
0000
,
0000
0000
0000
0000
,
0000
0000
0000
0000
,
0000
0000
0000
0000
,
1000
0000
0010
0000
,
0001
0000
0100
0000
,
1000
0000
0001
0000
,
1001
0000
0000
0000
,
0010
0000
1000
0000
,
0100
0000
0010
0010
,
0010
0000
0001
0000
,
0100
0000
0010
0010
,
0010
0000
1000
0000
,
0001
0000
0010
0010
,
0010
0000
0001
0000
,
1000
0000
0001
0000
,
1001
0000
0100
0000
,
0010
0010
0010
0000
,
1000
0000
0100
0000
,
0010
0010
0010
0000
,
0001
0000
0100
0000
,
1000
1000
1000
0000
,
0001
0000
0010
0000
,
0100
0000
1000
0000
,
0001
0000
0001
0001
,
0010
0000
0010
0010
,
1000
0000
1000
1000
,
0100
0000
0100
0100
,
0001
0000
0001
0001
,
0010
0000
0010
0010
,
0100
0000
0100
0100
,
1000
0000
1000
1000
,
0001
0000
0001
0000
,
1000
0000
1000
0000
,
0010
0000
0010
0000
,
0100
0000
0100
0000
,
1000
0000
0010
0000
,
0001
0000
0010
0000
,
0001
0000
0100
0000
,
1000
0000
0100
0000
,
1001
0000
0000
0000
,
0000
0000
0000
0000
,
0000
0000
0000
0000
,
0000
0000
0000
0000
,
0001
0000
0000
0000
,
1000
0000
0000
0000
,
0001
0000
0000
0000
,
1000
0000
0000
0000
,
0010
0000
0000
0000
,
1001
0000
0000
0000
,
0100
0000
0000
0000
,
1001
0000
0000
0000
,
1001
0000
0000
0000
,
1001
0000
0000
0000
,
1001
0000
1001
0000
,
0010
0010
0010
0010
,
0000
1000
0000
0001
,
0000
0010
0010
0010
,
0000
0001
0000
1000
,
0000
0100
0100
0100
,
0000
0001
0000
0010
,
0000
1000
1000
1000
,
0000
0001
0000
0010
,
0000
0100
0000
2000
,
0000
3000
0000
0020
,
0000
0030
0000
0002
,
0000
0003
0000
0200
,
0000
0300
0000
0002
,
0000
0003
0000
0020
,
0000
0030
0000
2000
,
0000
3000
0000
0002
,
0000
0003
0000
0010
,
0010
0010
0000
0001
,
0001
0001
0000
0100
,
0100
0100
0000
1000
,
1000
1000
0000
0010
,
0010
0010
0000
1000
,
1000
1000
0000
0001
,
0001
0001
0000
0100
,
0100
0100
0000
1001
,
0000
0000
0000
0000
;

//---------------dance-single - ----------------
#NOTES:
     dance-single:
     :
     Easy:
     8:
     :
0000
0000
0000
0000
,
0000
0000
0000
0000
,
0000
0000
0000
0000
,
0000
0000
0000
0000
,
0000
0000
0000
0000
,
1000
0010
0001
0100
,
1000
0100
0001
0010
,
0002
0000
2000
3003
,
0010
0100
1001
0000
,
0100
1000
0010
1000
,
0001
0100
0010
0010
,
0001
1000
0100
0010
,
0001
0010
0100
0100
,
0010
1000
0100
0001
,
0010
1000
0001
0001
,
1000
0100
0010
0001
,
1000
0010
0100
0000
,
0100
0001
0010
0001
,
1000
0100
0010
0010
,
1000
0001
0100
0010
,
1000
0010
0100
0100
,
0010
0001
0100
1000
,
0010
0001
1000
1000
,
0001
0100
0010
1000
,
0100
0010
0001
0000
,
2000
0100
0001
3100
,
0010
0001
0100
0010
,
0002
0100
1000
0103
,
0010
1000
0100
0010
,
0002
0010
2003
0010
,
3002
0010
2003
0010
,
3001
0100
1000
0010
,
0001
0010
0100
1000
,
0010
0000
0000
1000
0000
0000
1100
0000
,
0010
0000
0000
0001
0000
0000
0101
0000
,
0010
0000
0000
0100
0000
0000
0110
0000
,
0001
0010
0100
1000
,
0001
0000
0000
0010
0000
0000
1100
0000
,
1000
0000
0000
0010
0000
0000
0101
0000
,
0010
0000
0000
0100
0000
0000
1001
0000
,
0010
1000
0100
0001
,
2002
0000
0000
0000
,
0000
0000
0000
0000
,
0000
0000
0000
0000
,
0000
0000
0000
3003
,
0001
0100
0000
0100
,
1000
0100
0000
0100
,
0010
0100
0000
0100
,
1000
0001
0010
0100
,
0011
0000
0000
0100
0000
0100
0000
0100
,
0010
0000
0000
0000
,
1010
0000
0000
0100
0000
0100
0000
0100
,
0010
0000
0000
0000
,
1001
0000
0000
0100
0000
0100
0000
0100
,
0010
0000
0000
0100
0000
0100
0000
0100
,
0010
0000
0100
0000
0010
0000
0100
1000
,
0000
0010
0000
0100
0000
0001
0000
0010
,
0100
0010
1000
0001
,
0100
0010
0010
0001
,
1000
0100
0010
0001
,
0100
0010
0010
0100
,
1000
0100
0001
0010
,
0001
1000
1000
0100
,
0010
0001
0100
0010
,
1000
0100
0000
0001
,
0000
0100
0000
0000
0001
0000
0020
0000
,
0000
0001
0031
1000
,
0000
0100
0000
0000
0010
0000
0002
0000
,
0000
0100
0103
0010
,
0000
1000
0000
0000
0001
0000
2000
0000
,
0000
0010
3010
0100
,
0000
0001
0000
0000
0010
0000
0200
0000
,
0000
0000
0000
0000
0010
0000
0000
0000
0310
0000
0000
0000
0001
0000
0000
0001
,
0000
0000
0001
0000
0000
0001
0000
0000
0001
0000
0000
0000
0010
0000
0000
0010
,
0000
0000
0010
0000
0000
0010
0000
0000
0010
0000
0000
0000
1000
0000
0000
1000
,
0000
0000
1000
0000
0000
1000
0000
0000
1000
0000
0000
0000
0100
0000
0000
0100
,
0000
0000
0100
0000
0000
0100
0000
0000
0100
0000
0000
0000
0001
0000
0000
0100
,
0000
0000
0001
0000
0000
0100
0000
0000
0001
0000
0000
0000
1000
0000
0000
0100
,
0000
0000
1000
0000
0000
0100
0000
0000
1000
0000
0000
0000
0001
0000
0000
0010
,
0000
0000
0001
0000
0000
0010
0000
0000
0001
0000
0000
0000
0010
0000
0000
0100
,
0000
0000
0010
0000
0000
0100
0000
0000
0010
0000
0000
0000
1001
0000
0000
0000
,
0000
0000
0000
0000
;

//---------------dance-single - ----------------
#NOTES:
     dance-single:
     :
     Medium:
     11:
     :
0000
0000
0000
0000
,
0000
0000
0000
0000
,
0000
0000
0000
0000
,
0000
0000
0000
0000
,
0000
0000
0000
0000
,
0001
0100
0010
0000
1000
0100
0010
0000
,
0001
1000
0010
0000
0100
0001
1000
0000
,
0200
0320
0032
1003
,
0110
0000
0000
0000
0010
0000
1000
0000
0100
0000
0000
0100
0000
0000
0100
0000
,
0010
0000
0001
0100
0000
0100
0010
0100
,
0000
0010
1000
0000
1010
0000
0101
0000
,
1100
0000
0001
0100
0000
0100
1000
0100
,
0000
0001
1000
0000
0110
0000
1001
0000
,
0110
0000
1000
0001
0000
0010
0001
1000
,
0000
0010
0100
0000
0101
0000
1100
0000
,
0011
0000
0001
0010
0000
0001
0100
0010
,
0000
1000
0010
1000
0001
0100
0010
0000
,
0010
0000
1000
0100
0000
0100
0010
0100
,
0000
0010
0001
0000
0011
0000
1100
0000
,
0101
0000
1000
0100
0000
0100
0001
0100
,
0000
1000
0001
0000
0110
0000
1001
0000
,
0110
0000
0001
1000
0000
0010
1000
0001
,
0000
0010
0100
0000
1100
0000
0101
0000
,
1010
0000
1000
0010
0000
1000
0100
0010
,
0000
0001
0010
0001
1000
0100
0010
0000
,
0001
0000
0010
0000
1000
0010
0100
0000
,
0010
0000
1000
0001
0000
1000
0100
0000
,
0001
0000
0010
0000
0100
1000
0010
0000
,
0100
0000
0010
1000
0000
0010
0100
0001
,
0100
0000
0001
0000
1000
0100
0001
0000
,
0100
0000
1000
0100
0000
0010
0001
0000
,
1000
0010
0000
0100
0010
0000
0001
0010
,
0000
0100
0010
0000
1000
0010
1000
0100
,
0010
0000
0000
0001
0000
0000
1000
0000
0000
0001
0000
0000
0100
0000
0000
0000
,
0010
0000
0000
1000
0000
0000
0001
0000
0000
1000
0000
0000
0100
0000
0000
0000
,
0010
0000
0000
0001
0000
0000
0010
0000
0000
0100
0000
0000
0010
0000
0000
0000
,
1000
0000
0000
0001
0000
0000
0100
0000
0000
0010
0000
0000
1000
0000
0000
0000
,
0010
0000
0000
1000
0000
0000
0100
0000
0000
1000
0000
0000
0010
0000
0000
0000
,
0100
0000
0000
0001
0000
0000
0010
0000
0000
0001
0000
0000
0100
0000
0000
0000
,
1000
0000
0000
0100
0000
0000
0001
0000
0000
0100
0000
0000
1000
0000
0000
0000
,
0001
0000
0000
0010
0000
0000
1000
0000
0000
0010
0000
0000
0001
0000
0000
0000
,
2002
0000
0000
0000
,
0000
0000
0000
0000
,
0000
0000
0000
0000
,
0000
0000
0000
3003
,
0010
0001
0000
0001
,
0010
1000
0000
1000
,
0010
0100
0000
0100
,
0010
0000
1000
0100
0010
0000
0100
0000
,
0011
0000
1000
0100
0000
0100
1000
0100
,
0001
0000
0000
0000
,
1010
0000
0001
0100
0000
0100
0001
0100
,
1000
0000
0000
0000
,
1001
0000
0000
0010
0000
0100
0000
0010
,
1001
0000
0000
0100
0000
0010
0000
0100
,
1001
0000
0010
0000
1001
0000
0100
0001
,
0000
0010
0000
1000
0000
1100
0000
0101
,
0010
0100
0000
0100
0010
0100
0000
0010
,
1000
1010
0101
1100
,
0001
0100
0000
0100
1000
0100
0000
0001
,
1000
0110
1001
0110
,
1000
0001
0000
0010
0001
1000
0000
0010
,
0100
0101
1100
0011
,
0001
0010
0000
0001
0100
0010
0000
1000
,
0010
0000
1000
0000
0001
0000
0100
0000
0010
0000
0000
0000
1000
0000
0000
1000
,
0000
0000
0010
0000
0000
0010
0000
0000
0100
0000
0001
0000
2000
0000
0000
0000
,
0000
0000
3100
0000
1000
0000
0000
0100
0000
0000
1000
0000
0001
0000
0000
0001
,
0000
0000
0010
0000
0000
0010
0000
0000
0100
0000
1000
0000
0020
0000
0000
0000
,
0000
0000
0130
0000
0010
0000
0000
0010
0000
0000
0001
0000
1000
0000
0000
1000
,
0000
0000
0100
0000
0000
0100
0000
0000
0010
0000
0001
0000
0200
0000
0000
0000
,
0000
0000
0301
0000
1000
0000
0000
0010
0000
0000
1000
0000
0010
0000
0000
0010
,
0000
0000
0100
0000
0000
0100
0000
0000
0010
0000
1000
0000
0002
0000
0000
0000
,
0000
0000
1003
0000
0100
0000
0000
0010
0000
0000
0001
0000
0010
0000
0000
0010
,
0000
0000
0100
0000
0000
0100
0000
0000
0001
0000
1000
0000
0010
0000
0000
0010
,
0000
0000
0100
0000
0000
0100
0000
0000
0010
0000
1000
0000
0100
0000
0000
0100
,
0000
0000
0010
0000
0000
0010
0000
0000
0001
0000
1000
0000
0010
0000
0000
0010
,
0000
0000
0100
0000
0000
0100
0000
0000
0010
0000
1000
0000
0001
0000
0000
0001
,
0000
0000
0100
0000
0000
0100
0000
0000
0010
0000
0100
0000
0001
0000
0000
0001
,
0000
0000
0010
0000
0000
0010
0000
0000
0100
0000
1000
0000
0010
0000
0000
0010
,
0000
0000
0100
0000
0000
0100
0000
0000
0010
0000
0100
0000
0001
0000
0000
0001
,
0000
0000
1000
0000
0000
1000
0000
0000
0001
0000
0010
0000
0100
0000
0000
0000
,
0000
0000
0000
0000
;

//---------------dance-single - ----------------
#NOTES:
     dance-single:
     :
     Hard:
     14:
     :
0000
0000
0000
0000
,
0000
0000
0000
0000
,
0000
0000
0000
0000
,
0000
0000
0000
0000
,
0000
0000
0000
0000
,
1000
0100
0010
0001
0100
0010
1000
0100
,
0010
0001
0010
0100
1000
0001
0100
0010
,
2000
3200
0320
0031
,
1001
0000
0000
0000
0010
0000
0100
0010
0100
0000
0000
0100
0000
0000
0100
0000
,
1010
0000
0001
0100
0010
0100
1000
0100
,
0010
1000
0100
0010
0011
0000
1100
0000
,
0101
0000
1000
0100
0010
0100
0001
0100
,
0010
0001
0100
0010
0110
0000
1001
0000
,
0110
0000
0001
1000
0010
1000
0001
1000
,
0100
0010
0001
1000
1100
0000
0101
0000
,
1010
0000
1000
0010
0100
0010
0100
0010
,
0001
0010
0001
0010
1000
0100
0010
0001
,
1100
0000
0001
0010
0100
0010
1000
0010
,
0100
1000
0010
0100
0101
0000
1010
0000
,
0011
0000
1000
0010
0100
0010
0001
0010
,
0100
0001
0010
0100
0110
0000
1001
0000
,
0110
0000
0001
1000
0100
1000
0001
1000
,
0010
0100
0001
1000
1010
0000
0011
0000
,
1100
0000
1000
0100
0010
0100
0010
0100
,
0001
0100
0001
0100
1000
0010
0100
0000
,
0010
0001
0100
0010
1000
0100
0010
0001
,
0100
0010
1000
0100
1000
0010
0100
0001
,
1000
0010
0001
1000
0100
0001
1000
0010
,
0001
1000
0100
0001
1000
0001
0010
0100
,
1000
0100
0010
0001
0100
0010
1000
0100
,
0010
0001
0100
0010
1000
0100
0010
0001
,
0001
0010
0100
0100
0010
1000
1000
0010
,
0100
0100
0010
0001
0001
0010
0001
0100
,
0010
0000
0000
1000
0000
0000
0001
0000
0000
1000
0000
0000
0100
0000
0001
0000
,
0100
0000
0000
1000
0000
0000
0001
0000
0000
0010
0000
0000
1000
0000
0001
0000
,
0100
0000
0000
1000
0000
0000
0010
0000
0000
0100
0000
0000
0001
0000
0010
0000
,
0001
0000
0000
0100
0000
0000
0010
0000
0000
1000
0000
0000
0010
0000
0100
0000
,
0010
0000
0000
0001
0000
0000
1000
0000
0000
0001
0000
0000
0100
0000
1000
0000
,
0100
0000
0000
0001
0000
0000
1000
0000
0000
0010
0000
0000
0001
0000
1000
0000
,
0100
0000
0000
0001
0000
0000
0010
0000
0000
0100
0000
0000
1000
0000
0010
0000
,
1000
0000
0000
0100
0000
0000
0010
0000
0000
0001
0000
0000
0010
0000
0100
0000
,
2002
0000
0000
0000
,
0000
0000
0000
0000
,
0000
0000
0000
0000
,
0000
0000
0000
3003
,
0010
1000
0000
1000
,
0010
0001
0000
0001
,
0010
0100
0000
0100
,
0010
0000
0000
0000
1001
0000
0010
1000
0001
0000
0000
0000
0100
0000
0000
0000
,
1010
0000
0001
0100
0000
0100
0001
0100
,
1000
0000
1000
0000
0100
0000
0010
0100
0010
0000
0100
0000
0010
0000
0000
0000
,
0011
0000
1000
0100
0000
0100
1000
0100
,
0001
0000
0001
0000
0100
0000
0010
0000
1000
0001
0100
0001
1000
0000
0000
0000
,
1001
0000
0010
0100
0000
0100
0010
0100
,
1001
0000
0010
0100
0000
0100
0010
0100
,
1001
0000
0110
0000
1001
0000
0110
1000
,
0000
0010
0000
0001
0000
0101
0000
1100
,
0010
0100
0010
0100
1000
0100
0010
1000
,
0100
0010
0011
0000
1100
0000
0101
0000
,
1000
0100
0010
0100
0001
0100
0010
0001
,
0100
0010
0110
0000
1001
0000
0110
0000
,
0001
1000
0010
1000
0001
1000
0100
0010
,
0001
1000
1100
0000
0101
0000
1010
0000
,
1000
0010
0100
0010
0100
0010
0001
0010
,
0001
0000
0010
0000
1000
0000
0100
0000
0010
0000
0000
0000
0001
0000
0000
0001
,
0000
0000
0010
0000
0000
0010
0000
0000
0100
0000
1000
0000
0001
0000
0000
0001
,
0000
0000
0100
0000
0001
0010
0000
0100
0010
0000
0001
0000
1000
0000
0000
1000
,
0000
0000
0010
0000
0000
0010
0000
0000
0100
0000
0001
0000
0010
0000
0000
0010
,
0000
0000
0100
0000
0010
0001
0000
0010
0100
0000
1000
0000
0001
0000
0000
0001
,
0000
0000
0100
0000
0000
0100
0000
0000
0010
0000
1000
0000
0100
0000
0000
0100
,
0000
0000
1000
0000
0001
0100
0000
0010
1000
0000
0001
0000
0010
0000
0000
0010
,
0000
0000
0100
0000
0000
0100
0000
0000
0001
0000
0100
0000
1000
0000
0000
1000
,
0000
0000
0001
0000
0100
0010
0000
1000
0001
0000
1000
0000
0010
0000
0000
1010
,
0000
0000
0100
0000
0000
0110
0000
0000
1000
0000
0001
0100
0010
0000
0000
1010
,
0000
0000
1000
0000
0000
1001
0000
0000
0001
0010
0100
1000
0001
0000
0000
0101
,
0000
0000
0100
0000
0000
1100
0000
0000
1000
0000
0010
0100
0001
0000
0000
1100
,
0000
0000
0100
0000
0000
0011
0000
0000
0100
0010
0001
1000
0010
0000
0000
0110
,
0000
0000
0001
0000
0000
0101
0000
0000
0001
0000
1000
0010
0100
0000
0000
0110
,
0000
0000
0001
0000
0000
1001
0000
0000
1000
0100
0010
0001
1000
0000
0000
1010
,
0000
0000
0100
0000
0000
0101
0000
0000
1000
0000
0100
0010
0001
0000
0000
1001
,
0000
0000
0100
0000
0000
1010
0000
0000
0001
1000
0010
0100
0001
0000
0000
0000
,
0000
0000
0000
0000
;

//---------------dance-single - ----------------
#NOTES:
     dance-single:
     :
     Challenge:
     16:
     :
0000
0000
0000
0000
,
0000
0000
0000
0000
,
0000
0000
0000
0000
,
0000
0000
0000
0000
,
0000
0000
0000
0000
,
0001
0010
1000
0100
,
0001
0010
1000
0100
,
0001
1000
0100
0010
0001
0100
0010
1000
0100
0010
0001
0100
0010
1000
0100
0010
,
0001
0000
0000
0000
0100
0000
0010
1000
0001
0000
0000
0001
0000
0000
0001
0000
,
0101
0000
0000
0000
1000
0000
0010
0100
0010
0000
1000
0001
0010
0000
0100
1000
,
0001
0000
0010
0001
0100
0000
0000
0000
1000
0000
0100
0000
0011
0000
0000
0000
,
1010
0000
0000
0000
0100
0000
0010
0100
0001
0000
0010
0100
1000
0000
0010
0100
,
0001
0000
0010
0001
1000
0000
0000
0000
0010
0000
0100
0000
1001
0000
0000
0000
,
0110
0000
0000
0000
1000
0000
0001
1000
0100
0000
1000
0001
0100
0000
0001
0010
,
0100
0000
1000
0001
0100
0000
0000
0000
0001
0000
0010
0000
0110
0000
0000
0000
,
1100
0000
0000
0000
0001
0000
0010
1000
0100
0000
0010
0001
0100
0000
0010
1000
,
0100
0000
0010
0001
1000
0000
0100
0010
0001
0000
0001
0000
0001
0000
0001
0000
,
2100
0000
0000
0000
3001
0000
0010
0100
0010
0000
0001
1000
0010
0000
0100
0001
,
1000
0000
0010
1000
0100
0000
0000
0000
0001
0000
0100
0000
1010
0000
0000
0000
,
0021
0000
0000
0000
0130
0000
0010
0100
1000
0000
0010
0100
0001
0000
0010
0100
,
1000
0000
0010
1000
0001
0000
0000
0000
0010
0000
0100
0000
1001
0000
0000
0000
,
0210
0000
0000
0000
0301
0000
1000
0001
0100
0000
0001
1000
0100
0000
1000
0010
,
0100
0000
0001
1000
0100
0000
0000
0000
1000
0000
0010
0000
0110
0000
0000
0000
,
0101
0000
0000
0000
1000
0000
0010
0001
0100
0000
0010
1000
0100
0000
0010
0001
,
0100
0000
0010
1000
0001
0000
0100
0010
1000
0000
1000
0000
1000
0000
1000
0000
,
0100
1000
0010
0100
0001
0010
0100
1000
,
0010
0100
0001
0010
0001
0100
0010
1000
,
0001
0100
1000
0001
0010
1000
0001
0100
,
1000
0001
0010
1000
0001
1000
0100
0010
,
0001
0010
0010
0100
0010
0010
1000
0010
,
0010
0100
0010
0010
0001
0010
0010
0100
,
1000
1000
1000
0010
0010
0010
0001
0001
,
0001
0100
0100
0100
1000
0010
0100
0001
,
1000
0000
0100
0010
0000
0100
0001
0000
0100
1000
0000
0010
0100
0000
0010
0000
,
1000
0000
0001
0010
0000
0001
1000
0000
0001
0100
0000
0001
1000
0010
0100
0001
,
0010
0000
0100
1000
0000
0100
0010
0000
0100
0001
0000
0100
0010
0000
0100
0000
,
1000
0001
0000
0100
0010
0000
1000
0001
0000
0100
0010
0000
1000
0100
0010
0001
,
1000
0000
0010
0100
0000
0010
1000
0000
0001
1000
0000
0100
1000
0000
0001
0000
,
0100
0000
0010
0100
0000
0001
0100
0000
1000
0100
0000
0010
1000
0100
0010
0001
,
0010
0000
0001
1000
0000
0010
0100
0000
0001
1000
0000
0100
0010
0000
0001
0000
,
0010
0100
0000
0100
1000
0000
1000
0001
0000
0001
0100
0000
0010
1000
0010
0100
,
0002
0000
0000
0000
,
0000
0000
0000
0000
,
0000
0000
0000
0000
,
0000
0000
0000
0003
,
1000
0100
0000
0100
,
0001
0100
0000
0100
,
1000
0100
0000
0100
,
0010
0000
0000
0000
1001
0000
0100
0001
1000
0001
0100
0000
0010
0000
0000
0000
,
0101
0000
1000
0010
0000
0010
1000
0010
,
0001
0000
0001
0000
0010
0000
0001
0100
0010
0000
1000
0000
0001
0000
0000
0000
,
1100
0000
0001
0010
0000
0010
0001
0010
,
1000
0000
1000
0000
0010
0000
0100
0000
0001
0010
0100
1000
0010
0000
0000
0000
,
1001
0000
0000
0110
0000
0110
0000
0110
,
1001
0000
0000
0110
0000
0110
0000
0110
,
1001
0000
0110
0000
1001
0000
0110
0101
,
0000
1100
0000
1010
0000
0011
0000
0110
,
2002
3003
0000
0000
0000
0000
0000
0000
0100
0000
0000
0000
0010
0000
0000
0000
0100
0000
0000
0000
0000
0000
0000
0000
1000
0000
0000
0000
0001
0000
0000
0000
0100
0000
0000
0000
0000
0000
0000
0000
0010
0000
0000
0000
1000
0000
0000
0000
0001
0000
0000
0000
0000
0000
0000
0000
0100
0000
0000
0000
0001
0000
0000
0000
,
0010
0000
1000
0010
0101
0000
2200
3000
,
0310
0000
0100
0010
0001
0000
0100
0010
1000
0000
0100
0010
0001
0000
0100
0001
,
1000
0000
0000
0000
0001
0100
1000
0100
0001
0000
0000
0000
0220
0000
0030
0000
,
1300
0000
0001
1000
0010
0000
1000
0001
0010
0000
0001
0100
0010
0000
1000
0001
,
0010
0000
0001
0100
0110
0000
1010
0000
,
0001
0000
0100
1000
0010
0000
0100
0001
0010
0000
0100
1000
0010
0000
0100
0001
,
1000
0000
0010
0100
0001
0010
0100
1000
0010
0100
0001
0010
0100
0000
0000
0100
,
0000
0000
1000
0000
0000
1000
0000
0000
0010
0000
0001
0000
1000
0000
0000
1000
,
0000
0000
0010
0000
1000
0100
0000
0010
0100
0000
1000
0000
0001
0000
0000
0001
,
0000
0000
0100
0000
0000
0100
0000
0000
0010
0000
1000
0000
0100
0000
0000
0100
,
0000
0000
0010
0000
0100
1000
0000
0100
0010
0000
0001
0000
1000
0000
0000
1000
,
0000
0000
0010
0000
0000
0010
0000
0000
0100
0000
0001
0000
0010
0000
0000
0010
,
0000
0000
0001
0000
1000
0010
0000
0100
0001
0000
1000
0000
0100
0000
0000
0100
,
0000
0000
0010
0000
0000
0010
0000
0000
1000
0000
0010
0000
0001
0000
0000
0001
,
0000
0000
1000
0000
0010
0100
0000
0001
1000
0000
0001
0000
0101
0000
0000
1100
,
0000
0000
1010
0000
0000
0011
0000
0000
1001
0000
1000
0010
0100
0000
0000
0101
,
0000
0000
0011
0000
0000
0110
0000
0000
1000
0100
0010
0001
1000
0000
0000
1010
,
0000
0000
0011
0000
0000
0101
0000
0000
1100
0000
0001
0010
0100
0000
0000
1100
,
0000
0000
1010
0000
0000
0101
0000
0000
0010
0100
1000
0001
0100
0000
0000
0110
,
0000
0000
1001
0000
0000
0110
0000
0000
1100
0000
0001
0100
0010
0000
0000
1010
,
0000
0000
1100
0000
0000
0101
0000
0000
0001
0010
0100
1000
0001
0000
0000
0101
,
0000
0000
0110
0000
0000
1100
0000
0000
1001
0000
0100
0010
1000
0000
0000
1010
,
0000
0000
1001
0000
0000
0101
0000
0000
0001
0010
0100
1000
0001
0000
0000
0000
,
0000
0000
0000
0000
;

//---------------dance-double - ----------------
#NOTES:
     dance-double:
     :
     Easy:
     8:
     :
00000000
00000000
00000000
00000000
,
00000000
00000000
00000000
00000000
,
00000000
00000000
00000000
00000000
,
00000000
00000000
00000000
00000000
,
00000000
00000000
00000000
00000000
,
00000001
00000010
00001000
00000100
,
00000001
00000100
00001000
00010000
,
00200000
00000000
02000000
03300000
,
00010000
10000000
01100000
00000000
,
00010000
00100000
01000000
10000000
,
00100000
10000000
01000000
01000000
,
00010000
00001000
00000010
00000001
,
00001000
00000010
00000100
00000100
,
00000010
00001000
00000100
00000001
,
00000010
00000001
00001000
00001000
,
00000001
00000100
00000010
00001000
,
00010000
01000000
00100000
00000000
,
10000000
00100000
01000000
00010000
,
10000000
01000000
00100000
00100000
,
00001000
00010000
00001000
00000100
,
00000010
00001000
00000100
00000100
,
00000010
00001000
00000100
00000001
,
00000010
00001000
00010000
00010000
,
00001000
00010000
01000000
10000000
,
00010000
10000000
00010000
00000000
,
10000000
00100000
10000000
00100000
,
01000000
00001000
00010000
00000100
,
00001000
00000100
00001000
00000100
,
00000010
00000001
00000100
00000010
,
00001000
00000010
00000001
00000010
,
00001000
00010000
01000000
00100000
,
10000000
01000000
00010000
00100000
,
10000000
01000000
00010000
10000000
,
00100000
00000000
00000000
10000000
00000000
00000000
01000000
00000000
,
00100000
00000000
00000000
00010000
00000000
00000000
01000000
00000000
,
00001000
00000000
00000000
00010000
00000000
00000000
00001000
00000000
,
00010000
00000000
00000000
00000010
00000000
00000000
00000100
00000000
,
00000010
00000000
00000000
00001000
00000000
00000000
00000001
00000000
,
00000010
00000000
00000000
00000001
00000000
00000000
00001000
00000000
,
00000001
00000000
00000000
00000100
00000000
00000000
00001000
00000000
,
00010000
00010000
00001000
00010000
,
00022000
00000000
00000000
00000000
,
00000000
00000000
00000000
00000000
,
00000000
00000000
00000000
00000000
,
00000000
00000000
00000000
00033000
,
00100000
00010000
00000000
00010000
,
00100000
10000000
00000000
10000000
,
00100000
01000000
00000000
01000000
,
00100000
10000000
01000000
00010000
,
00011000
00000000
00000000
00000100
00000000
00000100
00000000
00000100
,
00000010
00000000
00000000
00000000
,
00011000
00000000
00000000
01000000
00000000
01000000
00000000
01000000
,
00100000
00000000
00000000
00000000
,
00011000
00000000
00000000
00000100
00000000
00000100
00000000
00000100
,
00000010
00000000
00000000
00000100
00000000
00000100
00000000
00000100
,
00000010
00000000
00001000
00000000
00000010
00000000
00000001
00000100
,
00000000
00001000
00000000
00010000
00000000
01000000
00000000
00100000
,
01000000
00100000
10000000
01000000
,
10000000
00100000
00100000
00010000
,
00001000
00000100
00000001
00001000
,
00000100
00000010
00000010
00000100
,
00001000
00000010
00000001
00000100
,
00000001
00001000
00001000
00000001
,
00000010
00000100
00001000
00010000
,
00100000
01000000
00000000
00100000
,
00000000
00010000
00000000
00000000
10000000
00000000
00020000
00000000
,
00000000
10000000
10030000
01000000
,
00000000
00010000
00000000
00000000
00001000
00000000
00020000
00000000
,
00000000
00001000
00031000
00000010
,
00000000
00000001
00000000
00000000
00001000
00000000
00000002
00000000
,
00000000
00000100
00000103
00000010
,
00000000
00001000
00000000
00000000
00000100
00000000
00000020
00000000
,
00000000
00000000
00000000
00000000
00000100
00000000
00000000
00000000
00000130
00000000
00000000
00000000
00000001
00000000
00000000
00000100
,
00000000
00000000
00000001
00000000
00000000
00000100
00000000
00000000
00000001
00000000
00000000
00000000
00001000
00000000
00000000
00000100
,
00000000
00000000
00001000
00000000
00000000
00000100
00000000
00000000
00001000
00000000
00000000
00000000
00000010
00000000
00000000
00000100
,
00000000
00000000
00000010
00000000
00000000
00000100
00000000
00000000
00000010
00000000
00000000
00000000
00010000
00000000
00000000
00001000
,
00000000
00000000
00010000
00000000
00000000
00001000
00000000
00000000
00010000
00000000
00000000
00000000
00001000
00000000
00000000
00100000
,
00000000
00000000
00001000
00000000
00000000
00100000
00000000
00000000
00001000
00000000
00000000
00000000
00100000
00000000
00000000
01000000
,
00000000
00000000
00100000
00000000
00000000
01000000
00000000
00000000
00100000
00000000
00000000
00000000
00010000
00000000
00000000
10000000
,
00000000
00000000
00010000
00000000
00000000
10000000
00000000
00000000
00010000
00000000
00000000
00000000
01000000
00000000
00000000
00100000
,
00000000
00000000
01000000
00000000
00000000
00100000
00000000
00000000
01000000
00000000
00000000
00000000
10010000
00000000
00000000
00000000
,
00000000
00000000
00000000
00000000
;

//---------------dance-double - ----------------
#NOTES:
     dance-double:
     :
     Medium:
     11:
     :
00000000
00000000
00000000
00000000
,
00000000
00000000
00000000
00000000
,
00000000
00000000
00000000
00000000
,
00000000
00000000
00000000
00000000
,
00000000
00000000
00000000
00000000
,
00100000
10000000
01000000
00000000
00100000
00010000
01000000
00000000
,
00001000
00010000
00000010
00000000
00001000
00000100
00000010
00000000
,
00000002
00000203
00000320
00000130
,
00001001
00000000
00000000
00000000
00000100
00000000
00010000
00000000
00001000
00000000
00000000
00001000
00000000
00000000
00001000
00000000
,
00010000
00000000
01000000
00100000
00000000
00010000
01000000
00100000
,
00000000
10000000
01000000
00000000
01010000
00000000
00011000
00000000
,
00001100
00000000
00000010
00000001
00000000
00000100
00000010
00001000
,
00000000
00000010
00000100
00000000
00001010
00000000
00011000
00000000
,
00110000
00000000
00010000
10000000
00000000
01000000
10000000
00100000
,
00000000
01000000
00100000
00000000
01010000
00000000
00011000
00000000
,
00001010
00000000
00000001
00001000
00000000
00000100
00000010
00000001
,
00000000
00000100
00000010
00001000
00000100
00010000
00001000
00000000
,
01000000
00000000
00100000
10000000
00000000
01000000
00100000
00010000
,
00000000
01000000
00100000
00000000
10010000
00000000
01100000
00000000
,
10100000
00000000
00010000
00100000
00000000
10000000
01000000
00010000
,
00000000
00001000
00010000
00000000
00001010
00000000
00000101
00000000
,
00001100
00000000
00000010
00000100
00000000
00000001
00000100
00001000
,
00000000
00010000
00001000
00000000
00110000
00000000
10100000
00000000
,
01010000
00000000
00010000
01000000
00000000
00100000
01000000
00100000
,
00000000
10000000
01000000
00100000
00001000
00010000
00001000
00000000
,
00000010
00000000
00000001
00000000
00001000
00000100
00000010
00000000
,
00000001
00000000
00000100
00000010
00000000
00001000
00000001
00000000
,
00000100
00000000
00001000
00000000
00010000
00001000
01000000
00000000
,
00100000
00000000
01000000
00010000
00000000
10000000
01000000
00100000
,
00010000
00000000
00100000
00000000
10000000
00100000
00010000
00000000
,
01000000
00000000
00001000
00010000
00000000
01000000
10000000
00000000
,
00010000
01000000
00000000
00100000
00010000
00000000
00001000
00000100
,
00000000
00000001
00001000
00000000
00000100
00000010
00000001
00000100
,
00000010
00000000
00000000
00001000
00000000
00000000
00000001
00000000
00000000
00001000
00000000
00000000
00000100
00000000
00000000
00000000
,
00000010
00000000
00000000
00001000
00000000
00000000
00010000
00000000
00000000
01000000
00000000
00000000
00100000
00000000
00000000
00000000
,
00010000
00000000
00000000
01000000
00000000
00000000
00100000
00000000
00000000
10000000
00000000
00000000
01000000
00000000
00000000
00000000
,
00010000
00000000
00000000
00001000
00000000
00000000
00000100
00000000
00000000
00000001
00000000
00000000
00001000
00000000
00000000
00000000
,
00000002
00000000
00000000
00000010
00000000
00000000
00001000
00000000
00000000
00000010
00000000
00000000
00000203
00000000
00000000
00000000
,
00000010
00000000
00000000
00001000
00000000
00000000
00000010
00000000
00000000
00000001
00000000
00000000
00002300
00000000
00000000
00000000
,
00010000
00000000
00000000
00100000
00000000
00000000
01000000
00000000
00000000
00010000
00000000
00000000
02003000
00000000
00000000
00000000
,
00100000
00000000
00000000
10000000
00000000
00000000
00010000
00000000
00000000
00100000
00000000
00000000
03010000
00000000
00000000
00000000
,
20020000
00000000
00000000
00000000
,
00000000
00000000
00000000
00000000
,
00000000
00000000
00000000
00000000
,
00000000
00000000
00000000
30030000
,
00100000
10000000
00000000
10000000
,
01000000
00010000
00000000
00010000
,
00001000
00000010
00000000
00000010
,
00000001
00000000
00001000
00000010
00000100
00000000
00000010
00000000
,
00001001
00000000
00000100
00000010
00000000
00010000
00001000
00100000
,
01000000
00000000
00000000
00000000
,
10010000
00000000
01000000
00100000
00000000
00001000
00010000
00000010
,
00000100
00000000
00000000
00000000
,
00001001
00000000
00000000
00000100
00000000
00001000
00000000
00010000
,
00011000
00000000
00000000
00100000
00000000
10000000
00000000
01000000
,
10010000
00000000
01000000
00000000
10010000
00000000
00100000
10000000
,
00000000
01000000
00000000
00010000
00000000
00001000
00000000
00000010
,
00000100
00000001
00000000
00001000
00000100
00000010
00000000
00000001
,
00000100
00001100
00011000
01010000
,
00100000
10000000
00000000
01000000
00100000
00010000
00000000
00100000
,
01000000
00110000
00011000
00001010
,
00001000
00000001
00000000
00000100
00000001
00000010
00000000
00000100
,
00000010
00001100
00011000
00110000
,
10000000
00010000
00000000
01000000
00100000
10000000
00000000
01000000
,
00100000
00000000
00010000
00000000
01000000
00000000
00001000
00000000
00010000
00000000
00000000
00000000
00001000
00000000
00000000
00001000
,
00000000
00000000
00000100
00000000
00000000
00000100
00000000
00000000
00000001
00000000
00001000
00000000
00000200
00000000
00000000
00000000
,
00000000
00000000
00000310
00000000
00000001
00000000
00000000
00000010
00000000
00000000
00000100
00000000
00010000
00000000
00000000
00010000
,
00000000
00000000
00001000
00000000
00000000
00001000
00000000
00000000
00100000
00000000
01000000
00000000
20000000
00000000
00000000
00000000
,
00000000
00000000
30010000
00000000
01000000
00000000
00000000
00100000
00000000
00000000
10000000
00000000
00010000
00000000
00000000
00010000
,
00000000
00000000
00100000
00000000
00000000
00100000
00000000
00000000
01000000
00000000
00010000
00000000
00002000
00000000
00000000
00000000
,
00000000
00000000
00003100
00000000
00000001
00000000
00000000
00000010
00000000
00000000
00000100
00000000
00000010
00000000
00000000
00000010
,
00000000
00000000
00000001
00000000
00000000
00000001
00000000
00000000
00000100
00000000
00000010
00000000
00002000
00000000
00000000
00000000
,
00000000
00000000
00003001
00000000
00000100
00000000
00000000
00001000
00000000
00000000
00010000
00000000
01000000
00000000
00000000
01000000
,
00000000
00000000
10000000
00000000
00000000
10000000
00000000
00000000
00010000
00000000
10000000
00000000
01000000
00000000
00000000
01000000
,
00000000
00000000
00100000
00000000
00000000
00100000
00000000
00000000
00001000
00000000
00010000
00000000
00000010
00000000
00000000
00000010
,
00000000
00000000
00000100
00000000
00000000
00000100
00000000
00000000
00000001
00000000
00000010
00000000
00000001
00000000
00000000
00000001
,
00000000
00000000
00001000
00000000
00000000
00001000
00000000
00000000
00000010
00000000
00001000
00000000
00000100
00000000
00000000
00000100
,
00000000
00000000
00010000
00000000
00000000
00010000
00000000
00000000
01000000
00000000
00100000
00000000
01000000
00000000
00000000
01000000
,
00000000
00000000
10000000
00000000
00000000
10000000
00000000
00000000
00100000
00000000
10000000
00000000
01000000
00000000
00000000
01000000
,
00000000
00000000
00100000
00000000
00000000
00100000
00000000
00000000
00010000
00000000
01000000
00000000
00001000
00000000
00000000
00001000
,
00000000
00000000
00010000
00000000
00000000
00010000
00000000
00000000
00001000
00000000
00000100
00000000
00000010
00000000
00000000
00000000
,
00000000
00000000
00000000
00000000
;

//---------------dance-double - ----------------
#NOTES:
     dance-double:
     :
     Hard:
     14:
     :
00000000
00000000
00000000
00000000
,
00000000
00000000
00000000
00000000
,
00000000
00000000
00000000
00000000
,
00000000
00000000
00000000
00000000
,
00000000
00000000
00000000
00000000
,
00000010
00000001
00000010
00000001
00001000
00000100
00001000
00000100
,
00010000
00001000
00010000
00001000
01000000
00010000
01000000
00010000
,
00200000
00320000
20030000
30100000
,
01100000
00000000
00000000
00000000
00010000
00000000
10000000
01000000
10000000
00000000
00000000
00010000
00000000
00000000
10000000
00000000
,
01100000
00000000
00010000
01000000
00100000
10000000
01000000
00100000
,
00001000
00010000
00000100
00000010
00000011
00000000
00001100
00000000
,
00000101
00000000
00000010
00001000
00000100
00000010
00000100
00001000
,
00000010
00000100
00001000
00010000
00011000
00000000
00110000
00000000
,
11000000
00000000
00010000
01000000
00100000
10000000
01000000
00100000
,
00010000
01000000
00001000
00010000
00011000
00000000
00001100
00000000
,
00000011
00000000
00000001
00000010
00000100
00000010
00000100
00000010
,
00001000
00000010
00001000
00000010
00000001
00000100
00001000
00010000
,
00110000
00000000
00001000
00010000
01000000
00100000
00001000
01000000
,
00100000
01000000
00010000
10000000
11000000
00000000
01010000
00000000
,
00011000
00000000
00000010
00010000
00000100
00000010
00000100
00001000
,
00000010
00000100
00000001
00001000
00000110
00000000
00001001
00000000
,
00000110
00000000
00000001
00000100
00001000
00000100
00000010
00010000
,
00001000
00100000
00010000
10000000
10100000
00000000
01010000
00000000
,
11000000
00000000
00010000
01000000
00100000
01000000
00100000
01000000
,
00100000
10000000
01000000
00010000
00001000
00000100
00000001
00000000
,
00000010
00001000
00000100
00000010
00000001
00000100
00000010
00001000
,
00000100
00010000
00001000
00100000
00010000
01000000
00100000
01000000
,
00010000
10000000
01000000
00100000
00010000
10000000
00100000
01000000
,
00010000
10000000
01000000
00100000
00001000
00010000
00001000
00000100
,
00000010
00010000
00000100
00000010
00000100
00001000
00000001
00000100
,
00001000
00000100
00000010
00001000
00000001
00000010
00001000
00000010
,
00000100
00010000
00000010
00000100
00001000
00010000
00100000
01000000
,
00100000
10000000
01000000
00100000
00010000
10000000
00010000
01000000
,
00100000
00000000
00000000
10000000
00000000
00000000
01000000
00000000
00000000
00010000
00000000
00000000
00000100
00000000
00000010
00000000
,
00000001
00000000
00000000
00001000
00000000
00000000
00000010
00000000
00000000
00000100
00000000
00000000
00000001
00000000
00001000
00000000
,
00000100
00000000
00000000
00000010
00000000
00000000
00000001
00000000
00000000
00000100
00000000
00000000
00001000
00000000
00010000
00000000
,
01000000
00000000
00000000
10000000
00000000
00000000
00010000
00000000
00000000
01000000
00000000
00000000
00100000
00000000
10000000
00000000
,
01000000
00000000
00000000
00010000
00000000
00000000
00001000
00000000
00000000
00100000
00000000
00000000
00001000
00000000
00010000
00000000
,
00000100
00000000
00000000
00001000
00000000
00000000
00000001
00000000
00000000
00000010
00000000
00000000
00001000
00000000
00000001
00000000
,
00000100
00000000
00000000
00001000
00000000
00000000
00000010
00000000
00000000
00000100
00000000
00000000
00001000
00000000
00010000
00000000
,
00001000
00000000
00000000
00100000
00000000
00000000
01000000
00000000
00000000
10000000
00000000
00000000
00100000
00000000
01000000
00000000
,
20020000
00000000
00000000
00000000
,
00000000
00000000
00000000
00000000
,
00000000
00000000
00000000
00000000
,
00000000
00000000
00000000
30030000
,
00100000
01000000
00000000
01000000
,
00001000
00010000
00000000
00010000
,
00000010
00000100
00000000
00000100
,
00000001
00000000
00000000
00000000
00000110
00000000
00000001
00001000
00000100
00000000
00000000
00000000
00000010
00000000
00000000
00000000
,
00001100
00000000
00000001
00000100
00000000
00001000
00010000
00100000
,
10000000
00000000
10000000
00000000
00010000
00000000
00100000
01000000
00100000
00000000
00010000
00000000
01000000
00000000
00000000
00000000
,
10100000
00000000
00010000
01000000
00000000
10000000
01000000
00010000
,
00001000
00000000
00001000
00000000
00000100
00000000
00000010
00000000
00001000
00000100
00000010
00000100
00001000
00000000
00000000
00000000
,
00001001
00000000
00000010
00000001
00000000
00000100
00001000
00010000
,
00011000
00000000
01000000
10000000
00000000
00010000
01000000
00100000
,
10100000
00000000
01010000
00000000
10100000
00000000
01010000
00100000
,
00000000
10000000
00000000
00010000
00000000
00001000
00000000
00000001
,
00000010
00000100
00000010
00000001
00000100
00000010
00010000
00001000
,
01000000
00100000
10100000
00000000
01010000
00000000
11000000
00000000
,
00100000
00010000
01000000
00100000
01000000
00010000
00100000
01000000
,
00010000
00001000
00011000
00000000
00001010
00000000
00000101
00000000
,
00001000
00000100
00000010
00000001
00000100
00000010
00001000
00000100
,
00010000
00001000
00011000
00000000
01010000
00000000
10100000
00000000
,
10000000
00100000
01000000
00100000
01000000
00100000
00010000
00100000
,
00010000
00000000
00100000
00000000
10000000
00000000
01000000
00000000
00010000
00000000
00001000
00000000
00000100
00000000
00000000
00000100
,
00000000
00000000
00000001
00000000
00000000
00000001
00000000
00000000
00000010
00000000
00000001
00000000
00001000
00000000
00000000
00001000
,
00000000
00000000
00000100
00000000
00000010
00000100
00000000
00010000
00001000
00000000
00010000
00000000
00100000
00000000
00000000
00100000
,
00000000
00000000
10000000
00000000
00000000
10000000
00000000
00000000
00100000
00000000
01000000
00000000
00100000
00000000
00000000
00100000
,
00000000
00000000
01000000
00000000
00010000
00100000
00000000
01000000
10000000
00000000
00010000
00000000
01000000
00000000
00000000
01000000
,
00000000
00000000
00100000
00000000
00000000
00100000
00000000
00000000
00010000
00000000
00001000
00000000
00000100
00000000
00000000
00000100
,
00000000
00000000
00000001
00000000
00001000
00000100
00000000
00000010
00000001
00000000
00001000
00000000
00000010
00000000
00000000
00000010
,
00000000
00000000
00000100
00000000
00000000
00000100
00000000
00000000
00001000
00000000
00010000
00000000
01000000
00000000
00000000
01000000
,
00000000
00000000
10000000
00000000
00010000
01000000
00000000
00100000
01000000
00000000
00010000
00000000
10000000
00000000
00000000
01000000
,
00000000
00000000
00100000
00000000
00000000
00010000
00000000
00000000
00110000
00000000
00001000
00010000
00001000
00000000
00000000
00010000
,
00000000
00000000
00000010
00000000
00000000
00000100
00000000
00000000
00000001
00001000
00000100
00000010
00000001
00000000
00000000
00000100
,
00000000
00000000
00000010
00000000
00000000
00000100
00000000
00000000
00001001
00000000
00000010
00000100
00001000
00000000
00000000
00000001
,
00000000
00000000
00000100
00000000
00000000
00001000
00000000
00000000
00010000
00000010
00010000
00001000
00100000
00000000
00000000
00010000
,
00000000
00000000
00100000
00000000
00000000
01000000
00000000
00000000
11000000
00000000
00010000
01000000
00100000
00000000
00000000
10000000
,
00000000
00000000
01000000
00000000
00000000
00100000
00000000
00000000
00010000
01000000
00001000
00010000
00001000
00000000
00000000
00000100
,
00000000
00000000
00000001
00000000
00000000
00001000
00000000
00000000
00000011
00000000
00000100
00000010
00000001
00000000
00000000
00001000
,
00000000
00000000
00000010
00000000
00000000
00000100
00000000
00000000
00001000
00010000
00000100
00010000
00001000
00000000
00000000
00000000
,
00000000
00000000
00000000
00000000
;

//---------------dance-double - ----------------
#NOTES:
     dance-double:
     :
     Challenge:
     16:
     :
00000000
00000000
00000000
00000000
,
00000000
00000000
00000000
00000000
,
00000000
00000000
00000000
00000000
,
00000000
00000000
00000000
00000000
,
00000000
00000000
00000000
00000000
,
00100000
10000000
01000000
00010000
,
00100000
00010000
01000000
10000000
,
00100000
10000000
00010000
01000000
00001000
00010000
00000100
00010000
00000010
00001000
00000100
00000010
00000001
00000100
00000010
00001000
,
00000001
00000000
00000000
00000000
00000010
00000000
00000100
00001000
00000010
00000000
00000000
00000010
00000000
00000000
00000010
00000000
,
00001010
00000000
00000000
00000000
00000100
00000000
00000001
00001000
00000100
00000000
00000010
00000100
00010000
00000000
00001000
01000000
,
00010000
00000000
00100000
00010000
01000000
00000000
00000000
00000000
00010000
00000000
00100000
00000000
11000000
00000000
00000000
00000000
,
01010000
00000000
00000000
00000000
00100000
00000000
10000000
01000000
00100000
00000000
00010000
01000000
00100000
00000000
00010000
00001000
,
00010000
00000000
00000010
00001000
00000100
00000000
00000000
00000000
00001000
00000000
00000001
00000000
00000110
00000000
00000000
00000000
,
00000011
00000000
00000000
00000000
00000100
00000000
00000010
00000001
00000100
00000000
00000010
00001000
00000100
00000000
00010000
00001000
,
00100000
00000000
01000000
00100000
00010000
00000000
00000000
00000000
10000000
00000000
01000000
00000000
01100000
00000000
00000000
00000000
,
10010000
00000000
00000000
00000000
00100000
00000000
10000000
00010000
00100000
00000000
00010000
10000000
00100000
00000000
10000000
00010000
,
01000000
00000000
00001000
00010000
00001000
00000000
00010000
00000010
00001000
00000000
00000100
00000000
00000010
00000000
00000001
00000000
,
00001100
00000000
00000000
00000000
00000010
00000000
00000001
00001000
00000010
00000000
00000100
00000010
00010000
00000000
00001000
00100000
,
00010000
00000000
01000000
00010000
00100000
00000000
00000000
00000000
00010000
00000000
01000000
00000000
10100000
00000000
00000000
00000000
,
00110000
00000000
00000000
00000000
01000000
00000000
10000000
00100000
01000000
00000000
00010000
00100000
01000000
00000000
00010000
00001000
,
00010000
00000000
00000100
00001000
00000010
00000000
00000000
00000000
00001000
00000000
00000001
00000000
00000110
00000000
00000000
00000000
,
00000101
00000000
00000000
00000000
00000010
00000000
00000100
00000001
00000010
00000000
00000100
00001000
00000010
00000000
00010000
00001000
,
01000000
00000000
00100000
01000000
00010000
00000000
00000000
00000000
10000000
00000000
00100000
00000000
01100000
00000000
00000000
00000000
,
10010000
00000000
00000000
00000000
01000000
00000000
10000000
00010000
01000000
00000000
00010000
10000000
01000000
00000000
10000000
00010000
,
00100000
00000000
00001000
00010000
00001000
00000000
00010000
00000100
00001000
00000000
00000010
00000000
00000100
00000000
00000001
00000000
,
00001000
00000010
00000001
00001000
00000100
00000001
00000010
00001000
,
00010000
01000000
10000000
00100000
00010000
10000000
01000000
00010000
,
00100000
00001000
01000000
00100000
01000000
00001000
00100000
00001000
,
01000000
00100000
01000000
00001000
00010000
00001000
00000100
00000001
,
00000001
00000010
00001000
00000001
00000100
00001000
00000001
00000100
,
00001000
00010000
00100000
10000000
00100000
00010000
10000000
01000000
,
00010000
00100000
01000000
10000000
00100000
01000000
00100000
00010000
,
00001000
00000100
00000010
00001000
00000100
00000010
00000001
00001000
,
00000001
00000000
00000100
00000010
00000000
00000100
00000001
00000000
00000100
00000010
00000000
00001000
00000010
00000000
00010000
00000000
,
00001000
00000000
00100000
00010000
00000000
00100000
01000000
00000000
00100000
00010000
00000000
10000000
00100000
01000000
00010000
10000000
,
01000000
00000000
00100000
00010000
00000000
00100000
01000000
00000000
00100000
00001000
00000000
00010000
00001000
00000000
00000100
00000000
,
00000010
00001000
00000000
00000001
00000100
00000000
00000001
00000010
00000000
00000100
00001000
00000000
00000001
00000100
00000010
00001000
,
00000100
00000000
00000010
00001000
00000000
00010000
00001000
00000000
00100000
00010000
00000000
01000000
00010000
00000000
10000000
00000000
,
00100000
00000000
01000000
00100000
00000000
10000000
01000000
00000000
00100000
01000000
00000000
00100000
00010000
01000000
00100000
10000000
,
00010000
00000000
01000000
00001000
00000000
00010000
00001000
00000000
00100000
00001000
00000000
00010000
00000010
00000000
00000100
00000000
,
00000001
00001000
00000000
00000100
00000010
00000000
00000001
00001000
00000000
00000010
00000100
00000000
00000001
00000010
00000100
00001000
,
00000002
00000000
00000000
00000000
,
00000000
00000000
00000000
00000000
,
00000000
00000000
00000000
00000000
,
00000000
00000000
00000000
00000003
,
00000001
00000100
00000000
00000100
,
00001000
00010000
00000000
00010000
,
01000000
10000000
00000000
10000000
,
00100000
00000000
00000000
00000000
10010000
00000000
00100000
10000000
00010000
01000000
00100000
00000000
10000000
00000000
00000000
00000000
,
01100000
00000000
10000000
01000000
00000000
00010000
00001000
00000010
,
00000001
00000000
00000001
00000000
00001000
00000000
00000010
00000100
00000001
00000000
00001000
00000000
00000100
00000000
00000000
00000000
,
00000110
00000000
00000001
00000100
00000000
00001000
00010000
00100000
,
10000000
00000000
10000000
00000000
00010000
00000000
01000000
00000000
00100000
10000000
01000000
00100000
00010000
00000000
00000000
00000000
,
10010000
00000000
00000000
01100000
00000000
00011000
00000000
00000110
,
00001001
00000000
00000000
00000110
00000000
00011000
00000000
01100000
,
10100000
00000000
01010000
00000000
00110000
00000000
11000000
10100000
,
00000000
00110000
00000000
00011000
00000000
01010000
00000000
11000000
,
02200000
03300000
00000000
00000000
00000000
00000000
00000000
00000000
10000000
00000000
00000000
00000000
00010000
00000000
00000000
00000000
01000000
00000000
00000000
00000000
00000000
00000000
00000000
00000000
00100000
00000000
00000000
00000000
01000000
00000000
00000000
00000000
00001000
00000000
00000000
00000000
00000000
00000000
00000000
00000000
00010000
00000000
00000000
00000000
00000100
00000000
00000000
00000000
00001000
00000000
00000000
00000000
00000000
00000000
00000000
00000000
00000010
00000000
00000000
00000000
00001000
00000000
00000000
00000000
,
00000100
00000000
00001000
00000010
00000101
00000000
00001100
00000000
,
00000010
00000000
00000001
00000100
00000010
00000000
00001000
00000100
00000010
00000000
00001000
00010000
00001000
00000000
00100000
00010000
,
01000000
00000000
00010000
10000000
01100000
00000000
10100000
00000000
,
01000000
00000000
00100000
10000000
01000000
00000000
00100000
00010000
01000000
00000000
00001000
00010000
00000010
00000000
00000100
00000010
,
00001000
00000000
00000001
00000100
00000110
00000000
00001001
00000000
,
00000010
00000000
00000001
00001000
00000010
00000000
00001000
00000001
00000010
00000000
00000001
00001000
00000100
00000000
00010000
00001000
,
00010000
00000000
00001000
00100000
00010000
01000000
00100000
10000000
01000000
00100000
00010000
01000000
00100000
00000000
00000000
00100000
,
00000000
00000000
10000000
00000000
00000000
10000000
00000000
00000000
01000000
00000000
00010000
00000000
00001000
00000000
00000000
00001000
,
00000000
00000000
00000100
00000000
00000010
00001000
00000000
00000010
00000100
00000000
00000001
00000000
00000010
00000000
00000000
00000010
,
00000000
00000000
00001000
00000000
00000000
00001000
00000000
00000000
00010000
00000000
00001000
00000000
00100000
00000000
00000000
00100000
,
00000000
00000000
00010000
00000000
01000000
00100000
00000000
10000000
00010000
00000000
00100000
00000000
00001000
00000000
00000000
00001000
,
00000000
00000000
00010000
00000000
00000000
00010000
00000000
00000000
01000000
00000000
10000000
00000000
00100000
00000000
00000000
00100000
,
00000000
00000000
01000000
00000000
00001000
00010000
00000000
00000010
00001000
00000000
00000100
00000000
00000010
00000000
00000000
00000010
,
00000000
00000000
00000001
00000000
00000000
00000001
00000000
00000000
00001000
00000000
00000001
00000000
00000100
00000000
00000000
00000100
,
00000000
00000000
00001000
00000000
00010000
00100000
00000000
01000000
00100000
00000000
10000000
00000000
10100000
00000000
00000000
00110000
,
00000000
00000000
01010000
00000000
00000000
11000000
00000000
00000000
10010000
00000000
01000000
00001000
00010000
00000000
00000000
00001010
,
00000000
00000000
00000011
00000000
00000000
00000110
00000000
00000000
00001000
00000001
00000100
00000010
00001000
00000000
00000000
00011000
,
00000000
00000000
01010000
00000000
00000000
10100000
00000000
00000000
00110000
00000000
01000000
10000000
00100000
00000000
00000000
01010000
,
00000000
00000000
00011000
00000000
00000000
00001010
00000000
00000000
00000100
00000010
00001000
00000100
00000010
00000000
00000000
00000011
,
00000000
00000000
00000101
00000000
00000000
00001100
00000000
00000000
00011000
00000000
00100000
00010000
01000000
00000000
00000000
01100000
,
00000000
00000000
10100000
00000000
00000000
00110000
00000000
00000000
10000000
01000000
00100000
00010000
10000000
00000000
00000000
10100000
,
00000000
00000000
01100000
00000000
00000000
01010000
00000000
00000000
00011000
00000000
00000100
00000010
00001000
00000000
00000000
00001100
,
00000000
00000000
00000011
00000000
00000000
00000110
00000000
00000000
00000001
00000100
00000010
00001000
00000001
00000000
00000000
00000000
,
00000000
00000000
00000000
00000000
;
