#TITLE:折れないハート;
#ARTIST:高取ヒデアキ;
#TITLETRANSLIT:Orenai Heart;
#ARTISTTRANSLIT:Hideaki Takatori;
#BANNER:Orenai Heart.png;
#BACKGROUND:Orenai Heart-bg.png;
#CDTITLE:./CDTitles/DanceDanceRevolution 2013.png;
#MUSIC:Orenai Heart.ogg;
#SAMPLESTART:54.926;
#SAMPLELENGTH:15;
#BPMS:0=190;
#STAGE:2;

//---------------dance-single - ----------------
#NOTES:
     dance-single:
     :
     Beginner:
     2:
     :
0000
0000
0000
0000
,
0000
0000
0000
0000
,
0000
0000
0000
0000
,
0001
0000
0000
0000
,
0000
0000
0000
0000
,
1000
0000
0000
0000
,
0000
0000
0000
0000
,
0010
0000
0000
0000
,
0010
0000
0000
0000
,
0100
0000
0000
0000
,
0100
0000
0000
0000
,
0000
0000
0000
0001
,
0000
0000
0000
0001
,
0000
0000
0000
1000
,
0000
0000
0000
1000
,
0000
0000
0000
0001
,
0000
0000
0000
0001
,
0000
0000
0000
1000
,
0000
0000
0000
1000
,
0000
0000
0000
0010
,
0000
0000
0000
0010
,
0000
0000
0000
1000
,
0000
0000
0000
1000
,
0000
0000
0000
0100
,
0000
0000
0000
0100
,
0000
0000
0000
0001
,
0000
0000
0000
0001
,
0000
0000
0000
0010
,
0000
0000
0000
0010
,
0000
0000
0000
0001
,
0000
0000
0000
0001
,
0000
0000
0000
0100
,
0000
0000
0000
0100
,
0000
0000
0000
1000
,
0000
0000
0000
0000
,
0001
0000
0000
0000
,
1000
0000
0000
0000
,
0001
0000
0000
0000
,
1000
0000
0000
0000
,
0010
0000
0000
0000
,
0100
0000
0000
0000
,
0010
0000
0000
0000
,
0000
0000
0000
0000
,
1001
0000
0000
0000
,
0001
0000
0000
0000
,
0010
0000
0000
0000
,
1000
0000
0000
0000
,
0010
0000
0000
0000
,
0001
0000
0000
0000
,
1000
0000
0000
0000
,
0001
0000
0000
0000
,
1000
0000
0000
0000
,
0001
0000
0000
0000
,
0100
0000
0000
0000
,
1000
0000
0000
0000
,
0100
0000
0000
0000
,
0001
0000
0000
0000
,
1000
0000
0000
0000
,
0001
0000
0000
0000
,
1000
0000
0000
0000
,
0010
0000
0000
0000
,
0000
0000
0000
0000
,
0000
0000
0000
0000
,
1001
0000
0000
0000
,
0000
0000
0000
0001
,
0000
0000
0000
1000
,
0000
0000
0000
0001
,
0000
0000
0000
1000
,
0000
0000
0000
0000
;

//---------------dance-single - ----------------
#NOTES:
     dance-single:
     :
     Easy:
     4:
     :
0000
0000
0000
0000
,
0000
0000
0000
0000
,
0000
0000
0000
0000
,
0010
0000
0010
0000
,
1000
0000
0000
0000
,
0001
0000
0001
0000
,
0100
0000
0000
0000
,
2000
0000
3000
0000
,
0002
0000
0003
0000
,
1000
0000
0010
0000
,
0001
0000
0100
0000
,
0000
0001
0001
0001
,
0000
1000
1000
1000
,
0000
0001
0001
0001
,
1000
0000
0000
1000
0000
0000
1000
0000
,
0000
0100
0100
0100
,
0000
0010
0010
0010
,
0000
0100
0100
0100
,
0010
0000
0000
0010
0000
0000
0010
0000
,
0001
0000
0100
0000
,
0010
0000
1000
0000
,
0100
0000
0010
0000
,
0001
0000
0100
0000
,
1000
0000
0000
0000
,
0001
0000
0000
0000
,
1000
0000
0000
0000
,
0001
0000
0000
0000
,
1000
0000
0100
0000
,
0010
0000
0001
0000
,
0100
0000
0010
0000
,
1000
0000
0100
0000
,
0001
0000
0000
0000
,
1000
0000
0000
0000
,
0001
0000
0000
0000
,
1000
0000
0000
0000
,
0001
0000
0010
0000
,
0100
0000
0000
0000
,
1000
0000
1000
0000
,
0001
0000
0000
0000
,
1000
0000
0010
0000
,
0100
0000
0000
0000
,
0001
0000
0000
2002
,
0000
0000
0000
3003
,
0000
0000
0000
0000
,
0010
0000
1000
0000
,
0001
0000
0000
0000
,
1000
0000
1000
0000
,
0001
0000
0001
0000
,
2000
0000
3000
0000
,
0002
0000
0003
0000
,
0010
0000
0001
0000
,
0100
0000
1000
0000
,
0010
0000
1000
0000
,
0001
0000
0000
0000
,
0100
0000
0100
0000
,
1000
0000
1000
0000
,
0002
0000
0003
0000
,
2000
0000
3000
0000
,
0020
0000
0030
0000
,
0200
0000
0300
0000
,
0010
0000
0010
0000
,
1000
0000
1000
0000
,
0001
0000
0001
0000
,
2002
0000
0000
3003
,
0000
1000
1000
1000
,
0000
0001
0001
0001
,
0000
0010
0010
0010
,
0100
0000
0000
0100
0000
0000
0100
0000
,
0000
0000
0000
0000
;

//---------------dance-single - ----------------
#NOTES:
     dance-single:
     :
     Medium:
     8:
     :
0000
0000
0000
0000
,
0000
0000
0000
0000
,
0000
0000
1000
0001
,
0010
0000
0010
0100
0000
1000
0000
0001
,
0000
1000
0010
0100
,
0001
0000
0001
1000
0000
1000
0000
0100
,
0000
0001
0010
1000
,
0010
0000
0000
1000
0000
0000
0100
0000
,
0010
0000
0000
0001
0000
0000
0100
0000
,
0001
0010
1000
0100
,
0001
0100
1000
0010
,
0000
2010
0001
3010
,
0000
0012
1000
0013
,
0000
2010
0001
3010
,
1000
0010
0100
0001
,
0000
0102
1000
0103
,
0000
2100
0001
3100
,
0000
0102
1000
0103
,
0001
0000
0000
1000
0000
0000
0110
0000
,
0001
1000
0100
0100
,
0010
0001
1000
0010
,
0100
0100
0010
0100
,
0010
1000
0100
0010
,
0001
1000
0100
0000
,
1000
0001
0100
0000
,
0010
1000
0100
0001
,
0100
1000
0010
0000
,
1000
0001
0100
0100
,
0010
1000
0001
0010
,
0100
0100
0010
0100
,
0010
0001
0100
0010
,
1000
0001
0100
0000
,
0001
1000
0100
0000
,
0010
0001
0100
1000
,
0100
0001
0010
0000
,
1000
0000
1000
0000
0010
0000
0100
0010
,
0000
0100
1000
0001
,
0100
0000
0100
0000
0010
0000
0010
1000
,
0000
0100
0010
0100
,
0000
0000
1000
0000
0001
0000
0001
0100
,
0000
0010
1000
0100
,
1000
0000
0000
0001
0000
0000
2002
0000
,
0000
0000
0000
3003
,
0110
0000
0001
1000
,
0010
0000
0010
0100
0000
0001
0000
1000
,
0000
0001
0010
0100
,
1000
0000
1000
0001
0000
0001
0000
0100
,
0000
1000
0010
0001
,
0010
0000
0000
0001
0000
0000
0100
0000
,
0010
0000
0000
1000
0000
0000
0100
0000
,
1000
0010
0001
0100
,
1000
0000
0100
0000
0001
1000
0000
0000
,
0010
0000
0010
0100
0000
1000
0000
0001
,
0000
1000
0010
0100
,
0001
0000
0001
1000
0000
1000
0000
0100
,
0000
0001
0010
1000
,
0010
0010
1000
1000
,
0100
0100
0001
0001
,
0010
0010
0001
0001
,
0100
0100
1000
1000
,
0010
0000
0000
1000
0000
0000
0001
0000
,
0010
0000
0000
0001
0000
0000
1000
0000
,
0010
0000
0000
0100
0000
0000
0010
0000
,
2002
0000
0000
3003
,
0000
0012
1000
0013
,
0000
2010
0001
3010
,
0000
0012
1000
0013
,
0001
0000
0000
0010
0000
0000
0100
1000
,
0000
0000
0000
0000
;

//---------------dance-single - ----------------
#NOTES:
     dance-single:
     :
     Hard:
     11:
     :
0000
0000
0000
0000
,
0000
0000
0000
0000
,
0000
0000
0001
1000
,
0010
1000
0010
0100
0000
1001
0000
0110
,
0000
0001
0010
0100
,
1000
0001
0100
0010
0000
0101
0000
1100
,
0000
1000
0001
0100
,
0010
0000
1000
0010
0000
0100
0010
0000
,
0001
0000
0010
0100
0000
0010
0001
0000
,
1000
0010
0001
0100
,
1000
0100
0001
0010
,
1200
0010
1000
0310
,
0201
0010
0001
0310
,
1200
0010
1000
0310
,
0001
0000
0010
0100
0000
0100
1000
0000
,
0021
0100
0001
0130
,
1020
0100
1000
0130
,
0021
0100
0001
0130
,
1000
0000
0000
0001
0000
0000
0110
0000
,
1000
0000
0001
0000
0100
0010
0100
0000
,
0010
0000
1000
0001
0000
0001
0010
0000
,
0100
1000
0100
0000
0010
0001
0100
0000
,
0010
0000
1000
0001
0000
0001
0100
0000
,
0010
1000
0100
0001
,
0010
0001
0100
1000
,
0010
0000
1000
0100
0000
0010
0000
0100
,
0000
1000
0001
0000
0100
0000
0010
0000
,
0001
0000
1000
0000
0100
0010
0100
0000
,
0010
0000
0001
1000
0000
1000
0010
0000
,
0100
0001
0100
0000
0010
1000
0100
0000
,
0010
0000
0001
1000
0000
1000
0100
0010
,
0000
0001
0100
1000
,
0010
1000
0100
0001
,
0010
0000
0001
0000
0100
0010
1000
0001
,
0000
1000
0100
0010
,
0001
0000
0001
0000
0010
0001
0100
0010
,
0000
0010
0100
0000
0001
0000
1000
0000
,
0100
1000
0100
0000
0010
0000
0010
0001
,
0000
0001
0100
0000
0010
0000
0100
0001
,
0000
0000
0001
0000
1000
0100
1000
0001
,
0000
0001
0100
0000
0010
0000
1000
0000
,
1001
0000
0000
0110
0000
0000
2002
0000
,
0000
0000
0000
3003
,
0110
0000
1000
0001
,
0010
0001
0010
0100
0000
1001
0000
0110
,
0000
1000
0010
0100
,
0001
1000
0100
0010
0000
0001
0000
1000
,
0000
0010
0100
0001
,
0010
0000
0001
0010
0000
0100
0010
0000
,
1000
0000
0010
0100
0000
0010
1000
0000
,
0001
0010
1000
0100
,
0001
0000
0100
0000
1000
0010
0000
0000
,
0010
1000
0010
0100
0000
1001
0000
0110
,
0000
0001
0010
0100
,
1000
0001
0100
0010
0000
1000
0000
0001
,
0000
0010
0100
1000
,
1010
0000
1010
0000
0100
0010
0100
0000
,
1001
0000
1001
0000
0100
0010
0100
0000
,
0011
0000
0011
0000
0100
0010
0100
0000
,
1001
0000
1001
0000
0100
0010
0100
0000
,
0010
0000
1000
0100
0000
1000
0100
0000
,
0010
0000
0001
0100
0000
0001
0100
0000
,
0010
0000
0100
0010
0000
0100
0010
0000
,
2002
0000
0000
3003
,
0201
0010
0001
0310
,
1200
0010
1000
0310
,
0201
0010
0001
0310
,
1000
0000
0010
0100
0000
0100
0001
1000
,
0000
0000
0000
0000
;

//---------------dance-double - ----------------
#NOTES:
     dance-double:
     :
     Easy:
     4:
     :
00000000
00000000
00000000
00000000
,
00000000
00000000
00000000
00000000
,
00000000
00000000
00000000
00000000
,
00000010
00000001
00000010
00000000
,
00000001
00000000
00000100
00000000
,
00001000
00010000
00001000
00000000
,
01000000
00000000
00100000
00000000
,
20000000
00000000
30000000
00000000
,
00020000
00000000
00030000
00000000
,
00100000
00000000
00001000
00000000
,
00010000
00000000
00000100
00000000
,
00000000
00001000
00001000
00001000
,
00000000
00000001
00000001
00000001
,
00000000
00001000
00001000
00001000
,
00000001
00000000
00000000
00000001
00000000
00000000
00000001
00000000
,
00000000
00000100
00000100
00000100
,
00000000
00001000
00001000
00001000
,
00000000
00010000
00010000
00010000
,
00100000
00000000
00000000
00100000
00000000
00000000
00100000
00000000
,
10000000
00000000
01000000
00000000
,
00100000
00100000
00010000
00000000
,
10000000
00000000
00100000
00000000
,
01000000
01000000
00010000
00000000
,
00001000
00000000
00000000
00000000
,
00010000
00000000
00000000
00000000
,
00000100
00000000
00000000
00000000
,
00000010
00000000
00000000
00000000
,
00000001
00000000
00000100
00000000
,
00000010
00000010
00001000
00000000
,
00000100
00000000
00010000
00000000
,
00001000
00001000
00010000
00000000
,
01000000
00000000
00000000
00000000
,
10000000
00000000
00000000
00000000
,
00010000
00000000
00000000
00000000
,
01000000
00000000
00000000
00000000
,
00100000
10000000
00010000
00000000
,
01000000
00000000
00000000
00000000
,
00001000
00000000
00001000
00000000
,
00010000
00000000
00010000
00000000
,
00000100
00001000
00000010
00000000
,
00000100
00000000
00000000
00000000
,
00000001
00000000
00000000
00002002
,
00000000
00000000
00000000
00003003
,
00000000
00000000
00000000
00000000
,
00000010
00000001
00000010
00000000
,
00000100
00000000
00000100
00000000
,
00010000
00000000
00010000
00000000
,
00001000
00000000
00001000
00000000
,
00200000
00000000
00300000
00000000
,
00020000
00000000
00030000
00000000
,
10000000
00000000
00100000
00000000
,
01000000
00000000
00010000
00000000
,
10000000
01000000
10000000
00000000
,
00100000
00000000
00100000
00000000
,
00010000
00000000
00010000
00000000
,
00001000
00000000
00001000
00000000
,
00000200
00000000
00000300
00000000
,
00000002
00000000
00000003
00000000
,
00000020
00000000
00000030
00000000
,
00002000
00000000
00003000
00000000
,
00000100
00000000
00000100
00000000
,
00010000
00000000
00010000
00000000
,
00001000
00000000
00001000
00000000
,
00022000
00000000
00000000
00033000
,
00000000
00100000
00100000
00100000
,
00000000
00010000
00010000
00010000
,
00000000
10000000
10000000
10000000
,
00100000
00000000
00000000
00100000
00000000
00000000
00100000
00000000
,
00000000
00000000
00000000
00000000
;

//---------------dance-double - ----------------
#NOTES:
     dance-double:
     :
     Medium:
     8:
     :
00000000
00000000
00000000
00000000
,
00000000
00000000
00000000
00000000
,
00000000
00000000
00010000
10000000
,
00100000
00000000
00100000
01000000
00000000
00010000
00000000
10000000
,
00000000
01000000
00010000
00001000
,
00000010
00000000
00000010
00000001
00000000
00001000
00000000
00000001
,
00000000
00000010
00000100
00001000
,
00000010
00000000
00000000
00010000
00000000
00000000
00001000
00000000
,
01000000
00000000
00000000
00010000
00000000
00000000
10000000
00000000
,
00100000
10000000
01000000
00010000
,
01000000
10000000
00100000
00010000
,
00000000
00102000
00010000
00103000
,
00000000
00020010
00001000
00030010
,
00000000
00102000
00010000
00103000
,
00010000
00000000
00000000
00001000
00000000
00000000
00010000
00000000
,
00000000
01002000
00010000
01003000
,
00000000
00020100
00001000
00030100
,
00000000
01002000
00010000
01003000
,
00010000
00000000
00000000
00001000
00000000
00000000
00011000
00000000
,
00001000
00000100
00000001
00000001
,
00001000
00000100
00000010
00000001
,
00000100
00000010
00010000
00010000
,
00001000
00100000
00010000
10000000
,
01000000
00010000
01000000
00000000
,
00010000
10000000
01000000
00000000
,
00010000
00001000
00000100
00000001
,
00001000
00000100
00000010
00000000
,
00000001
00000100
00001000
00001000
,
00010000
00100000
10000000
01000000
,
00100000
00001000
00010000
00010000
,
00000010
00001000
00000100
00000010
,
00000001
00001000
00000100
00000000
,
00001000
00000001
00000100
00000000
,
00001000
00010000
01000000
10000000
,
00010000
01000000
00100000
00000000
,
10000000
00000000
10000000
00000000
00100000
00000000
01000000
00100000
,
00000000
00010000
00001000
00000100
,
00000001
00000000
00000001
00000000
00001000
00000000
00000100
00000010
,
00000000
00000001
00001000
00000100
,
00000000
00000000
00010000
00000000
00001000
00000000
00100000
00010000
,
00000000
01000000
00100000
10000000
,
00010000
00000000
00000000
10000000
00000000
00000000
20020000
00000000
,
00000000
00000000
00000000
30030000
,
01100000
00000000
00010000
10000000
,
00100000
00000000
00100000
01000000
00000000
00010000
00000000
10000000
,
00000000
01000000
00010000
00001000
,
00000010
00000000
00000010
00000001
00000000
00001000
00000000
00000001
,
00000000
00000010
00000100
00001000
,
00000010
00000000
00000000
00010000
00000000
00000000
00001000
00000000
,
01000000
00000000
00000000
00010000
00000000
00000000
10000000
00000000
,
00100000
10000000
01000000
00010000
,
01000000
00000000
10000000
00000000
00010000
01000000
00000000
00000000
,
00001000
00000000
00001000
00010000
00000000
00001000
00000000
00000010
,
00000000
00000001
00000010
00000100
,
00001000
00000000
00001000
00000001
00000000
00000100
00000000
00000010
,
00000000
00001000
00010000
01000000
,
00100000
00100000
10000000
10000000
,
01000000
01000000
00010000
00010000
,
00001000
00001000
00000100
00000100
,
00000001
00000001
00000010
00000010
,
00000001
00000000
00000000
00001000
00000000
00000000
00000100
00000000
,
00000010
00000000
00000000
00000100
00000000
00000000
00001000
00000000
,
00010000
00000000
00000000
00100000
00000000
00000000
01000000
00000000
,
20020000
00000000
00000000
30030000
,
00000000
20100000
00010000
30100000
,
00000000
01020000
10000000
01030000
,
00000000
00102000
00010000
00103000
,
00001000
00000000
00000000
00000100
00000000
00000000
00000001
00001000
,
00000000
00000000
00000000
00000000
;

//---------------dance-double - ----------------
#NOTES:
     dance-double:
     :
     Hard:
     11:
     :
00000000
00000000
00000000
00000000
,
00000000
00000000
00000000
00000000
,
00000000
00000000
00001000
00000001
,
00000010
00000001
00000010
00000100
00000000
00001100
00000000
00011000
,
00000000
01000000
00010000
10000000
,
00100000
10000000
00100000
01000000
00000000
10010000
00000000
01100000
,
00000000
00010000
00001000
00000010
,
00000001
00000000
00000001
00000010
00000000
00000100
00000010
00000000
,
00001000
00000000
00000010
00000100
00000000
00000010
00001000
00000000
,
00010000
01000000
00100000
10000000
,
01000000
00100000
00010000
10000000
,
00020000
00100000
10000000
00130000
,
00002000
00010000
01000000
00013000
,
00000200
00000010
00001000
00000310
,
00000001
00000000
00001000
00000010
00000000
00000100
00000010
00000000
,
00002000
00000010
00000001
00003010
,
00020000
00001000
00000100
00031000
,
02000000
00100000
00010000
03100000
,
10000000
00000000
00000000
00010000
00000000
00000000
01100000
00000000
,
00010000
00000000
10000000
00000000
01000000
00100000
00010000
00000000
,
00001000
00000000
00000100
00000010
00000000
00000010
00000001
00000000
,
00000100
00000001
00000100
00000000
00000010
00001000
00000100
00000000
,
00000010
00000000
00000100
00010000
00000000
00010000
00001000
00000000
,
00100000
00010000
01000000
00100000
,
10000000
01000000
00010000
00001000
,
00000100
00000000
00000001
00000010
00000000
00000100
00000000
00000010
,
00000000
00000001
00001000
00000000
00000010
00000000
00000100
00000000
,
00001000
00000000
00000001
00000000
00000100
00000010
00001000
00000000
,
00010000
00000000
01000000
00100000
00000000
00100000
10000000
00000000
,
01000000
10000000
01000000
00000000
00100000
00010000
01000000
00000000
,
00100000
00000000
01000000
00001000
00000000
00001000
00010000
00000010
,
00000000
00001000
00000100
00000010
,
00000001
00000100
00001000
00010000
,
00100000
00000000
10000000
00000000
00010000
01000000
00100000
10000000
,
00000000
01000000
00100000
01000000
,
00010000
00000000
00010000
00000000
00001000
00010000
00000100
00000010
,
00000000
00000010
00000100
00000000
00001000
00000000
00000001
00000000
,
00000100
00000001
00000100
00000000
00000010
00000000
00000010
00010000
,
00000000
00010000
00001000
00000000
00100000
00000000
00010000
10000000
,
00000000
00000000
00100000
00000000
01000000
00010000
01000000
00100000
,
00000000
00100000
10000000
00000000
01000000
00000000
00100000
00000000
,
00110000
00000000
00000000
00011000
00000000
00000000
00002200
00000000
,
00000000
00000000
00000000
00003300
,
00000110
00000000
00000001
00001000
,
00000010
00001000
00000010
00000100
00000000
00000101
00000000
00001100
,
00000000
00010000
00100000
01000000
,
10000000
00010000
01000000
00100000
00000000
10000000
00000000
00010000
,
00000000
00100000
00001000
00000010
,
00000001
00000000
00001000
00000010
00000000
00000100
00000001
00000000
,
00001000
00000000
00000100
00000010
00000000
00000001
00000100
00000000
,
00001000
00010000
01000000
10000000
,
00010000
00000000
01000000
00000000
00100000
10000000
00000000
00000000
,
00100000
00010000
00100000
01000000
00000000
11000000
00000000
01010000
,
00000000
00001000
00000010
00000100
,
00000001
00001000
00000100
00000010
00000000
00000001
00000000
00001000
,
00000000
00000010
00010000
00100000
,
01100000
00000000
01100000
00000000
00010000
10000000
00010000
00000000
,
11000000
00000000
11000000
00000000
00010000
00001000
00010000
00000000
,
00001010
00000000
00001010
00000000
00000100
00000010
00000100
00000000
,
00001001
00000000
00001001
00000000
00000100
00000010
00000100
00000000
,
00000010
00000000
00000001
00000100
00000000
00000001
00000100
00000000
,
00000010
00000000
00001000
00000100
00000000
00001000
00000100
00000000
,
00010000
00000000
00001000
00010000
00000000
00001000
00010000
00000000
,
00220000
00000000
00000000
00330000
,
00020000
00100000
10000000
00130000
,
00002000
00010000
01000000
00013000
,
00000200
00000010
00001000
00000310
,
00000001
00000000
00001000
00000010
00000000
00000100
00000010
00001000
,
00000000
00000000
00000000
00000000
;
