#TITLE:お米の美味しい炊き方、そしてお米を食べることによるその効果。;
#ARTIST:大日本鉄倶楽部【あさき&96】;
#TITLETRANSLIT:Okome no oishii takikata, soshite okome wo taberu koto ni yoru sono kouka.;
#ARTISTTRANSLIT:Dainippon Tetsu Kurabu (Asaki&96);
#BANNER:Okome no oishii takikata, soshite okome wo taberu koto ni yoru sono kouka..png;
#BACKGROUND:Okome no oishii takikata, soshite okome wo taberu koto ni yoru sono kouka.-bg.png;
#CDTITLE:./CDTitles/DanceDanceRevolution 2013.png;
#MUSIC:Okome no oishii takikata, soshite okome wo taberu koto ni yoru sono kouka.ogg;
#SAMPLESTART:60.64;
#SAMPLELENGTH:15;
#BPMS:0=190;
#STAGE:15;

//---------------dance-single - ----------------
#NOTES:
     dance-single:
     :
     Beginner:
     4:
     :
0000
0000
0000
0000
,
0000
0000
0000
0000
,
0000
0000
0000
0000
,
0000
0000
0000
0000
,
0000
0000
0000
0000
,
0000
0000
0000
0000
,
0001
0000
0001
0000
,
0010
0000
0010
0000
,
1000
0000
1000
0000
,
1001
0000
0110
0000
,
1001
0000
0000
0000
,
0001
0001
0001
0000
,
0010
0010
0010
0000
,
1000
1000
1000
0000
,
0010
0010
0010
0000
,
0001
0001
0001
0000
,
0010
0010
0010
0000
,
1000
1000
1000
0000
,
0010
0010
0010
0000
,
0001
0000
0000
0000
,
0100
0000
0000
0000
,
1000
0000
0000
0000
,
0010
0000
0000
0000
,
0001
0000
0010
0000
,
0100
0000
1000
0000
,
0001
0000
0100
0000
,
0010
0000
1000
0000
,
0001
0000
0001
0000
,
1000
0000
0100
0000
,
0010
0000
0010
0000
,
0100
0000
1000
0000
,
0001
0001
0001
0000
,
0010
0010
0010
0000
,
0100
0100
0100
0000
,
1000
1000
1000
0000
,
0001
0001
0001
0000
,
0100
0100
0100
0000
,
0010
0010
0010
0000
,
1000
1000
1000
0000
,
0002
0000
0003
0000
,
0020
0000
0030
0000
,
2000
0000
3000
0000
,
0200
0000
0300
0000
,
0002
0000
0003
0000
,
2000
0000
3000
0000
,
0020
0000
0030
0000
,
0200
0000
0300
0000
,
2002
0000
3003
0000
,
0001
0001
0001
0000
,
1000
1000
1000
0000
,
0010
0000
1000
0000
,
0001
1000
0001
0000
,
1000
1000
1000
0000
,
0001
0001
0001
0000
,
0010
0000
0001
0000
,
1000
0001
1000
0000
,
0010
0010
0010
0000
,
0100
0100
0100
0000
,
0001
0000
0010
0000
,
1000
0000
0100
0000
,
0010
0010
0010
0000
,
0100
0100
0100
0000
,
1000
0000
0010
0000
,
0001
0000
0100
0000
,
1000
1000
1000
0000
,
0010
0010
0010
0000
,
0001
0001
0001
0000
,
0100
0100
0100
0000
,
1000
0000
0010
0000
,
0001
0000
0010
0000
,
1000
0000
0100
0000
,
0001
0000
0010
0000
,
1001
0000
0000
0000
,
1001
0000
0000
0000
,
0001
0000
1000
0000
,
2002
0000
3003
0000
,
0010
0010
0010
0000
,
0100
0100
0100
0000
,
2000
0000
3000
0000
,
0002
0000
0003
0000
,
1000
1000
0010
0000
,
0001
0001
0010
0000
,
0001
0000
0100
0000
,
1000
0000
0100
0000
,
1000
1000
0010
0000
,
0001
0001
0010
0000
,
1000
0000
0100
0000
,
0001
0000
0100
0000
,
1000
0000
0000
2002
,
0000
0000
0000
0000
,
0000
0000
0000
0000
,
3003
0000
0000
0000
,
0000
0000
0000
0000
;

//---------------dance-single - ----------------
#NOTES:
     dance-single:
     :
     Easy:
     8:
     :
0000
0000
0000
0000
,
0000
0000
0000
0000
,
0000
0000
0000
0000
,
0000
0000
0000
0000
,
0000
0000
0000
0000
,
0000
0000
0000
0000
,
0010
0010
1000
0100
,
0010
0010
0001
0100
,
0010
0010
0100
0010
,
1001
0000
0110
0000
,
0001
0000
1000
0000
0000
1001
0000
0000
,
0010
0100
0001
0001
,
0010
0100
1000
1000
,
0010
0100
0001
0001
,
1000
0001
1000
1001
,
0010
0100
1000
1000
,
0010
0100
0001
0001
,
0010
0100
1000
1000
,
0001
1000
0001
1001
,
0010
1000
0001
0100
,
0000
0010
0100
1000
,
0001
1000
0100
0010
,
0000
0001
0010
0100
,
0001
0000
0100
0000
1000
0000
0100
0010
,
0000
0010
1000
0100
,
0010
0000
1000
0000
0100
0000
0010
0100
,
0000
0100
0010
0001
,
1000
0000
0010
0000
0001
0000
0100
0001
,
0000
1000
0001
1000
,
0100
0000
1000
0000
0010
0000
0100
0010
,
0000
1000
0100
0001
,
1000
0000
0100
0000
0001
0000
0100
0010
,
0000
0010
0001
0100
,
0010
0000
0001
0000
0100
0000
0010
0100
,
0000
0100
0010
1000
,
0001
0000
0010
0000
1000
0000
0100
1000
,
0000
0001
1000
0001
,
0100
0000
0001
0000
0010
0000
0100
0010
,
0000
0001
0100
1000
,
0020
0030
0200
0300
,
1000
0010
0100
0001
,
0020
0030
0200
0300
,
0001
0010
0100
1000
,
0002
0003
2000
3000
,
0001
0010
0100
1000
,
0010
0000
0000
1000
0000
0000
0001
0000
,
2002
0000
0000
3003
,
0100
0100
0100
0100
,
0010
1000
0100
0100
,
0010
1000
0100
0100
,
1000
0010
0001
0010
,
1000
0100
0001
0100
,
0010
0001
0100
0100
,
0010
0001
0100
0100
,
0001
0010
1000
0010
,
0001
0100
1000
1001
,
0010
0010
0100
0100
,
0010
0100
0010
0100
,
0001
0010
1000
0100
,
0001
0010
1000
0100
,
0010
0010
0100
0100
,
0010
0100
0010
0100
,
1000
0010
0001
0100
,
1000
0010
0001
0100
,
2000
0000
0000
3000
,
0020
0000
0000
0030
,
0002
0000
0000
0003
,
0200
0000
0000
0300
,
0010
0000
0010
0000
1000
0001
0001
0000
,
0010
0000
0010
0000
0001
1000
1000
0000
,
0001
0010
0100
1000
,
0010
0100
2002
3003
,
0100
0100
0000
0000
0000
0000
0000
0010
,
0000
0010
0000
0000
1000
0001
0000
0000
,
0010
0000
0100
0000
,
0010
0001
0100
0000
,
0001
1000
1001
0000
,
0010
0100
0110
0000
,
1000
0000
0001
0000
,
2002
0000
0000
3003
,
0010
0000
1000
0000
0100
1000
0100
0000
,
0010
0000
0001
0000
0100
0001
0100
0000
,
0010
1000
0100
0001
,
0010
1000
1001
0000
,
0001
0000
0100
0000
0010
1000
0010
0000
,
1000
0000
0100
0000
0010
0001
0010
0000
,
0100
1000
0100
0001
,
0010
1000
0010
0001
,
1000
0000
0000
0001
0000
0000
2002
0000
,
0000
0000
0000
0000
,
0000
0000
0000
0000
,
3003
0000
0000
0001
0000
0000
0000
1000
0000
0000
0000
0100
0000
0000
0010
0000
,
0000
0001
0000
0000
,
0000
0000
0000
0000
;

//---------------dance-single - ----------------
#NOTES:
     dance-single:
     :
     Medium:
     12:
     :
0000
0000
0000
0000
,
0000
0000
0000
0000
,
0000
0000
0000
0000
,
0000
0000
0000
0000
,
0000
0000
0000
0000
,
0000
0000
0000
0000
,
0010
0000
1001
0000
0010
0001
0100
0000
,
0010
0000
1001
0000
0010
1000
0100
0000
,
0010
0000
1001
0000
0100
0010
0100
0000
,
0001
0001
0000
0100
0010
0010
0000
1000
,
0100
0010
0100
0010
0000
1001
0000
0000
,
0010
0001
0100
0001
1000
0010
0100
0001
,
0010
0001
0100
0001
1000
0100
0010
0001
,
0010
0001
0100
0001
1000
0010
0100
0001
,
0010
0100
1000
0010
0100
0000
1001
0000
,
0010
1000
0100
1000
0001
0010
0100
1000
,
0010
1000
0100
1000
0001
0100
0010
1000
,
0010
1000
0100
1000
0001
0010
0100
1000
,
0010
0100
0001
0010
0100
0000
1001
0000
,
0010
0000
0001
0000
1000
0000
0100
1000
,
0000
0010
0001
0000
1000
0100
0001
0000
,
1000
0000
0001
0000
0100
0000
0010
0100
,
0000
0010
1000
0100
0010
0001
0100
0000
,
1000
0001
0100
0000
0001
1000
0100
0010
,
0000
0001
0010
0000
0001
1000
0100
0000
,
0010
0001
0100
0010
1000
0001
0010
0100
,
0000
1000
0100
0000
0010
0001
0100
0000
,
0001
0100
0010
0000
1000
0100
1000
0010
,
0000
0100
0001
0000
1000
0001
0010
0000
,
0100
0010
0001
0100
0001
1000
0100
0010
,
0000
0001
0010
0000
0100
1000
0100
0000
,
0001
1000
0100
0000
1000
0001
0100
0010
,
0000
1000
0010
0000
1000
0001
0100
0000
,
0010
1000
0100
0010
0001
1000
0010
0100
,
0000
0001
0100
0000
0010
1000
0100
0000
,
1000
0100
0010
0000
0001
0100
0001
0010
,
0000
0100
1000
0000
0001
1000
0010
0000
,
0100
0010
1000
0100
1000
0001
0100
0010
,
0000
1000
0010
0000
0100
0001
0100
0000
,
0002
0013
2000
3010
,
0001
0000
0010
0000
0100
1000
0100
0000
,
2000
3010
0002
0013
,
1000
0000
0010
0000
0100
0001
0100
0000
,
0010
1000
0010
0000
0100
0010
0100
0000
,
0001
0000
0001
0000
0010
0100
1000
0000
,
0110
0000
0000
1001
0000
0000
0110
0000
,
1000
0100
0001
0010
,
0100
0000
0100
0000
0100
1000
0001
1000
,
0010
1000
0001
1000
0100
1000
0100
1000
,
0010
1000
0001
1000
0100
1000
0100
1000
,
0010
0100
0001
0000
0010
0100
1000
0000
,
0001
0100
0010
1000
0010
0100
0001
0000
,
0010
0001
1000
0001
0100
0001
0100
0001
,
0010
0001
1000
0001
0100
0001
0100
0001
,
0010
0100
1000
0000
0010
0100
0001
0000
,
1000
0100
0010
0001
0010
0100
1000
0000
,
0010
0001
0010
0100
0010
0001
0100
0010
,
1000
0010
0100
0010
1000
0001
0100
0010
,
1000
0100
0001
0000
1000
0100
0001
0000
,
0100
0010
0001
0100
0010
1000
0001
0000
,
0010
1000
0010
0100
0010
1000
0100
0010
,
0001
0010
0100
0010
0001
1000
0100
0010
,
0001
0100
1000
0000
0001
0100
1000
0000
,
0100
0010
1000
0100
0010
0001
1000
0000
,
0001
0001
0100
0100
,
0010
0010
1000
1000
,
0100
0100
0010
0010
,
0001
0001
1000
1000
,
0001
0100
1000
0100
0001
0100
1000
0000
,
0001
0010
1000
0010
0001
0010
1000
0000
,
0010
0001
0010
0001
1000
0010
1000
0010
,
0100
0001
1000
0100
0020
0000
0030
0000
,
0001
1000
0000
0000
0000
0000
0000
0110
,
0000
1001
0000
0000
0010
0100
0000
0010
,
0000
0001
0100
0000
0010
1000
0100
0000
,
0010
0001
1000
0001
0000
0100
0000
0100
,
0010
1000
0001
0000
1001
0000
0000
0100
,
0010
0001
1000
0000
1001
0000
0100
0000
,
0010
1000
0001
0000
0100
0001
1000
0000
,
0100
0010
0100
0010
0001
0010
,
0001
1000
0100
0010
0001
0100
0010
1000
,
0001
0100
0010
0100
0001
1000
0001
1000
,
0100
1000
0010
0000
0100
0001
0010
0000
,
0001
0100
0010
1000
0010
0100
0000
0001
,
1000
0001
0100
0010
1000
0100
0010
0001
,
1000
0100
0010
0100
1000
0001
1000
0001
,
0100
0001
0010
0000
0100
1000
0010
0000
,
1000
0100
0010
0001
0010
0100
1000
0000
,
0110
0000
1000
0001
0000
0200
0020
0000
,
0000
0000
0000
0000
,
0000
0000
0000
0000
,
0330
0000
0000
1000
0000
0000
0000
0001
0000
0000
0000
0100
0000
0000
0010
0000
,
0000
1000
0000
0000
,
0000
0000
0000
0000
;

//---------------dance-single - ----------------
#NOTES:
     dance-single:
     :
     Hard:
     16:
     :
0000
0000
0000
0000
,
0000
0000
0000
0000
,
0000
0000
0000
0000
,
0000
0000
0000
0000
,
0000
0000
0000
0000
,
0000
0000
0000
0000
,
0010
0000
1001
0000
0010
1000
0100
1000
,
0010
0000
1001
0000
0010
0001
0100
0001
,
0010
0000
1001
0000
0100
0010
0100
0010
,
1010
1010
0000
0100
0011
0011
0000
0100
,
0110
0110
0110
0110
0000
1001
0000
0000
,
0010
0000
1000
0000
0100
1000
0100
1000
0100
0000
1000
0000
0010
0100
0010
0100
,
0010
0000
1000
0000
0001
0010
0001
0010
0001
0000
0010
0000
0100
0010
0100
0010
,
0100
0000
0010
0000
0001
1000
0001
1000
0001
0000
0100
0000
0010
1000
0010
1000
,
0010
0100
0001
0010
0100
0010
1001
0000
,
0010
0000
0001
0000
0100
0001
1000
0001
0100
0000
0001
0000
0010
0100
1000
0100
,
0010
0000
0001
0000
1000
0010
0100
0010
1000
0000
0010
0000
0100
0001
1000
0001
,
0100
0000
0010
0000
1000
0001
0010
0001
1000
0000
0100
0000
0010
0001
1000
0001
,
0010
0100
1000
0010
0100
0010
1001
0000
,
0010
0000
1000
0000
0001
0000
0100
0101
,
0000
0010
1010
0000
0001
0100
1000
0100
,
0001
0000
1000
0000
0100
0000
0010
0110
,
0000
0010
0001
0100
0010
1000
0100
0010
,
0001
1000
0100
0000
0001
0100
1000
0001
,
0000
0000
0100
0000
0010
0000
0000
0000
1000
0001
0100
0001
1000
0000
0000
0000
,
0010
1000
0100
0010
0001
1000
0010
0100
,
0000
0000
0100
0000
0001
0000
0010
0000
0100
0010
0001
0010
0100
0000
0000
0000
,
1000
0100
0010
0000
0001
0100
0001
0010
,
0000
0000
0100
0000
1000
0000
0000
0000
0001
1000
0100
1000
0001
0000
0000
0000
,
0100
0010
1000
0100
1000
0001
0100
0010
,
0000
0000
0010
0000
1000
0000
0001
0000
0010
0100
0010
0100
1000
0000
0100
0000
,
1000
0001
0100
0000
1000
0100
0001
1000
,
0000
0000
0100
0000
0010
0000
0000
0000
0001
1000
0100
1000
0001
0000
0000
0000
,
0010
0001
0100
0010
1000
0001
0010
0100
,
0000
0000
0100
0000
1000
0000
0010
0000
0100
0010
1000
0010
0100
0000
0000
0000
,
0001
0100
0010
0000
1000
0100
1000
0010
,
0000
0000
0100
0000
0001
0000
0000
0000
1000
0001
0100
0001
1000
0000
0000
0000
,
0100
0010
0001
0100
0001
1000
0100
0010
,
0000
0000
0010
0000
0001
0000
1000
0000
0010
0100
0010
0100
0001
0000
0100
0000
,
2010
3100
0012
0103
,
0010
0000
0000
0000
0010
0000
1000
0000
0001
0100
0010
0100
0001
0000
0000
0000
,
0012
0103
2010
3100
,
0010
0000
0000
0000
0010
0000
0001
0000
1000
0100
0010
0100
1000
0000
0000
0000
,
0001
0100
1000
0000
1000
0100
0001
0000
,
0001
0000
0010
0000
1000
0000
0010
0000
0001
1000
0010
0100
0001
0000
0000
0000
,
0110
0001
1000
0110
1000
0001
0110
0001
,
0010
0001
0010
0000
0100
1000
0100
0000
1000
0001
1000
0000
0010
0100
0010
0000
,
0100
0000
0000
0000
0100
0000
0000
0000
0100
0000
0001
1000
0001
1000
0001
1000
,
0010
0000
0010
0000
1000
0100
1000
0000
0100
0000
0100
0000
1000
0001
1000
0000
,
0010
0000
0010
0000
0100
0010
0100
0000
0001
0000
0001
0000
1000
0100
1000
0000
,
0001
0010
1000
0100
0001
0010
1000
0100
,
0001
0100
1000
0100
0001
0100
1001
0000
,
0010
0000
0010
0000
0001
0100
0001
0000
0100
0000
0100
0000
0001
1000
0001
0000
,
0010
0000
0010
0000
0100
0010
0100
0000
1000
0000
1000
0000
0001
0100
0001
0000
,
1000
0010
0001
0100
1000
0010
0001
0100
,
1000
0100
0001
0100
1000
0100
1001
0000
,
0010
0000
1000
0000
0010
0100
0010
0100
0010
0000
1000
0000
0001
0100
0001
0100
,
0001
0000
1000
0000
0001
0010
0001
0010
0001
0000
0010
0000
0100
1000
0100
1000
,
0100
0100
0100
0100
0010
0010
0010
0010
,
0100
0100
0010
0010
0100
0010
0110
0000
,
0010
0000
0001
0000
0010
0100
0010
0100
0010
0000
0001
0000
1000
0100
1000
0100
,
1000
0000
0001
0000
1000
0010
1000
0010
1000
0000
0010
0000
0100
0001
0100
0001
,
0100
0010
1000
0100
0010
0001
0100
0010
,
1000
0100
0001
0100
1000
0001
0100
0010
,
1000
1000
1100
1100
,
0010
0010
1001
1001
,
0100
0100
0110
0110
,
1000
1000
0011
0011
,
0010
0000
0100
0000
1000
0100
1000
0000
1000
0100
1000
0000
1000
0100
1000
0000
,
0010
0000
0100
0000
0001
0100
0001
0000
0001
0100
0001
0000
0001
0100
0001
0000
,
1000
0001
1000
0000
0010
1000
0010
0000
1000
0100
1000
0000
0001
0100
0001
0000
,
0100
0010
1000
0010
0100
0001
0100
0010
2000
0000
0000
0000
3000
0000
0000
0000
,
1001
1001
0000
0000
0000
0000
0000
0110
,
0000
0110
0000
0000
0010
1001
0000
0010
,
0000
1000
0100
0001
0010
0100
1000
0001
,
1000
0010
1000
0010
0100
0010
0100
0001
0100
0001
1000
0001
,
0010
0001
1000
0001
1001
0000
0000
0010
,
1000
0100
1000
0001
1001
0000
0100
0000
,
0010
0100
0010
0100
0001
1000
0001
1000
,
0100
0100
0100
0010
0010
0010
,
0001
0000
1000
0000
0010
0100
0010
0000
0100
0001
0100
0000
0010
1000
0010
0000
,
1000
0000
0100
0000
0010
0100
0010
0000
0001
1000
0001
0000
0010
0001
0010
0000
,
0100
1000
0100
0001
1000
0010
0001
0100
,
0001
0001
1000
1000
0010
1001
0000
1000
,
1000
0000
0001
0000
0010
0100
0010
0000
0100
1000
0100
0000
0010
0001
0010
0000
,
0001
0000
0100
0000
0010
0100
0010
0000
1000
0001
1000
0000
0010
1000
0010
0000
,
0100
0001
0100
1000
0001
0010
1000
0100
,
1000
0100
1000
0000
0100
0010
0100
0000
0010
0001
0010
0000
0001
1000
0001
0000
,
0110
1000
0001
0110
0001
1000
0220
0000
,
0000
0000
0000
0000
,
0000
0000
0000
0000
,
0330
0000
0000
0010
0000
0000
0000
1000
0000
0000
0000
0100
0000
0000
0010
0000
,
0000
0001
0000
0000
,
0000
0000
0000
0000
;

//---------------dance-double - ----------------
#NOTES:
     dance-double:
     :
     Easy:
     8:
     :
00000000
00000000
00000000
00000000
,
00000000
00000000
00000000
00000000
,
00000000
00000000
00000000
00000000
,
00000000
00000000
00000000
00000000
,
00000000
00000000
00000000
00000000
,
00000000
00000000
00000000
00000000
,
00000010
00000010
00000001
00000100
,
00000010
00000010
00001000
00000100
,
00010000
00010000
00001000
00010000
,
00110000
00000000
01100000
00000000
,
10000000
00000000
00010000
00000000
00000000
10010000
00000000
00000000
,
00100000
10000000
01000000
01000000
,
10000000
00100000
01000000
01000000
,
00100000
00010000
00001000
00001000
,
00010000
00001000
00010000
00011000
,
00000010
00000001
00000100
00000100
,
00000001
00000010
00000100
00000100
,
00000010
00001000
00010000
00010000
,
00001000
00010000
00001000
00011000
,
00100000
00010000
01000000
00100000
,
00000000
10000000
00010000
01000000
,
00100000
10000000
01000000
00100000
,
00000000
00010000
00001000
00000100
,
00000010
00000000
00000010
00000000
00000100
00000000
00000010
00000001
,
00000000
00001000
00000001
00000100
,
00000010
00000000
00001000
00000000
00000001
00000000
00000100
00000010
,
00000000
00001000
00000100
00010000
,
00001000
00000000
01000000
00000000
00010000
00000000
10000000
01000000
,
00000000
00100000
00010000
01000000
,
00100000
00000000
10000000
00000000
00010000
00000000
10000000
01000000
,
00000000
00010000
00001000
00001000
,
00000100
00000000
00000100
00000000
00000010
00000000
00000100
00000001
,
00000000
00001000
00000001
00000010
,
00000100
00000000
00001000
00000000
00000001
00000000
00000010
00000100
,
00000000
00001000
00000010
00010000
,
00001000
00000000
00100000
00000000
00010000
00000000
10000000
00100000
,
00000000
01000000
00010000
00100000
,
01000000
00000000
10000000
00000000
00010000
00000000
10000000
00100000
,
00000000
00010000
00001000
00010000
,
00002000
00003000
00000200
00000300
,
00000001
00000010
00000100
00001000
,
00000020
00000030
00000200
00000300
,
00001000
00010000
00100000
10000000
,
00020000
00030000
20000000
30000000
,
00010000
01000000
00100000
10000000
,
01000000
00000000
00000000
00100000
00000000
00000000
00001000
00000000
,
00022000
00000000
00000000
00033000
,
00000100
00000100
00000100
00000100
,
00000010
00000001
00000100
00000100
,
00000010
00001000
00000100
00000100
,
00000010
00001000
00010000
01000000
,
10000000
00010000
01000000
00100000
,
10000000
00010000
01000000
01000000
,
00010000
10000000
01000000
01000000
,
10000000
00100000
00010000
00001000
,
00000100
00000001
00001000
00001001
,
00000010
00000010
00000100
00000100
,
00000010
00001000
00000100
00001000
,
00000010
00010000
00001000
00100000
,
00010000
00100000
01000000
10000000
,
00100000
00100000
01000000
01000000
,
00100000
10000000
00010000
10000000
,
01000000
00010000
00001000
00000100
,
00000001
00001000
00000100
00000010
,
00000002
00000000
00000000
00000003
,
00000200
00000000
00000000
00000300
,
00000020
00000000
00000000
00000030
,
00002000
00000000
00000000
00003000
,
00000100
00000000
00000100
00000000
00010000
00001000
00010000
00000000
,
00001000
00000000
00001000
00000000
01000000
00010000
01000000
00000000
,
00100000
10000000
00010000
01000000
,
00100000
01000000
20020000
30030000
,
01000000
01000000
00000000
00000000
00000000
00000000
00000000
00010000
,
00000000
00001000
00000000
00000000
00010000
00001000
00000000
00000000
,
00000010
00000000
00000100
00000000
,
00000010
00001000
00000100
00000000
,
00001000
00000001
00001001
00000000
,
00000010
00000100
00000110
00000000
,
00001000
00000000
00010000
00000000
,
00022000
00000000
00000000
00033000
,
00100000
00000000
00010000
00000000
10000000
00010000
10000000
00000000
,
00100000
00000000
01000000
00000000
00010000
10000000
00010000
00000000
,
10000000
01000000
00100000
00010000
,
00001000
00000100
00000110
00000000
,
00000010
00000000
00000001
00000000
00001000
00000001
00001000
00000000
,
00000010
00000000
00000100
00000000
00000001
00001000
00000001
00000000
,
00001000
00000001
00000010
00001000
,
00010000
01000000
10000000
00100000
,
10000000
00000000
00000000
00010000
00000000
00000000
20020000
00000000
,
00000000
00000000
00000000
00000000
,
00000000
00000000
00000000
00000000
,
30030000
00000000
00000000
00010000
00000000
00000000
00000000
10000000
00000000
00000000
00000000
01000000
00000000
00000000
00100000
00000000
,
00000000
00010000
00000000
00000000
,
00000000
00000000
00000000
00000000
;

//---------------dance-double - ----------------
#NOTES:
     dance-double:
     :
     Medium:
     12:
     :
00000000
00000000
00000000
00000000
,
00000000
00000000
00000000
00000000
,
00000000
00000000
00000000
00000000
,
00000000
00000000
00000000
00000000
,
00000000
00000000
00000000
00000000
,
00000000
00000000
00000000
00000000
,
00100000
00000000
10010000
00000000
00100000
10000000
01000000
00000000
,
00100000
00000000
00011000
00000000
00000010
00001000
00000100
00000000
,
00000010
00000000
00001001
00000000
00000100
00000010
00000100
00000000
,
00000010
00000010
00000000
00001000
00000100
00000100
00000000
00000010
,
00000001
00001000
00000001
00001000
00000000
00000110
00000000
00000000
,
00000001
00001000
00000100
00001000
00000010
00010000
00001000
00100000
,
01000000
00100000
00010000
00100000
01000000
10000000
00010000
01000000
,
00100000
10000000
00010000
10000000
01000000
00100000
00010000
01000000
,
00100000
00010000
00001000
00000100
00000010
00000000
00001001
00000000
,
00000001
00001000
00000010
00001000
00000100
00010000
00001000
01000000
,
00100000
01000000
00010000
01000000
00100000
10000000
00010000
00100000
,
01000000
10000000
00010000
10000000
00100000
01000000
00010000
00100000
,
01000000
00010000
00001000
00000010
00000100
00000000
00001001
00000000
,
00000010
00000000
00001000
00000000
00000001
00000000
00000100
00001000
,
00000000
00010000
00001000
00000000
00010000
01000000
10000000
00000000
,
00010000
00000000
10000000
00000000
00100000
00000000
01000000
00100000
,
00000000
10000000
01000000
00100000
00010000
01000000
00100000
00000000
,
10000000
01000000
10000000
00000000
01000000
00100000
00001000
00010000
,
00000000
00000010
00001000
00000000
00000001
00001000
00000100
00000000
,
00000010
00000001
00000100
00000010
00001000
00000100
00000010
00000001
,
00000000
00001000
00000100
00000000
00010000
00001000
00010000
00000000
,
00001000
01000000
00100000
00000000
10000000
01000000
00100000
01000000
,
00000000
10000000
00100000
00000000
00010000
00100000
10000000
00000000
,
01000000
00100000
00010000
00100000
01000000
00010000
00001000
00010000
,
00000000
00000100
00001000
00000000
00000001
00000010
00000100
00000000
,
00000001
00000100
00000001
00000000
00000100
00000010
00010000
00001000
,
00000000
00100000
00010000
00000000
10000000
00010000
01000000
00000000
,
00100000
10000000
01000000
00100000
00010000
01000000
00100000
10000000
,
00000000
00010000
01000000
00000000
00001000
00010000
00001000
00000000
,
00010000
00000100
00000010
00000000
00000001
00000100
00000010
00000100
,
00000000
00000001
00000010
00000000
00001000
00000010
00000001
00000000
,
00000100
00000010
00001000
00000010
00000100
00001000
00010000
00001000
,
00000000
01000000
00010000
00000000
10000000
00100000
01000000
00000000
,
00020000
00130000
00020000
01030000
,
00100000
00000000
00010000
00000000
00001000
00010000
00001000
00000000
,
00000200
00000301
00000200
00000310
,
00001000
00000000
00000100
00000000
00000010
00000001
00000010
00000000
,
00000001
00000100
00000010
00000000
00000010
00000100
00000001
00000000
,
00001000
00000000
00000100
00000000
00010000
00001000
00010000
00000000
,
00110000
00000000
00000000
01100000
00000000
00000000
11000000
00000000
,
00010000
01000000
10000000
00100000
,
01000000
00000000
01000000
00000000
01000000
00001000
00010000
00001000
,
00100000
00001000
00010000
00001000
01000000
00001000
01000000
00001000
,
00100000
00001000
00010000
00001000
01000000
00001000
01000000
00001000
,
00010000
00001000
00000100
00000000
00000010
00001000
00000100
00000000
,
00000010
00000001
00000010
00000100
00010000
00001000
00010000
00000000
,
00000010
00010000
00001000
00010000
00000100
00010000
00000100
00010000
,
00000010
00010000
00001000
00010000
00000100
00010000
00000100
00010000
,
00001000
00010000
01000000
00000000
00100000
00010000
01000000
00000000
,
00100000
10000000
00100000
01000000
00001000
00010000
00001000
00000000
,
00010000
00000010
00001000
00000001
00000100
00000010
00001000
00000100
,
00001000
00000100
00000010
00000001
00000100
00000010
00010000
00001000
,
00010000
01000000
10000000
00000000
00010000
01000000
10000000
00000000
,
01000000
00100000
10000000
01000000
00100000
00010000
10000000
00000000
,
00010000
00100000
00010000
10000000
01000000
00100000
00010000
01000000
,
00010000
01000000
00100000
10000000
01000000
00100000
00001000
00010000
,
00001000
00000100
00000001
00000000
00001000
00000100
00000001
00000000
,
00000100
00000010
00000001
00000100
00000010
00001000
00000001
00000000
,
00001000
00001000
00000100
00000100
,
00000001
00000001
00000010
00000010
,
00001000
00001000
00010000
00010000
,
00100000
00100000
10000000
10000000
,
00010000
01000000
00100000
01000000
00010000
01000000
00100000
00000000
,
10000000
01000000
00100000
01000000
10000000
01000000
00100000
00000000
,
00001000
00010000
00001000
00000100
00000001
00000010
00000100
00000010
,
00000001
00000010
00000100
00010000
00002000
00000000
00003000
00000000
,
00010000
00001000
00000000
00000000
00000000
00000000
00000000
01100000
,
00000000
10010000
00000000
00000000
00100000
01000000
00000000
00100000
,
00000000
10000000
01000000
00000000
00100000
00010000
01000000
00000000
,
00100000
00010000
00001000
00010000
00000000
00001000
00000000
00000100
,
00000001
00001000
00000100
00000000
00000110
00000000
00000000
00000001
,
00000100
00000010
00001000
00000000
00001001
00000000
00000010
00000000
,
00000100
00001000
00010000
00000000
00100000
01000000
00010000
00000000
,
01000000
00100000
01000000
00100000
10000000
00100000
,
10000000
00010000
01000000
00100000
10000000
01000000
00100000
00010000
,
01000000
00001000
00010000
00000100
00001000
00000001
00000010
00000100
,
00001000
00000001
00000100
00000000
00000001
00001000
00000100
00000000
,
00001000
00000010
00000100
00000010
00001000
00000100
00000000
00010000
,
00001000
00010000
01000000
00100000
00010000
01000000
00100000
10000000
,
00010000
01000000
00100000
01000000
00001000
00100000
00010000
00100000
,
01000000
00010000
00001000
00000000
00000100
00000010
00001000
00000000
,
00000100
00000010
00000001
00000100
00000010
00001000
00000100
00000000
,
00000110
00000000
00001000
00000001
00000000
00000200
00000020
00000000
,
00000000
00000000
00000000
00000000
,
00000000
00000000
00000000
00000000
,
00000330
00000000
00000000
00000001
00000000
00000000
00000000
00000100
00000000
00000000
00000000
00001000
00000000
00000000
00010000
00000000
,
00000000
00001000
00000000
00000000
,
00000000
00000000
00000000
00000000
;

//---------------dance-double - ----------------
#NOTES:
     dance-double:
     :
     Hard:
     16:
     :
00000000
00000000
00000000
00000000
,
00000000
00000000
00000000
00000000
,
00000000
00000000
00000000
00000000
,
00000000
00000000
00000000
00000000
,
00000000
00000000
00000000
00000000
,
00000000
00000000
00000000
00000000
,
00000010
00000000
00001001
00000000
00000010
00000001
00001000
00000100
,
00010000
00000000
00011000
00000000
01000000
00010000
10000000
00100000
,
01000000
00000000
10010000
00000000
01000000
10000000
00100000
10000000
,
10100000
10100000
00000000
00010000
01010000
01010000
00000000
00001000
,
00011000
00011000
00011000
00011000
00000000
00001010
00000000
00000000
,
00000100
00000000
00000001
00000000
00001000
00000100
00001000
00000100
00001000
00000000
00000100
00000000
00000010
00000001
00000010
00000001
,
00000010
00000000
00000001
00000000
00001000
00000010
00001000
00000010
00001000
00000000
00000010
00000000
00000100
00000010
00000100
00000010
,
00000100
00000000
00001000
00000000
00010000
00001000
00010000
00001000
00010000
00000000
01000000
00000000
00100000
01000000
00100000
01000000
,
00100000
00010000
01000000
00100000
10000000
00010000
10010000
00000000
,
01000000
00000000
10000000
00000000
00010000
01000000
00010000
01000000
00010000
00000000
01000000
00000000
00100000
10000000
00100000
10000000
,
00100000
00000000
10000000
00000000
00010000
00100000
00010000
00100000
00010000
00000000
00100000
00000000
01000000
00100000
01000000
00100000
,
01000000
00000000
00010000
00000000
00001000
00010000
00001000
00010000
00001000
00000000
00000100
00000000
00000010
00000100
00000010
00000100
,
00000010
00001000
00000100
00000010
00000001
00001000
00001001
00000000
,
00000010
00000000
00001000
00000000
00000100
00000000
00010000
00011000
,
00000000
00100000
00110000
00000000
01000000
10000000
00100000
00000000
,
01000000
00000000
00100000
00000000
10000000
00000000
01000000
01100000
,
00000000
00010000
00001000
00000100
00000010
00000001
00000100
00000010
,
00001000
00000001
00000100
00000000
00001000
00000100
00000001
00001000
,
00000000
00000000
00000100
00000000
00010000
00000000
00000000
00000000
00001000
00010000
00000010
00010000
00001000
00000000
00000000
00000000
,
00010000
00100000
10000000
00100000
01000000
00100000
10000000
01000000
,
00000000
00000000
00100000
00000000
00010000
00000000
01000000
00000000
00001000
00010000
00001000
00010000
00001000
00000000
00000000
00000000
,
00000100
00000001
00001000
00000000
00000100
00001000
00000010
00000100
,
00000000
00000000
00000001
00000000
00001000
00000000
00000000
00000000
00000100
00000010
00000001
00000010
00000100
00000000
00000000
00000000
,
00000010
00000001
00001000
00000100
00010000
00001000
00100000
00010000
,
00000000
00000000
10000000
00000000
00010000
00000000
01000000
00000000
00100000
10000000
00010000
10000000
00100000
00000000
10000000
00000000
,
00010000
10000000
01000000
00000000
00010000
01000000
10000000
00010000
,
00000000
00000000
01000000
00000000
00001000
00000000
00000000
00000000
00010000
00001000
00100000
00001000
00010000
00000000
00000000
00000000
,
00001000
00000010
00000001
00000010
00000100
00000010
00000001
00000100
,
00000000
00000000
00000010
00000000
00001000
00000000
00000100
00000000
00010000
00001000
00010000
00001000
00010000
00000000
00000000
00000000
,
01000000
10000000
00010000
00000000
01000000
00010000
00100000
01000000
,
00000000
00000000
10000000
00000000
00010000
00000000
00000000
00000000
01000000
00100000
10000000
00100000
01000000
00000000
00000000
00000000
,
00100000
10000000
00010000
01000000
00001000
00010000
00000010
00001000
,
00000000
00000000
00000001
00000000
00001000
00000000
00000100
00000000
00000010
00000001
00001000
00000001
00000010
00000000
00000001
00000000
,
00000012
00000103
00002010
00003100
,
00000010
00000000
00000000
00000000
00001000
00000000
00010000
00000000
00001000
00100000
00010000
00100000
00001000
00000000
00000000
00000000
,
02010000
03100000
12000000
03100000
,
00010000
00000000
00000000
00000000
01000000
00000000
00100000
00000000
10000000
00010000
01000000
00010000
10000000
00000000
00000000
00000000
,
01000000
00010000
00001000
00000000
00000010
00000100
00001000
00000000
,
00000001
00000000
00000100
00000000
00000010
00000000
00001000
00000000
00000001
00000100
00000010
00000100
00000001
00000000
00000000
00000000
,
00000110
00001000
00000100
00001100
00010000
00001000
00011000
00100000
,
00010000
00100000
00010000
00000000
10000000
01000000
10000000
00000000
00010000
01000000
00010000
00000000
10000000
00100000
10000000
00000000
,
01000000
00000000
00000000
00000000
01000000
00000000
00000000
00000000
01000000
00000000
10000000
00010000
10000000
00010000
10000000
00000000
,
00100000
00000000
10000000
00000000
01000000
00100000
01000000
00000000
00100000
00000000
00001000
00000000
00010000
00001000
00010000
00000000
,
00000010
00000000
00001000
00000000
00000001
00000100
00000001
00000000
00000100
00000000
00000010
00000000
00001000
00000001
00001000
00000000
,
00000100
00000010
00000001
00000100
00001000
00010000
01000000
10000000
,
00100000
00010000
00100000
10000000
00100000
01000000
10010000
00000000
,
01000000
00000000
00100000
00000000
00010000
00100000
00010000
00000000
01000000
00000000
00100000
00000000
10000000
00100000
10000000
00000000
,
01000000
00000000
00100000
00000000
00010000
10000000
00010000
00000000
01000000
00000000
00001000
00000000
00010000
00001000
00010000
00000000
,
00001000
00000100
00000001
00000010
00001000
00000010
00000001
00000100
,
00000001
00001000
00000100
00010000
00001000
00100000
00110000
00000000
,
10000000
00000000
00100000
00000000
01000000
00100000
01000000
00100000
01000000
00000000
00010000
00000000
10000000
01000000
10000000
01000000
,
10000000
00000000
01000000
00000000
00100000
00010000
00100000
00010000
00100000
00000000
00001000
00000000
00010000
00001000
00010000
00001000
,
00010000
00001000
00000100
00001000
00010000
00001000
00000100
00000010
,
00001000
00000100
00000010
00000001
00000100
00000010
00000110
00000000
,
00000001
00000000
00000010
00000000
00000100
00000010
00000100
00000010
00000100
00000000
00001000
00000000
00000001
00000100
00000001
00000100
,
00000001
00000000
00000100
00000000
00000010
00001000
00000010
00001000
00000010
00000000
00010000
00000000
00001000
00010000
00001000
00010000
,
00001000
00010000
01000000
10000000
00100000
01000000
00010000
00100000
,
00010000
01000000
00100000
10000000
01000000
00010000
00001000
00010000
,
00001000
00001000
00001010
00001010
,
00000001
00000001
00000011
00000011
,
00000100
00000100
00000110
00000110
,
00001000
00001000
00011000
00011000
,
00100000
00000000
01000000
00000000
00010000
01000000
00010000
00000000
10000000
01000000
10000000
00000000
00010000
01000000
00010000
00000000
,
10000000
00000000
01000000
00000000
00100000
00010000
00100000
00000000
00010000
10000000
00010000
00000000
01000000
00010000
01000000
00000000
,
00001000
00010000
00001000
00000000
00010000
00000010
00010000
00000000
00000010
00001000
00000010
00000000
00000100
00000010
00000100
00000000
,
00000010
00001000
00000100
00000010
00000001
00000100
00000010
00001000
00000002
00000000
00000000
00000000
00000003
00000000
00000000
00000000
,
00000110
00000110
00000000
00000000
00000000
00000000
00000000
00001010
,
00000000
00011000
00000000
00000000
00100000
10010000
00000000
00100000
,
00000000
10000000
01000000
00100000
00001000
01000000
00010000
00100000
,
00001000
00010000
00000100
00001000
00000001
00000010
00000100
00001000
00000001
00000100
00000010
00001000
,
00000010
00001000
00000001
00001000
00001001
00000000
00000000
00000001
,
00000100
00001000
00010000
00001000
00011000
00000000
01000000
00000000
,
00100000
00010000
00100000
00010000
10000000
01000000
10000000
01000000
,
10000000
10000000
10000000
00010000
00010000
00010000
,
01000000
00000000
00100000
00000000
10000000
01000000
10000000
00000000
01000000
00100000
01000000
00000000
00100000
00010000
00100000
00000000
,
00001000
00000000
00010000
00000000
00000010
00001000
00000010
00000000
00000100
00000010
00000100
00000000
00000001
00000100
00000001
00000000
,
00000010
00000001
00000100
00001000
00000001
00000010
00001000
00000100
,
00010000
00010000
00001000
00001000
00100000
00110000
00000000
01000000
,
00100000
00000000
01000000
00000000
10000000
00100000
10000000
00000000
00100000
01000000
00100000
00000000
01000000
00010000
01000000
00000000
,
00001000
00000000
00010000
00000000
00000100
00001000
00000100
00000000
00000010
00000100
00000010
00000000
00000001
00000010
00000001
00000000
,
00000100
00000001
00000010
00001000
00000001
00000100
00001000
00000010
,
00000100
00000010
00000100
00000000
00001000
00010000
00001000
00000000
00100000
00010000
00100000
00000000
01000000
00100000
01000000
00000000
,
10010000
10000000
00100000
10100000
01000000
00010000
02020000
00000000
,
00000000
00000000
00000000
00000000
,
00000000
00000000
00000000
00000000
,
03030000
00000000
00000000
00100000
00000000
00000000
00000000
00010000
00000000
00000000
00000000
00001000
00000000
00000000
00000100
00000000
,
00000000
00000001
00000000
00000000
,
00000000
00000000
00000000
00000000
;
