#TITLE:虹色の花;
#ARTIST:Akhuta y OJ;
#TITLETRANSLIT:Nijiiro no hana;
#BANNER:Nijiiro no hana.png;
#BACKGROUND:Nijiiro no hana-bg.png;
#CDTITLE:./CDTitles/DanceDanceRevolution 2013.png;
#MUSIC:Nijiiro no hana.ogg;
#SAMPLESTART:62.824;
#SAMPLELENGTH:15;
#BPMS:0=170;
#STAGE:1;

//---------------dance-single - ----------------
#NOTES:
     dance-single:
     :
     Beginner:
     3:
     :
0000
0000
0000
0000
,
0000
0000
0000
0000
,
0000
0000
0000
0000
,
0010
0000
0000
0000
,
0010
0000
0000
0000
,
0100
0000
0000
0000
,
0100
0000
0000
0000
,
0010
0000
0010
0000
,
0100
0000
0100
0000
,
0010
0000
0000
0000
,
0100
0000
0000
0000
,
0001
0000
0000
0000
,
1000
0000
1000
0000
,
1000
0000
0000
0000
,
0001
0000
0001
0000
,
0001
0000
0000
0000
,
0100
0000
0000
0000
,
0010
0000
0010
0000
,
0100
0000
0000
0000
,
0010
0000
0000
0000
,
0100
0000
0100
0000
,
0100
0000
0000
0000
,
0010
0000
0010
0000
,
0010
0000
0000
0000
,
1000
0000
0000
0000
,
0001
0000
0001
0000
,
1000
0000
0000
0000
,
1001
0000
0000
0000
,
0001
0000
1000
0000
,
0001
0000
0000
0000
,
1000
0000
0001
0000
,
1000
0000
0000
0000
,
0001
0000
1000
0000
,
0001
0000
0000
0000
,
1001
0000
0000
0000
,
1001
0000
0000
0000
,
0010
0000
0100
0000
,
0010
0000
0000
0000
,
0100
0000
0010
0000
,
0100
0000
0000
0000
,
0010
0000
0100
0000
,
0010
0000
0000
0000
,
0110
0000
0000
0000
,
0110
0000
0000
0000
,
0000
0000
0000
0000
,
0001
0000
0001
0000
,
0001
0000
0001
0000
,
0000
0000
0010
0000
,
0000
0000
0000
0000
,
1000
0000
1000
0000
,
1000
0000
1000
0000
,
0000
0000
0010
0000
,
0000
0000
0000
0000
,
0100
0000
0100
0000
,
0100
0000
0100
0000
,
0000
0000
0010
0000
,
0000
0000
0000
0000
,
0010
0000
0010
0000
,
0010
0000
0010
0000
,
0000
0000
0100
0000
,
0100
0000
0100
0000
,
0000
0000
0000
0000
,
0000
0000
1001
0000
,
0000
0000
1001
0000
,
0000
0000
0001
0000
,
0000
0000
0001
0000
,
0000
0000
0010
0000
,
0000
0000
0010
0000
,
0000
0000
0100
0000
,
0000
0000
0100
0000
,
0000
0000
1000
0000
,
0000
0000
1000
0000
,
0000
0000
0020
0000
,
0000
0000
0000
0000
,
0030
0000
0100
0000
,
0000
0000
0100
0100
,
0100
0000
0000
0000
,
0000
0000
0000
0000
;

//---------------dance-single - ----------------
#NOTES:
     dance-single:
     :
     Easy:
     5:
     :
0000
0000
0000
0000
,
0000
0000
0000
0000
,
0000
0000
0000
0000
,
0010
1000
1000
0000
,
0100
1000
1000
0000
,
0010
0001
0001
0000
,
0100
0001
0001
0000
,
0010
0010
1000
0000
,
0100
0100
1000
0000
,
0010
0010
0001
0000
,
0100
0100
0001
0000
,
1000
0000
1000
0000
,
0010
0010
0100
0000
,
0001
0000
0001
0000
,
0100
0100
0010
0000
,
2000
0000
3000
0000
,
0002
0000
0003
0000
,
2000
0000
3000
0000
,
0010
0100
0010
0000
,
0001
0000
0001
0000
,
0100
0100
0010
0000
,
1000
0000
1000
0000
,
0010
0010
0100
0000
,
0002
0000
0003
0000
,
2000
0000
3000
0000
,
0002
0000
0003
0000
,
0100
0010
0100
0000
,
0200
0000
0000
0000
,
0300
0010
0010
0010
,
1000
1000
1000
1001
,
0000
0001
0001
0001
,
0100
0100
0220
0330
,
0000
0001
0001
0001
,
1000
1000
1000
1001
,
2000
0000
0000
0000
,
3002
0000
0000
0000
,
0003
0100
0100
0100
,
0001
0001
0001
1001
,
0000
1000
1000
1000
,
0010
0010
0220
0330
,
0000
1000
1000
1000
,
0001
0001
0001
1001
,
0002
0000
0000
0000
,
2003
0000
0000
0000
,
3000
0000
0000
0000
,
0002
0000
0203
0000
,
0302
0000
0013
0100
,
0010
0001
0100
0001
,
0100
0001
0000
0000
,
2000
0000
3020
0000
,
2030
0000
3100
0010
,
0100
1000
0010
1000
,
0010
1000
0000
0000
,
0002
0000
0023
0000
,
0230
0000
1300
0010
,
0100
0001
0100
0010
,
1000
0110
0000
0000
,
2000
0000
3020
0000
,
0230
0000
1300
0100
,
0010
0001
0010
0100
,
1000
0110
0001
0001
,
1000
1000
0020
0000
,
0130
1001
0020
0000
,
0000
0000
0230
0000
,
0000
0000
0301
0001
,
0010
0010
0100
0100
,
1000
1000
0010
0010
,
0100
0100
0002
0000
,
0000
0000
0013
0010
,
0001
0001
0010
0100
,
1000
1000
0020
0000
,
0230
0000
0302
0000
,
2003
0000
3020
0000
,
0000
0000
0000
0000
,
0000
0000
0130
0001
,
1000
0100
0020
0000
,
0130
1001
0000
0000
,
0000
0000
0000
0000
;

//---------------dance-single - ----------------
#NOTES:
     dance-single:
     :
     Medium:
     8:
     :
0000
0000
0000
0000
,
0000
0000
0000
0000
,
0000
0000
0000
0000
,
1000
0100
1000
0010
,
1000
0100
0001
0100
,
1000
0010
0100
0001
,
0100
0010
0100
0000
0010
0000
1001
0000
,
0001
0100
0001
0010
,
0001
0100
1000
0100
,
0001
0010
0100
1000
,
0100
1000
0001
0100
,
1001
0000
2000
0000
3100
0010
0001
0000
,
0100
0100
0010
0010
,
0100
0000
0002
0000
0103
0010
1000
0000
,
0100
0100
0010
0010
,
0001
0000
1000
0000
0001
0100
0001
0000
,
1000
0000
0001
0000
1000
0100
1000
0000
,
2000
0000
0000
3020
0000
0000
0230
0000
,
0302
0000
0100
0103
0000
0000
0000
0000
,
1001
0000
0002
0000
0013
0100
1000
0000
,
0010
0010
0100
0100
,
0010
0000
2000
0000
3010
0100
0001
0000
,
0010
0010
0100
0100
,
1000
0000
0001
0000
1000
0010
1000
0001
,
0000
0000
1000
0000
0001
0010
0001
0000
,
0002
0000
0000
0203
0000
0000
0320
2030
,
0000
0000
0010
0020
0000
0000
0000
0000
,
0000
0000
0000
3030
,
0000
0110
1001
1010
,
1100
0011
0101
1100
,
0000
1001
0110
0101
,
0011
0000
1100
0000
1000
0100
0001
0000
,
0000
0110
1001
0011
,
0101
0000
1010
0000
1000
0100
0001
0000
,
0100
0000
0000
0100
0000
0000
0100
0000
,
0110
0000
0000
0010
0000
0010
0010
0000
,
0000
0110
1001
0101
,
0011
1100
1010
0011
,
0000
1001
0110
1010
,
1100
0000
0011
0000
0001
0010
1000
0000
,
0000
0110
1001
1100
,
1010
0000
0101
0000
0001
0010
1000
0000
,
0010
0000
0000
0010
0000
0000
0010
0000
,
0110
0000
0000
0100
0000
0100
0200
0000
,
0000
0300
0000
0000
,
0001
0100
0010
1000
,
0100
0000
0010
0000
0001
0010
0001
0000
,
0100
0010
0100
0000
0010
1000
0100
0000
,
0110
1001
0000
0000
,
1000
0010
0100
0001
,
0010
0000
0100
0000
1000
0100
1000
0000
,
0010
0100
0010
0000
0100
0001
0010
0000
,
0110
1001
0000
0001
,
0010
1000
0010
0001
,
1000
0000
0100
0000
1000
0100
0010
0000
,
0001
1000
0100
0000
1000
0010
0100
0000
,
1001
0110
0000
0000
,
1000
0100
0001
0100
,
1000
0000
0001
0000
0010
0100
0000
0010
,
0000
0000
1001
0000
0001
0100
0000
0010
,
0010
1001
0010
1000
,
0001
0100
0000
0010
0000
1000
0000
0001
,
0010
0110
0002
0000
,
0000
0000
2003
0000
,
0000
0000
0000
0000
3001
0010
0001
0000
,
1000
0000
0100
0000
1000
0100
1000
0000
,
0010
0000
0100
0000
0001
0010
0001
0000
,
0001
0010
1000
0000
1000
0010
1000
0000
,
0011
1001
0010
0100
,
1000
0000
0010
0000
0100
0001
0010
0000
,
0100
1000
0010
0000
0100
0000
0010
0000
,
0100
0001
0010
0000
0100
0000
0010
0000
,
0100
1000
0010
0000
0200
0000
0000
0000
,
0010
0000
0000
0010
0000
0000
0310
0000
2000
0000
0000
0000
3100
0000
0020
0000
,
0000
0031
0100
0000
0101
0000
0011
0000
,
0100
0010
0000
1010
0000
1100
0000
0100
,
0020
0130
0000
0000
,
0000
0000
0000
0000
;

//---------------dance-single - ----------------
#NOTES:
     dance-single:
     :
     Hard:
     11:
     :
0000
0000
0000
0000
,
0000
0000
0000
0000
,
0000
0000
0000
0000
,
0010
0000
1000
0100
0000
1000
0010
0000
,
1000
0010
0001
0010
0000
0100
0010
0000
,
0100
0000
1000
0100
0000
0001
0010
0000
,
0001
0010
0100
0010
0000
0001
0100
0000
,
0100
0000
0001
0010
0000
0001
0100
0000
,
0001
0100
1000
0100
0000
0010
0100
0000
,
0001
0000
0010
0100
0000
1000
0100
0000
,
0010
0000
0001
0100
0000
0001
0010
0000
,
0001
0000
1100
0000
0001
0100
0010
0000
,
1000
0000
0101
0000
1000
0100
0010
0000
,
0001
0010
2000
0000
3010
0001
0100
0010
,
1000
0000
0001
0100
0000
1000
0100
0000
,
0101
0000
0010
1000
0000
1000
0010
0000
,
1100
0000
0001
0010
0000
0010
0001
0000
,
0110
0000
0001
1000
0000
1000
0001
0000
,
1000
0100
0001
0100
0000
1000
0100
0000
,
1000
0000
0011
0000
1000
0010
0100
0000
,
0001
0000
0100
0010
0000
1000
0100
0000
,
1000
0100
0002
0000
0103
1000
0010
0100
,
0001
0000
1000
0010
0000
0001
0010
0000
,
1010
0000
0100
0001
0000
0001
0100
0110
,
0000
0000
1000
0100
0000
0100
1000
0000
,
0110
0000
1000
0001
0000
0001
1000
1001
,
0000
0000
0010
0000
1000
0000
0010
0000
0000
0000
0001
0000
0010
0000
0000
0100
,
0000
0000
1000
0000
0000
0001
0000
0000
0010
0000
0100
0000
0010
0000
0000
0000
,
0100
1010
1100
1010
,
0100
1000
0100
0001
0100
1000
0100
0000
,
0100
0011
0101
0011
,
0100
0001
0100
1000
0100
0100
0100
0000
,
0100
1010
1100
1001
,
0001
0010
1000
0010
0001
0010
1000
0000
,
0020
0000
0031
0200
0000
0310
2000
0000
,
3100
0100
1000
0010
0000
0000
1001
0000
,
0010
0101
0011
0101
,
0010
0001
0010
1000
0010
0001
0010
0000
,
0010
1100
1010
1100
,
0010
1000
0010
0001
0010
0010
0010
0000
,
0010
0101
0011
1001
,
1000
0100
0001
0100
1000
0100
0001
0000
,
0200
0000
1300
0020
0000
0130
0002
0000
,
0023
0000
0031
0200
0000
0310
1001
0000
,
0000
0000
0110
0001
,
0100
0001
0010
0000
0100
1000
0010
0000
,
1000
0010
0100
0000
0002
0000
0103
0000
,
2000
0000
3100
0000
0020
0000
0130
0010
,
0000
0100
0100
0000
1001
0000
1000
0000
,
0010
1000
0100
0000
0010
0001
0100
0000
,
0001
0100
0010
0000
2000
0000
3010
0000
,
0002
0000
0013
0000
0200
0000
0310
0100
,
0000
0010
0010
0100
0001
0000
1000
0000
,
0001
0010
1000
0000
0010
0001
0100
0000
,
1000
0100
0001
0010
1000
0000
0010
0001
,
0100
0000
1100
0000
0100
0001
0010
0002
,
0000
0013
0010
0000
1000
0000
0001
0000
,
1000
0100
0001
0000
0100
1000
0010
0000
,
0001
0010
1000
0100
0001
0100
1000
0010
,
0000
0100
0100
0000
0001
0010
0100
2000
,
0000
0001
3001
0000
1010
0000
1100
0000
,
0010
0100
0000
1001
0000
0110
0000
0100
,
1000
0101
0002
0000
,
0000
0000
0000
0000
1003
0100
0001
0100
,
1000
0010
0100
0010
1000
0000
1000
0100
,
0000
0001
0010
0000
0100
0000
1000
0010
,
0000
0001
0010
0000
1000
0100
0001
0100
,
1000
0001
0100
1000
0100
0100
0001
0001
,
0010
0000
0000
0010
0000
0000
0010
0000
0001
0000
0100
0000
0001
0000
0100
0000
,
0020
0000
0230
0000
0010
0010
0310
1000
,
0100
0000
0010
0000
0001
0100
1000
0100
,
0001
1000
0100
0001
0100
1000
0010
0001
,
0010
1000
0001
0010
0200
0000
0000
0000
,
0010
0000
0000
0010
0000
0000
0310
0000
0001
0000
0001
0000
0100
0000
0010
0000
,
0010
1000
0100
0000
1100
0000
0101
0000
,
0010
1000
0000
1010
0000
0101
0000
0001
,
0010
1001
0000
0000
,
0000
0000
0000
0000
;

//---------------dance-double - ----------------
#NOTES:
     dance-double:
     :
     Easy:
     5:
     :
00000000
00000000
00000000
00000000
,
00000000
00000000
00000000
00000000
,
00000000
00000000
00000000
00000000
,
10000000
01000000
01000000
00000000
,
00100000
00001000
00001000
00000000
,
01000000
00001000
00001000
00000000
,
00000100
00000010
00000010
00000000
,
00000001
00000001
00000010
00000000
,
00000100
00000100
00001000
00000000
,
00010000
00010000
00001000
00000000
,
01000000
01000000
00100000
00000000
,
00010000
00000000
01000000
00000000
,
00010000
00100000
00001000
00000000
,
00010000
00000000
00001000
00000000
,
00000100
00000001
00000010
00000000
,
00000002
00000000
00000003
00000000
,
00000020
00000000
00000030
00000000
,
00000200
00000000
00010300
00000000
,
00001000
00010000
00001000
00000000
,
00001000
00000000
00000010
00000000
,
00001000
00000100
00010000
00000000
,
00001000
00000000
00010000
00000000
,
00100000
10000000
01000000
00000000
,
20000000
00000000
30000000
00000000
,
02000000
00000000
03000000
00000000
,
00200000
00000000
00301000
00000000
,
00010000
00001000
00010000
00000000
,
00002000
00000000
00000000
00000000
,
00003000
00000100
00000100
00000100
,
00000010
00000010
00001000
00001001
,
00000000
00010000
00010000
00010000
,
00001000
00001000
00022000
00033000
,
00000000
00010000
00010000
00010000
,
01000000
01000000
01000000
10010000
,
20000000
00000000
00000000
00000000
,
30020000
00000000
00000000
00000000
,
00030000
01000000
01000000
01000000
,
00100000
00100000
00010000
10010000
,
00000000
00001000
00001000
00001000
,
00010000
00010000
00022000
00033000
,
00000000
00001000
00001000
00001000
,
00000100
00000100
00000100
00001001
,
00000002
00000000
00000000
00000000
,
00002003
00000000
00000000
00000000
,
00003000
00000000
00000000
00000000
,
00000002
00000000
00000203
00000000
,
00002300
00000000
00013000
00001000
,
00010000
01000000
00100000
00010000
,
01000000
00100000
00000000
00000000
,
20000000
00000000
32000000
00000000
,
03020000
00000000
00031000
00010000
,
00001000
00000100
00000010
00001000
,
00000100
00000010
00000000
00000000
,
00000002
00000000
00000023
00000000
,
00000230
00000000
00001300
00000100
,
00010000
01000000
00100000
00010000
,
10000000
01100000
00000000
00000000
,
20000000
00000000
30200000
00000000
,
02300000
00000000
03010000
01000000
,
00001000
00000100
00000010
00001000
,
00000001
00000110
00001000
00001000
,
00000001
00000001
00000200
00000000
,
00000310
00001000
00000200
00000000
,
00000000
00000000
00020300
00000000
,
00000000
00000000
00031000
00001000
,
00010000
00010000
00100000
00100000
,
00010000
00010000
00001000
00000100
,
00000001
00000010
00000200
00000000
,
00000000
00000000
00000310
00000010
,
00000100
00000100
00010000
00001000
,
01000000
01000000
00200000
00000000
,
02300000
00000000
03002000
00000000
,
00023000
00000000
00230000
00000000
,
00000000
00000000
00000000
00000000
,
00000000
00000000
01300000
00010000
,
10000000
01000000
00200000
00000000
,
00310000
00011000
00000000
00000000
,
00000000
00000000
00000000
00000000
;

//---------------dance-double - ----------------
#NOTES:
     dance-double:
     :
     Medium:
     8:
     :
00000000
00000000
00000000
00000000
,
00000000
00000000
00000000
00000000
,
00000000
00000000
00000000
00000000
,
00000001
00000010
00000001
00000100
,
00000010
00010000
00001000
00100000
,
10000000
00100000
00010000
01000000
,
00001000
00010000
00001000
00000000
00100000
00000000
10010000
00000000
,
10000000
00100000
10000000
01000000
,
00100000
00001000
00010000
00000010
,
00000001
00000010
00001000
00000100
,
00010000
00001000
00010000
00000000
00000010
00000000
00001001
00000000
,
00000100
00000000
00000002
00000000
00000103
00001000
00010000
00000000
,
00001000
00001000
00010000
00010000
,
01000000
00000000
20000000
00000000
31000000
00010000
00001000
00000000
,
00010000
00010000
00001000
00001000
,
00010000
00000000
01000000
00000000
00010000
00001000
00000100
00000000
,
00001000
00000000
00000100
00000000
00001000
00010000
01000000
00000000
,
00200000
00000000
00000000
00320000
00000000
00000000
00032000
00000000
,
00003200
00000000
00000010
00000310
00000000
00000000
00000000
00000000
,
00000001
00000000
00002000
00000000
00003100
00010000
00000010
00000000
,
00001000
00001000
00000100
00000100
,
00010000
00000000
00200000
00000000
10300000
01000000
00010000
00000000
,
00001000
00001000
00010000
00010000
,
00001000
00000000
00000100
00000000
00000001
00000010
00000100
00000001
,
00000000
00000000
00000100
00000000
00001000
00000100
00001000
00000000
,
00000200
00000000
00000000
00020300
00000000
00000000
00032000
02003000
,
00000000
00000000
00100000
00200000
00000000
00000000
00000000
00000000
,
00000000
00000000
00000000
03300000
,
00000000
01100000
10010000
00110000
,
00011000
00001100
00000110
00000101
,
00000000
00001001
00000110
00001100
,
00011000
00000000
00110000
00000000
00010000
01000000
10000000
00000000
,
00000000
01100000
10010000
00110000
,
00011000
00000000
00001010
00000000
00001000
00000100
00000001
00000000
,
00000100
00000000
00000000
00001000
00000000
00000000
00000100
00000000
,
00011000
00000000
00000000
00010000
00000000
00001000
00001000
00000000
,
00000000
00000110
00001001
00001010
,
00011000
01010000
01100000
11000000
,
00000000
10010000
01100000
01010000
,
00011000
00000000
00001010
00000000
00001000
00000100
00000001
00000000
,
00000000
00000110
00001001
00001010
,
00011000
00000000
00110000
00000000
00010000
01000000
10000000
00000000
,
01000000
00000000
00000000
00010000
00000000
00000000
00100000
00000000
,
00011000
00000000
00000000
00001000
00000000
00010000
00020000
00000000
,
00000000
00030000
00000000
00000000
,
00002000
00003100
00000020
00000130
,
00000002
00000000
00000013
00000000
00000001
00000100
00001000
00000000
,
00000100
00001000
00010000
00000000
00001000
00100000
01000000
00000000
,
01100000
10010000
00000000
00000000
,
20000000
00000000
31000000
00100000
00020000
00000000
00130000
00001000
,
00020000
00000000
00031000
00000100
00000010
00000000
00001000
00000000
,
00000100
00000010
00000001
00000000
00000100
00000010
00010000
00000000
,
00001010
00001001
00000000
00000000
,
00000002
00000000
00000103
00000010
00002000
00000000
00003010
00010000
,
00002000
00000000
00013000
01000000
00100000
00000000
00010000
00000000
,
01000000
00100000
10000000
00000000
01000000
00100000
00001000
00000000
,
00110000
10010000
00000000
00000000
,
20000000
31000000
00020000
00031000
,
00000200
00000000
00000301
00000000
00000100
00000010
00000000
00000100
,
00000000
00000000
00001001
00000000
00010000
00001000
00000000
00010000
,
00010000
00011000
00100000
10000000
,
00010000
01000000
00000000
00001000
00000000
00010000
00000000
00001000
,
00010000
00011000
00000200
00000000
,
00000000
00000000
00000320
00000000
,
00000000
00000000
00000000
00000000
00000031
00000100
00000001
00000000
,
00001000
00000000
00000100
00000000
00010000
00001000
00010000
00000000
,
00001000
00000000
01000000
00000000
00010000
00100000
00010000
00000000
,
10000000
00100000
00010000
00100000
10000000
01000000
00010000
00000000
,
00110000
00011000
00100000
10000000
,
01000000
10000000
01000000
00000000
00100000
00001000
00010000
00000000
,
00001000
00010000
00000100
00000000
00000010
00000000
00000001
00000000
,
00000001
00000100
00001000
00000000
00010000
00000000
00001000
00000000
,
00010000
01000000
10000000
00000000
02000000
00000000
00000000
00000000
,
00100000
00000000
00000000
00100000
00000000
00000000
03100000
00000000
00020000
00000000
00000000
00000000
00130000
00000000
00002000
00000000
,
00000000
00013000
00000100
00000000
00010100
00000000
00010010
00000000
,
00000100
00001000
00000000
00110000
00000000
01010000
00000000
01000000
,
00200000
01300000
00000000
00000000
,
00000000
00000000
00000000
00000000
;

//---------------dance-double - ----------------
#NOTES:
     dance-double:
     :
     Hard:
     11:
     :
00000000
00000000
00000000
00000000
,
00000000
00000000
00000000
00000000
,
00000000
00000000
00000000
00000000
,
00000001
00000000
00000010
00000100
00000000
00000010
00000001
00000000
,
00000001
00000100
00001000
00010000
00000000
01000000
10000000
00000000
,
00100000
00000000
01000000
01000000
00000000
00010000
00100000
00000000
,
00010000
00100000
01000000
00100000
00001000
00000100
00000010
00000000
,
00000001
00000000
00000100
00000010
00000000
00000100
00000001
00000000
,
00000001
00000010
00001000
00010000
00000000
00100000
10000000
00000000
,
01000000
00000000
00100000
00100000
00000000
00010000
01000000
00000000
,
00010000
01000000
00100000
01000000
00001000
00000010
00000100
00000000
,
00000001
00000000
00000101
00000000
00000010
00000100
00001000
00000000
,
00010000
00000000
00011000
00000000
00001000
00010000
01000000
00000000
,
00010000
01000000
20000000
00000000
30100000
00010000
00001000
00000100
,
00000001
00000000
00000100
00000010
00000000
00000010
00000100
00000000
,
00000110
00000000
00001000
00010000
00000000
00010000
00100000
00000000
,
01100000
00000000
00010000
00001000
00000000
00001000
00000010
00000000
,
00000110
00000000
00001000
00010000
00000000
00010000
01000000
00000000
,
10000000
01000000
00010000
01000000
00000000
00100000
01000000
00000000
,
10000000
00000000
11000000
00000000
00100000
01000000
00010000
00000000
,
00001000
00000000
00011000
00000000
00010000
00001000
00000100
00000000
,
00001000
00000100
00000002
00000000
00000013
00001000
00000010
00000001
,
00000100
00000000
00000001
00000010
00000000
00001000
00000010
00000000
,
00000110
00000000
00000100
00010000
00000000
00010000
01000000
00200000
,
00000000
00000000
00310000
01000000
00000000
00001000
00010000
00000000
,
00011000
00000000
00001000
00000100
00000000
00000001
00001000
00001001
,
00000000
00000000
00000001
00000000
00000010
00000000
00000100
00000000
00000000
00000000
00001000
00000000
00000100
00000000
00000000
00010000
,
00000000
00000000
00001000
00000000
00000000
01000000
00000000
00000000
00100000
00000000
01000000
00000000
00100000
00000000
00000000
00000000
,
01000000
10100000
11000000
10100000
,
01000000
10000000
01000000
00010000
00001000
00000100
00000001
00000010
,
00000100
00000011
00000101
00000011
,
00000100
00000001
00000100
00001000
00010000
00010000
00010000
01000000
,
00100000
00110000
01010000
10010000
,
10000000
00100000
00010000
00001000
00000010
00000001
00000100
00000010
,
00000200
00000000
00000301
00000020
00000000
00000130
00002000
00000000
,
00003100
00000100
00010000
00001000
00000000
00001000
00010000
00000000
,
00100000
01010000
00110000
01010000
,
00100000
00010000
00001000
00010000
00100000
00010000
00001000
00010000
,
00000100
00001100
00001010
00001100
,
00000010
00001000
00010000
00001000
00010000
00010000
00010000
00001000
,
00100000
01010000
00011000
00001100
,
00000001
00000100
00001000
00010000
01000000
10000000
00100000
00000000
,
02000000
00000000
13000000
00200000
00000000
01300000
00002000
00000000
,
00023000
00000000
00031000
00000200
00000000
00000310
00001001
00000000
,
00000000
00000000
00011000
00001000
,
00010000
00001000
00000100
00000000
00001000
00010000
01000000
00000000
,
00010000
00001000
00000100
00000000
00000020
00000000
00001030
00000000
,
00020000
00000000
00031000
00000000
00002000
00000000
00013000
00001000
,
00000000
00010000
00010000
00000000
00011000
00000000
00010000
00000000
,
00001000
00010000
00100000
00000000
00010000
00001000
00000010
00000000
,
00001000
00010000
00100000
00000000
02000000
00000000
03010000
00000000
,
00002000
00000000
00013000
00000000
00020000
00000000
00031000
00010000
,
00000000
00001000
00001000
00000000
00011000
00000000
00000100
00000000
,
00000001
00000100
00001000
00000000
00000001
00000100
00001000
00000000
,
00010000
01000000
10000000
00100000
01000000
00000000
00100000
10000000
,
01000000
00000000
11000000
00000000
01000000
10000000
00100000
00010000
,
00100000
01000000
00010000
00000000
00011000
00000000
01000000
00000000
,
10000000
01000000
00010000
00000000
10000000
01000000
00010000
00000000
,
00001000
00000100
00000001
00000010
00000100
00001000
00000010
00000100
,
00000000
00000001
00000100
00000000
00000100
00000001
00000010
00001000
,
00000010
00000100
00001000
00000000
00001100
00000000
00001010
00000000
,
00010000
00001000
00000000
00011000
00000000
00110000
00000000
01000000
,
10000000
01010000
00002000
00000000
,
00000000
00000000
00000000
00000000
00013000
00000100
00000001
00000100
,
00010000
00001000
00100000
01000000
10000000
00010000
01000000
00100000
,
00000000
00010000
00100000
00000000
01000000
00000000
00010000
00100000
,
00000000
10000000
00100000
00000000
10000000
01000000
00010000
01000000
,
00010000
00001000
00000010
00000001
00000100
00000100
00000010
00000010
,
00001000
00000000
00000000
00000100
00000000
00000000
00010000
00000000
01000000
00000000
00100000
00000000
00001000
00000000
00010000
00000000
,
00002000
00000000
00023000
00000000
00001000
00001000
00031000
00000100
,
00000010
00000000
00000100
00000000
00000001
00000100
00001000
00000100
,
00010000
00001000
00000010
00000100
00000010
00001000
00000100
00010000
,
01000000
10000000
00010000
00100000
02000000
00000000
00000000
00000000
,
00100000
00000000
00000000
00100000
00000000
00000000
03100000
00000000
00001000
00000000
00001000
00000000
00010000
00000000
00001000
00000000
,
00001000
00000100
00000010
00000000
00000101
00000000
00001010
00000000
,
00010000
00001000
00000000
01010000
00000000
10100000
00000000
00010000
,
00100000
10010000
00000000
00000000
,
00000000
00000000
00000000
00000000
;
