#TITLE:New Gravity;
#ARTIST:Starving Trancer;
#BANNER:New Gravity.png;
#BACKGROUND:New Gravity-bg.png;
#CDTITLE:./CDTitles/DanceDanceRevolution 2013.png;
#MUSIC:New Gravity.ogg;
#SAMPLESTART:17.147;
#SAMPLELENGTH:15;
#BPMS:0=154;
#STAGE:2;

//---------------dance-single - ----------------
#NOTES:
     dance-single:
     :
     Beginner:
     3:
     :
0000
0000
0000
0000
,
0000
0000
0000
0000
,
0000
0000
0000
0000
,
0000
0000
0000
0000
,
0000
0000
0000
0000
,
1000
0000
0001
0000
,
1000
0000
1000
0000
,
0001
0000
1000
0000
,
0010
0010
0010
0000
,
2002
0000
3003
0000
,
0001
0000
1000
0000
,
0001
0001
0001
0000
,
0010
0000
0100
0000
,
1000
1000
1000
0000
,
0010
0000
0100
0000
,
0001
0001
0001
0000
,
0100
0000
0010
0000
,
1000
0000
0001
0000
,
1000
0000
1001
0000
,
0010
0000
0000
0000
,
1000
0000
0000
0000
,
0100
0000
0000
0000
,
0001
0000
0000
0000
,
0010
0000
0010
0000
,
1000
0000
1000
0000
,
0100
0000
0100
0000
,
1001
0000
0000
0000
,
0001
0000
0100
0000
,
1000
0000
0100
0000
,
0001
0000
0100
0000
,
1000
0000
0100
0000
,
0002
0000
0003
0000
,
2000
0000
3000
0000
,
0020
0000
0030
0000
,
0200
0000
0300
0000
,
0001
0001
0001
0000
,
1000
1000
1000
0000
,
0010
0000
0100
0000
,
0001
0001
0001
0000
,
0010
0000
0100
0000
,
1000
1000
1000
0000
,
0100
0000
0010
0000
,
0001
0000
1000
0000
,
0001
0000
1001
0000
,
0000
0000
0000
0000
,
0010
0000
0010
0000
,
0001
0000
0001
0000
,
0100
0000
0100
0000
,
1000
0000
1000
0000
,
0001
0000
0010
0000
,
1000
0000
0010
0000
,
0001
0000
0010
0000
,
1000
1000
1000
1000
,
0000
0001
0001
0000
,
0010
0000
0100
0000
,
1000
1000
1000
0000
,
0010
0000
0100
0000
,
0001
0001
0001
0000
,
0100
0000
0010
0000
,
1000
0000
0001
0000
,
1000
0000
1001
0000
,
2000
0000
3000
0000
,
0200
0000
0300
0000
,
0002
0000
0003
0000
,
0020
0000
0030
0000
,
1001
0000
0000
0000
,
0000
0000
0000
0000
;

//---------------dance-single - ----------------
#NOTES:
     dance-single:
     :
     Easy:
     6:
     :
0000
0000
0000
0000
,
0000
0000
0000
0000
,
0000
0000
0000
0000
,
0000
0000
0000
0000
,
0000
0000
0000
0000
,
0010
0001
0100
1000
,
0010
1000
0100
0001
,
1000
0000
0001
0000
,
0100
0010
0001
0100
,
2002
0000
0000
3003
,
0001
0001
1000
1000
,
0010
1000
0100
1000
,
0001
0010
0100
1000
,
0010
0001
0100
0001
,
1000
0010
0100
0001
,
1000
0100
0010
0100
,
0001
0010
0100
1000
,
1001
0000
0110
0000
,
1000
0001
0100
0010
,
1000
0100
1000
1000
,
0100
0001
0010
1000
,
0001
0100
0001
0001
,
0100
1000
0010
0001
,
1000
0001
0100
0001
,
0010
0100
1000
0010
,
0100
0000
0010
0000
,
0100
0010
1000
0001
,
0010
0100
1000
1001
,
0010
0100
0001
1001
,
0100
0010
1000
1001
,
0100
0010
0001
1001
,
2000
0100
0000
3100
,
0002
0100
0000
0103
,
0001
0100
1000
0010
,
0001
0001
0001
0000
1000
1000
1000
0000
,
0010
0001
1000
0110
,
0010
0001
0100
0001
,
1000
0010
0100
0001
,
0010
1000
0100
1000
,
0001
0010
0100
1000
,
0001
0100
0010
0100
,
1000
0010
0100
0001
,
1001
0000
0110
0000
,
0001
1000
0100
0010
,
0220
0000
0000
0330
,
1000
0010
0000
0010
,
0001
0010
0000
0010
,
0001
1000
0000
1000
,
0100
0001
0000
0001
,
0100
0001
0100
1000
,
0100
0001
0100
1000
,
0010
0001
0010
1000
,
0001
0001
0001
0000
1000
1000
1000
0000
,
0000
1001
0100
1000
,
0001
0010
0100
1000
,
0010
0001
0100
0001
,
1000
0010
0100
0001
,
1000
0100
0010
0100
,
0001
0010
0100
1000
,
1001
0000
0110
0000
,
1000
0001
0100
0010
,
1000
0000
0001
0000
,
0010
0001
0100
1000
,
0010
0000
0100
0000
,
1000
0010
0100
0001
,
1001
0000
0000
0000
,
0000
0000
0000
0000
;

//---------------dance-single - ----------------
#NOTES:
     dance-single:
     :
     Medium:
     9:
     :
0000
0000
0000
0000
,
0000
0000
0000
0000
,
0000
0000
0000
0000
,
0000
0000
0000
0000
,
0000
0000
0000
0000
,
1000
0000
0010
0100
0000
0001
0100
0000
,
0001
0000
0010
0100
0000
1000
0100
0000
,
0001
0000
0000
1000
0001
0000
0000
0100
,
0000
0010
0000
1000
0001
0010
0100
1000
,
0001
0000
0010
0000
,
1000
1000
0100
0010
,
0001
0010
0100
0010
0000
0001
0000
0001
,
0000
0100
0010
0100
0000
0010
1000
0000
,
0010
0100
0001
0100
0000
0010
0000
0010
,
0000
1000
0001
1000
0000
0100
0010
0000
,
0001
1000
0001
0100
0000
0010
0000
0010
,
0000
0100
0001
0100
0000
0010
1000
0000
,
0001
0000
0000
1000
0100
0000
0000
0010
,
0000
0001
0000
0100
0001
1000
0010
0000
,
0001
0000
1000
0100
0000
0010
0100
0000
,
0001
0100
0000
1000
0010
0000
0010
0000
,
0001
0000
0010
0100
0000
1000
0001
0000
,
0100
0010
0000
1000
0001
0000
0001
0000
,
1000
0000
0001
0100
0000
0010
0100
0000
,
1000
0100
0000
0001
1000
0000
0100
0000
,
0010
0000
0000
0001
1000
0000
0000
0000
,
0100
0010
0001
1000
,
0010
1000
0100
0000
0010
0001
0100
0000
,
0010
0100
0001
0000
1000
0100
0010
0000
,
0001
1000
0010
0000
0100
0001
1000
0000
,
0100
0010
0001
0000
0100
0010
1000
0000
,
0001
0000
0100
0010
0000
0010
0100
0000
,
1000
0000
0100
0010
0000
0010
0100
0000
,
1000
0100
0001
0000
0001
0100
1000
0000
,
0010
1000
0010
1000
0001
0100
0001
0100
,
0010
1000
0001
0110
,
1000
0010
0100
0010
0000
1000
0000
1000
,
0000
0100
0010
0100
0000
0010
0001
0000
,
0010
0100
1000
0100
0000
0010
0000
0010
,
0000
0001
1000
0001
0000
0100
0010
0000
,
1000
0001
1000
0100
0000
0010
0000
0010
,
0000
0100
1000
0100
0000
0010
0001
0000
,
1000
0000
0000
0001
0100
0000
0000
0010
,
0000
1000
0000
0100
1000
0001
0010
0000
,
0200
0000
0000
0300
,
0001
0000
0010
0000
0000
0100
0010
0000
,
1000
0010
1001
0110
,
1000
0000
0001
0000
0000
0100
0001
0000
,
1000
0001
0110
1001
,
0100
0010
1000
0000
0100
0010
0001
0000
,
0100
0001
0010
0000
0100
1000
0010
0000
,
0001
0100
1000
0000
1000
0100
0001
0000
,
0100
0001
0100
0001
1000
0010
1000
0010
,
0100
0000
0001
1000
0000
0001
0000
0001
,
0000
0100
0010
0100
0000
0010
1000
0000
,
0010
0100
0001
0100
0000
0010
0000
0010
,
0000
1000
0001
1000
0000
0100
0010
0000
,
0001
1000
0001
0100
0000
0010
0000
0010
,
0000
0100
0001
0100
0000
0010
1000
0000
,
0001
0000
0000
1000
0100
0000
0000
0010
,
0000
0001
0000
0100
0001
1000
0010
0000
,
1000
0000
0001
0100
0000
0100
0000
0010
,
0000
0010
0000
1000
0000
0100
0010
0000
,
0001
0000
0000
1000
0001
0000
0000
0100
,
0000
1000
0000
0010
0100
0000
0010
0000
,
1001
0000
0000
0000
,
0000
0000
0000
0000
;

//---------------dance-single - ----------------
#NOTES:
     dance-single:
     :
     Hard:
     12:
     :
0000
0000
0000
0000
,
0000
0000
0000
0000
,
0000
0000
0000
0000
,
0000
0000
0000
0000
,
0000
0000
0000
0000
,
0001
0000
0010
0100
0000
1000
0100
0000
,
0001
0000
0100
1000
0000
0001
0100
0010
,
1000
0000
0000
0000
0000
0000
0001
0100
0001
0000
0000
0000
0000
0000
1100
0000
,
0000
0110
0000
0011
1000
0010
0100
0001
,
1000
1000
0010
0010
,
0001
0000
0000
0000
0001
0000
0000
0000
0100
0000
0010
0100
0010
0000
1000
0000
,
0001
0010
0100
1000
0001
1000
0001
1000
,
0010
0100
0001
1000
0100
0010
0001
1000
,
0010
0100
0010
1000
0100
1000
0100
1000
,
0001
0010
0100
1000
0001
0100
1000
0000
,
0010
1000
0001
0010
0100
0010
0100
0010
,
0001
0010
0100
1000
0010
0100
0001
1000
,
0100
0000
0000
0000
0000
0000
0010
0001
0010
0000
0000
0000
0000
0000
1100
0000
,
0000
0101
0000
0110
1000
0001
0010
0100
,
1000
0000
0001
0100
0000
0010
0100
0000
,
1000
0100
0000
0001
0010
0100
0010
0001
,
1000
0000
0010
0100
0000
0001
1000
0000
,
0100
0010
0000
0001
1000
0000
0010
0100
,
0001
0000
1000
0100
0000
0010
0100
0000
,
0001
0000
0100
0000
0000
0000
1000
0000
0001
0000
0000
0010
0000
0000
0100
0000
,
0010
0000
0000
0000
0000
0000
0001
1000
0001
0000
0000
0000
0000
0000
0000
0000
,
0100
0000
0000
0000
0010
0000
0000
0000
1000
0000
0000
1000
0000
0000
1000
0000
,
0010
0000
0000
1000
0000
0000
0100
0000
0010
0000
0000
0001
0000
0000
0100
0000
,
0010
0000
0000
0100
0000
0000
0001
0000
1000
0000
0000
0100
0000
0000
0010
0000
,
0001
0000
0000
1000
0000
0000
0010
0000
1000
0000
0000
0001
0000
0000
0010
0000
,
0100
0000
0000
1000
0000
0000
0001
0000
0100
0000
0000
0010
0000
0000
1000
0000
,
0001
0000
0100
0010
0000
0010
0100
0000
,
0001
0000
1000
0100
0000
0100
0010
0000
,
0001
0010
0100
1000
0001
0010
0100
1000
,
0010
0100
0001
1000
0010
0100
0001
1000
,
0100
0000
1000
0000
0010
1000
1001
0000
,
1000
0010
0100
0001
1000
0001
1000
0001
,
0010
0100
1000
0001
0100
0010
1000
0001
,
0010
0100
0010
0001
0100
0001
0100
0001
,
1000
0010
0100
0001
1000
0100
0001
0000
,
0010
0001
1000
0010
0100
0010
0100
0010
,
1000
0010
0100
0001
0010
0100
1000
0001
,
0100
0000
0000
0000
0000
0000
0010
1000
0010
0000
0000
0000
0000
0000
0101
0000
,
0000
1100
0000
0110
0001
1000
0010
0100
,
0020
0000
0000
0030
,
1000
0000
0010
0100
0000
0010
1000
0001
,
0010
0000
0100
0010
0110
0000
1001
0000
,
0100
0000
0001
0100
0000
1000
0100
0010
,
0001
0000
1000
0010
0110
0000
0101
0000
,
0100
0000
0000
0010
0000
0000
1000
0000
0100
0000
0000
0010
0000
0000
0001
0000
,
0100
0000
0000
0010
0000
0000
1000
0000
0010
0000
0000
0100
0000
0000
0001
0000
,
1000
0000
0000
0100
0000
0000
0001
0000
0100
0000
0000
1000
0000
0000
0010
0000
,
0100
0001
1000
0100
0010
0100
0010
0001
,
1000
0000
0110
1000
0001
1000
0001
1000
,
0100
0010
0001
1000
0010
0100
0001
1000
,
0100
0010
0100
1000
0010
1000
0010
1000
,
0001
0100
0010
1000
0001
0010
1000
0000
,
0100
1000
0001
0100
0010
0100
0010
0100
,
0001
0000
0100
0000
0010
0000
1000
0000
0100
0000
0010
0000
0001
0000
1000
0010
,
1000
0000
0000
0000
0000
0000
0001
0100
0001
0000
0000
0000
0000
0000
1100
0000
,
0000
0011
0100
0010
0001
1000
0010
0100
,
0010
0000
1000
0001
0000
0001
0000
0100
,
0000
0001
0000
0010
0000
0100
1000
0001
,
0100
0000
0000
0000
0000
0000
0010
0100
0010
0000
0000
0000
0000
0000
0100
0000
,
0000
0001
0000
0010
0100
0010
0001
1000
,
0000
0000
0000
0000
;

//---------------dance-single - ----------------
#NOTES:
     dance-single:
     :
     Challenge:
     14:
     :
0000
0000
0000
0000
,
0000
0000
0000
0000
,
0000
0000
0000
0000
,
0000
0000
0000
0000
,
0000
0000
0000
0000
,
1000
0000
0010
0100
0000
0001
0100
0010
,
1000
0000
0001
0010
0000
1000
0100
0010
,
0001
0000
0000
0000
0000
0000
1000
0001
0100
0000
0000
0000
0000
0000
0101
0000
,
0000
0110
0010
1000
0001
0010
0100
1000
,
0001
0001
0010
0010
,
1000
0000
0000
0000
1000
0000
0000
0000
0100
0010
0100
0010
0001
0000
1000
0000
,
0010
0000
0100
0000
0001
0000
0100
0010
1000
0000
0010
0000
1000
0000
0010
0000
,
0001
0000
0010
0000
0100
0000
1000
0001
0100
0000
0010
0000
1000
0000
0001
0000
,
0010
0000
0100
0000
1000
0000
0100
0010
0001
0000
0100
0000
0001
0000
0100
0000
,
1000
0000
0010
0000
0100
0000
0001
1000
0100
0000
0010
0000
0001
0000
1000
0000
,
0010
0000
0001
0000
1000
0000
0010
1000
0100
0000
0010
0000
0100
0000
0010
0000
,
1000
0000
0010
0000
0100
0000
0001
0010
0100
0000
1000
0001
0100
0000
0001
1000
,
0010
0000
0000
0000
0000
0000
0100
0010
1000
0000
0000
0000
0000
0000
0101
0000
,
0000
1100
0100
0010
0001
1000
0010
0100
,
0001
1000
1100
0000
0010
0110
0000
0001
,
0101
0000
1000
1010
0010
0100
0010
1000
,
0001
0010
0110
0000
1000
1001
0000
0100
,
0110
0000
1000
1001
0001
0010
0100
1000
,
0010
1000
1010
0000
0010
0110
0000
1000
,
1100
0000
0000
0000
0001
0000
0101
0000
0100
0000
0000
0010
0000
0000
0100
0000
,
0010
0000
0000
0000
0000
0000
1000
0001
0010
0000
0000
0000
0000
0000
0000
0000
,
0100
0000
0000
0000
0010
0000
0000
0000
0001
0000
0000
0001
0000
0000
0001
0000
,
0010
0000
0001
1000
0000
0001
0100
0000
0010
0000
1000
0001
0000
1000
0100
0000
,
0010
0000
0100
0001
0000
0100
0010
0000
0001
0000
0100
0010
0000
1000
0010
0000
,
1000
0000
0001
0010
0000
0100
0010
0000
0001
0000
1000
0010
0000
0100
0010
0000
,
0100
0000
0001
1000
0000
0100
0010
0000
0001
0000
0010
0100
0000
1000
0001
0000
,
1000
0000
0000
0100
0000
0000
0010
0100
1000
0000
0000
0001
0000
0000
0100
0010
,
1000
0000
0000
0010
0000
0000
0100
0001
0010
0000
0000
0010
0000
0000
0100
0010
,
0001
0010
0100
1000
0001
0100
0010
1000
,
0010
0100
0010
0000
1000
0001
1000
0000
0100
0010
0100
0010
0001
1000
0001
1000
,
0100
0000
0001
0000
0010
1000
1001
0000
,
0010
0000
0100
0000
1000
0000
0100
0010
0001
0000
0010
0000
0001
0000
0010
0000
,
1000
0000
0010
0000
0100
0000
0001
1000
0100
0000
0010
0000
0001
0000
1000
0000
,
0010
0000
0100
0000
0001
0000
0100
0010
1000
0000
0100
0000
1000
0000
0100
0000
,
0001
0000
0010
0000
0100
0000
1000
0001
0100
0000
0010
0000
1000
0000
0001
0000
,
0010
0000
1000
0000
0001
0000
0010
0001
0100
0000
0010
0000
0100
0000
0010
0000
,
0001
0000
0010
0000
0100
0000
1000
0010
0100
0000
0001
1000
0100
0000
1000
0001
,
0010
0000
0000
0000
0000
0000
0100
0010
0001
0000
0000
0000
0000
0000
1100
0000
,
0000
0101
0100
0010
1000
0001
0010
0100
,
0020
0000
0000
0030
,
0001
0000
0000
0010
0000
0000
0100
0010
0001
0000
0000
0100
0000
0000
0010
0100
,
0001
0000
0000
1000
0000
0000
0100
0010
0001
0000
0100
0000
0010
0000
1000
0000
,
0001
0000
0000
0100
0000
0000
1000
0100
0010
0000
0000
0100
0000
0000
0001
0100
,
0010
0000
0000
0100
0000
0000
0010
1000
0001
0000
0010
0000
1000
0000
0100
0000
,
0010
0100
0000
0010
0100
0000
0010
0001
0100
0010
0000
0100
0010
0000
1000
0100
,
0010
0001
0000
0010
0001
0000
0010
0100
1000
0001
0000
1000
0001
0000
1000
0001
,
1000
0100
0001
0100
1000
0100
0001
0100
,
1000
0001
0100
0000
0001
1000
0100
0000
0010
0001
0010
0001
1000
0010
0100
0001
,
1000
0000
0000
0000
0110
0000
0100
0010
1000
0000
0010
0000
1000
0000
0010
0000
,
0001
0000
0010
0000
0100
0000
1000
0001
0100
0000
0010
0000
1000
0000
0001
0000
,
0010
0000
0100
0000
1000
0000
0100
0010
0001
0000
0100
0000
0001
0000
0100
0000
,
1000
0000
0010
0000
0100
0000
0001
1000
0100
0000
0010
0000
0001
0000
1000
0000
,
0010
0000
0001
0000
1000
0000
0010
1000
0100
0000
0010
0000
0100
0000
0010
0000
,
1000
0000
0010
0000
0100
0000
0001
0010
0100
0000
1000
0001
0100
0000
0001
1000
,
0010
0000
0000
0000
0000
0000
0100
0010
1000
0000
0000
0000
0000
0000
0101
0000
,
0000
1100
0100
0010
0001
1000
0010
0100
,
0010
1000
0001
1000
0000
0100
0000
0010
,
0000
0001
0000
0010
0000
0100
1000
0001
,
0100
0000
0000
0000
0000
0000
0010
1000
0100
0000
0000
0000
0000
0000
0010
0000
,
0000
0001
0100
1000
0010
1000
0001
0100
,
0000
0000
0000
0000
;

//---------------dance-double - ----------------
#NOTES:
     dance-double:
     :
     Easy:
     6:
     :
00000000
00000000
00000000
00000000
,
00000000
00000000
00000000
00000000
,
00000000
00000000
00000000
00000000
,
00000000
00000000
00000000
00000000
,
00000000
00000000
00000000
00000000
,
00000010
00001000
00000100
00000010
,
00000001
00000100
00001000
00010000
,
00001000
00000000
00010000
00000000
,
01000000
10000000
00100000
01000000
,
20020000
00000000
00000000
30030000
,
10000000
10000000
00010000
00010000
,
00100000
00001000
00010000
00001000
,
00000100
00000001
00000010
00000100
,
00000010
00000001
00000100
00001000
,
00010000
01000000
10000000
00100000
,
10000000
00010000
01000000
00100000
,
00010000
00001000
00000010
00000001
,
00001001
00000000
00000110
00000000
,
00000001
00001000
00000100
00000010
,
00000001
00000100
00000001
00000000
,
00000100
00001000
00010000
01000000
,
00100000
00010000
10000000
00000000
,
00010000
01000000
00001000
00010000
,
00000010
00001000
00000100
00000000
,
00000010
00001000
00010000
00100000
,
10000000
00000000
00010000
00000000
,
10010000
00000000
01000000
01000000
,
00100000
10000000
01000000
01000000
,
00100000
00010000
00001000
00001000
,
00000100
00000010
00000001
00000001
,
00000100
00000010
00001000
00001000
,
00000002
00000100
00000000
00000103
,
00002000
00000100
00000000
00003100
,
00001000
00010000
00100000
01000000
,
00010000
00010000
10000000
10000000
,
00100000
10000000
00010000
01100000
,
01000000
00001000
00010000
00001000
,
00000010
00000001
00000100
00000010
,
00000100
00000001
00000010
00001000
,
00010000
00100000
10000000
01000000
,
10000000
00010000
00100000
01000000
,
00010000
00001000
00000100
00000001
,
00001001
00000000
00000110
00000000
,
00000001
00001000
00000010
00000100
,
00000220
00000000
00000000
00000330
,
00000001
00000010
00000000
00000010
,
00001000
00010000
00000000
00010000
,
01000000
10000000
00000000
10000000
,
00010000
01000000
00000000
01000000
,
00100000
00100000
00010000
00001000
,
00000100
00000100
00000001
00001000
,
00000010
00001000
00000010
00000001
,
00001000
00001000
00000001
00000001
,
00000000
00011000
00001000
00010000
,
01000000
10000000
00100000
01000000
,
00100000
10000000
01000000
00010000
,
00001000
00000100
00000001
00000010
,
00000001
00001000
00000100
00000010
,
00001000
00010000
00100000
10000000
,
10010000
00000000
01100000
00000000
,
10000000
00010000
01000000
00100000
,
01000000
00000000
00010000
00000000
,
10000000
01000000
00010000
00001000
,
00000010
00000000
00000100
00000000
,
00000001
00000010
00000100
00001000
,
00001001
00000000
00000000
00000000
,
00000000
00000000
00000000
00000000
;

//---------------dance-double - ----------------
#NOTES:
     dance-double:
     :
     Medium:
     9:
     :
00000000
00000000
00000000
00000000
,
00000000
00000000
00000000
00000000
,
00000000
00000000
00000000
00000000
,
00000000
00000000
00000000
00000000
,
00000000
00000000
00000000
00000000
,
00100000
00000000
00010000
01000000
00000000
00100000
01000000
00000000
,
00100000
00000000
10000000
01000000
00000000
00010000
00001000
00000000
,
00000100
00000000
00000000
00000001
00001000
00000000
00000000
00000100
,
00000000
00000010
00000000
00000001
00000100
00001000
00010000
00100000
,
10000000
00000000
00010000
00000000
,
00100000
00100000
01000000
01000000
,
00100000
00001000
00010000
00001000
00000000
00000100
00000000
00000100
,
00000000
00000001
00001000
00000100
00000000
00000010
00000001
00000000
,
00000100
00000010
00001000
00000010
00000000
00010000
00000000
00001000
,
00000000
00100000
00010000
01000000
00000000
00100000
01000000
00000000
,
00010000
10000000
01000000
10000000
00000000
01000000
00000000
00010000
,
00000000
00001000
00000100
00000010
00000000
00001000
00000100
00000000
,
00000010
00000000
00000000
00000001
00001000
00000000
00000000
00000010
,
00000000
00010000
00000000
00100000
10000000
00010000
01000000
00000000
,
00100000
00000000
10000000
01000000
00000000
00100000
01000000
00000000
,
00010000
01000000
00000000
00010000
00001000
00000000
00000100
00000000
,
00000001
00000000
00001000
00000100
00000000
00000010
00000100
00000000
,
00001000
00000010
00000000
00000100
00000001
00000000
00001000
00000000
,
00000100
00000000
00010000
00001000
00000000
00100000
00010000
00000000
,
10000000
00100000
00000000
01000000
00010000
00000000
01000000
00000000
,
00100000
00000000
00000000
10000000
00010000
00000000
00000000
00000000
,
00100000
00001000
00000010
00000001
,
00001000
00000010
00000100
00000000
00000001
00000010
00000100
00000000
,
00010000
00000010
00000100
00000000
00001000
00010000
00001000
00000000
,
01000000
00010000
00100000
00000000
01000000
10000000
00010000
00000000
,
01000000
00100000
10000000
00000000
01000000
00100000
00010000
00000000
,
00001000
00000000
00000100
00000010
00000000
00000010
00000001
00000000
,
00000100
00000000
00000010
00001000
00000000
00001000
00000100
00000000
,
00000001
00000100
00001000
00000000
00010000
01000000
10000000
00000000
,
00100000
01000000
00100000
01000000
00010000
10000000
00010000
10000000
,
01000000
00010000
00001000
00011000
,
00000010
00010000
00001000
00010000
00000000
01000000
00000000
01000000
,
00000000
10000000
00010000
01000000
00000000
00100000
10000000
00000000
,
01000000
00100000
00010000
00100000
00000000
00001000
00000000
00010000
,
00000000
00000010
00001000
00000100
00000000
00000010
00000100
00000000
,
00001000
00000001
00000100
00000001
00000000
00000100
00000000
00001000
,
00000000
00010000
01000000
00100000
00000000
00010000
01000000
00000000
,
00100000
00000000
00000000
10000000
00010000
00000000
00000000
00100000
,
00000000
00001000
00000000
00000010
00000001
00001000
00000010
00000000
,
00000200
00000000
00000000
00000300
,
00000010
00000000
00001000
00000000
00000000
00000001
00000100
00000000
,
00000010
00010000
00011000
00110000
,
01000000
00000000
10000000
00000000
00000000
00100000
01000000
00000000
,
00100000
00010000
00011000
00001010
,
00000001
00000010
00000100
00000000
00000010
00000100
00001000
00000000
,
00000100
00001000
00010000
00000000
00001000
00010000
00100000
00000000
,
00010000
01000000
00100000
00000000
10000000
01000000
00100000
00000000
,
01000000
00010000
01000000
00010000
00001000
00010000
00001000
00010000
,
00001000
00000000
00010000
00001000
00000000
00000100
00000000
00000100
,
00000000
00000001
00001000
00000100
00000000
00000010
00000001
00000000
,
00000100
00000010
00001000
00000010
00000000
00010000
00000000
00001000
,
00000000
00100000
00010000
01000000
00000000
00100000
01000000
00000000
,
00010000
10000000
01000000
10000000
00000000
01000000
00000000
00010000
,
00000000
00001000
00000100
00000010
00000000
00001000
00000100
00000000
,
00000010
00000000
00000000
00000001
00001000
00000000
00000000
00000010
,
00000000
00010000
00000000
00100000
10000000
00010000
01000000
00000000
,
00010000
00000000
10000000
01000000
00000000
01000000
00000000
00010000
,
00000000
00010000
00000000
00001000
00000000
00010000
00000010
00000000
,
00000100
00000000
00000000
00000010
00001000
00000000
00000000
00000001
,
00000000
00000100
00000000
00001000
00010000
00000000
00100000
00000000
,
10010000
00000000
00000000
00000000
,
00000000
00000000
00000000
00000000
;

//---------------dance-double - ----------------
#NOTES:
     dance-double:
     :
     Hard:
     12:
     :
00000000
00000000
00000000
00000000
,
00000000
00000000
00000000
00000000
,
00000000
00000000
00000000
00000000
,
00000000
00000000
00000000
00000000
,
00000000
00000000
00000000
00000000
,
00001000
00000000
00000010
00001000
00000000
00000100
00000010
00000000
,
00000001
00000000
00000100
00001000
00000000
00010000
00100000
01000000
,
00010000
00000000
00000000
00000000
00000000
00000000
10000000
01000000
10000000
00000000
00000000
00000000
00000000
00000000
01010000
00000000
,
00000000
00101000
00000000
01100000
00010000
00001000
00000010
00000001
,
00001000
00001000
00000010
00000010
,
00000100
00000000
00000000
00000000
00000100
00000000
00000000
00000000
00000001
00000000
00001000
00000001
00001000
00000000
00000001
00000000
,
00001000
00000010
00000100
00001000
00010000
00001000
00010000
00001000
,
00100000
01000000
10000000
00100000
01000000
00010000
10000000
01000000
,
00010000
00001000
00000010
00000001
00000100
00000001
00000100
00000001
,
00001000
00000010
00000100
00000010
00001000
00000100
00010000
00000000
,
00001000
00010000
01000000
10000000
00100000
01000000
00100000
01000000
,
00100000
00010000
00000010
00000100
00000001
00001000
00000100
00000010
,
00000001
00000000
00000000
00000000
00000000
00000000
00001000
00000100
00001000
00000000
00000000
00000000
00000000
00000000
00000101
00000000
,
00000000
00001010
00000000
00011000
00100000
00010000
10000000
00100000
,
01000000
00000000
00010000
10000000
00000000
00100000
10000000
00000000
,
01000000
00010000
00000000
00001000
00000010
00000100
00000010
00000001
,
00000100
00000000
00000010
00000100
00000000
00000001
00001000
00000000
,
00000100
00000010
00000000
00001000
00010000
00000000
01000000
10000000
,
00010000
00000000
01000000
00100000
00000000
10000000
01000000
00000000
,
00100000
00000000
00010000
00000000
00000000
00000000
00001000
00000000
00000100
00000000
00000000
00000010
00000000
00000000
00000001
00000000
,
00000100
00000000
00000000
00000000
00000000
00000000
00000001
00001000
00000001
00000000
00000000
00000000
00000000
00000000
00000000
00000000
,
00000100
00000000
00000000
00000000
00001000
00000000
00000000
00000000
00010000
00000000
00000000
00100000
00000000
00000000
10000000
00000000
,
00100000
00000000
00000000
00010000
00000000
00000000
00001000
00000000
00100000
00000000
00000000
00010000
00000000
00000000
01000000
00000000
,
00010000
00000000
00000000
10000000
00000000
00000000
01000000
00000000
00010000
00000000
00000000
00001000
00000000
00000000
00000100
00000000
,
00000001
00000000
00000000
00000010
00000000
00000000
00000100
00000000
00001000
00000000
00000000
00000010
00000000
00000000
00000100
00000000
,
00000010
00000000
00000000
00010000
00000000
00000000
00001000
00000000
00100000
00000000
00000000
00010000
00000000
00000000
10000000
00000000
,
00100000
00000000
01000000
00100000
00000000
00100000
10000000
00000000
,
00010000
00000000
00100000
01000000
00000000
01000000
00010000
00000000
,
00001000
00000010
00000001
00000100
00000010
00001000
00000001
00000100
,
00000010
00010000
00001000
01000000
00010000
10000000
01000000
00100000
,
01000000
00000000
00100000
00000000
00010000
10000000
10010000
00000000
,
00010000
00100000
01000000
00010000
00001000
00010000
00001000
00010000
,
00000010
00000100
00000001
00000010
00000100
00001000
00000001
00000100
,
00001000
00010000
00100000
10000000
01000000
10000000
01000000
10000000
,
00010000
00100000
01000000
00100000
00010000
01000000
00001000
00000000
,
00010000
00001000
00000100
00000001
00000010
00000100
00000010
00000100
,
00000010
00001000
00100000
01000000
10000000
00010000
01000000
00100000
,
10000000
00000000
00000000
00000000
00000000
00000000
00010000
01000000
00010000
00000000
00000000
00000000
00000000
00000000
11000000
00000000
,
00000000
00110000
00000000
00011000
00000010
00001000
00000001
00000010
,
00000200
00000000
00000000
00000300
,
00010000
00000000
00001000
00100000
00000000
00001000
00010000
00000010
,
00000100
00000000
00000010
00010000
00011000
00000000
00110000
00000000
,
00001000
00000000
00010000
00000010
00000000
00010000
00001000
00100000
,
01000000
00000000
00100000
00001000
00011000
00000000
00001010
00000000
,
00000100
00000000
00000000
00000001
00000000
00000000
00000010
00000000
00001000
00000000
00000000
00010000
00000000
00000000
01000000
00000000
,
00100000
00000000
00000000
00010000
00000000
00000000
01000000
00000000
00100000
00000000
00000000
10000000
00000000
00000000
01000000
00000000
,
00010000
00000000
00000000
00001000
00000000
00000000
00000010
00000000
00000100
00000000
00000000
00000010
00000000
00000000
00000001
00000000
,
00000100
00001000
00000001
00000010
00001000
00000100
00000010
00000001
,
00001000
00000000
00010100
00001000
00010000
00001000
00010000
00001000
,
00100000
01000000
10000000
00100000
01000000
00010000
10000000
01000000
,
00010000
00001000
00000010
00000001
00000100
00000001
00000100
00000001
,
00001000
00000010
00000100
00000010
00001000
00000100
00010000
00000000
,
00001000
00010000
01000000
10000000
00100000
01000000
00100000
01000000
,
00100000
00010000
00000010
00000100
00000001
00001000
00000100
00000010
,
00000001
00000000
00000000
00000000
00000000
00000000
00001000
00000100
00001000
00000000
00000000
00000000
00000000
00000000
00000101
00000000
,
00000000
00001010
00010000
00001000
00100000
00010000
10000000
00100000
,
01000000
00000000
00100000
10000000
00000000
10000000
00000000
01000000
,
00000000
00010000
00000000
00001000
00000000
00000100
00000001
00001000
,
00000100
00000000
00000000
00000000
00000000
00000000
00000010
00000100
00000010
00000000
00000000
00000000
00000000
00000000
00000001
00000000
,
00000000
00001000
00000000
00000010
00000100
00001000
00010000
00100000
,
00000000
00000000
00000000
00000000
;

//---------------dance-double - ----------------
#NOTES:
     dance-double:
     :
     Challenge:
     14:
     :
00000000
00000000
00000000
00000000
,
00000000
00000000
00000000
00000000
,
00000000
00000000
00000000
00000000
,
00000000
00000000
00000000
00000000
,
00000000
00000000
00000000
00000000
,
00010000
00000000
01000000
00100000
00000000
10000000
00100000
01000000
,
00010000
00000000
10000000
01000000
00000000
00010000
00001000
00000100
,
00000001
00000000
00000000
00000000
00000000
00000000
00001000
00000001
00000010
00000000
00000000
00000000
00000000
00000000
00001100
00000000
,
00000000
00010010
00001000
00010000
00100000
10000000
01000000
00100000
,
00010000
00010000
01000000
01000000
,
00100000
00000000
00000000
00000000
00100000
00000000
00000000
00000000
10000000
01000000
10000000
01000000
00100000
00000000
00010000
00000000
,
00001000
00000000
00000100
00000000
00000010
00000000
00000001
00000100
00000010
00000000
00001000
00000000
00000010
00000000
00001000
00000000
,
00000100
00000000
00010000
00000000
01000000
00000000
00100000
00010000
10000000
00000000
00100000
00000000
01000000
00000000
00010000
00000000
,
10000000
00000000
01000000
00000000
00100000
00000000
00001000
00010000
00001000
00000000
00000100
00000000
00001000
00000000
00000100
00000000
,
00000001
00000000
00000010
00000000
00001000
00000000
00000010
00000001
00000100
00000000
00000010
00000000
00010000
00000000
00001000
00000000
,
01000000
00000000
00100000
00000000
10000000
00000000
00010000
00100000
01000000
00000000
10000000
00000000
01000000
00000000
10000000
00000000
,
01000000
00000000
00100000
00000000
00010000
00000000
00001000
00010000
00001000
00000000
00000100
00000010
00000001
00000000
00001000
00000001
,
00000100
00000000
00000000
00000000
00000000
00000000
00000010
00000100
00000001
00000000
00000000
00000000
00000000
00000000
00000011
00000000
,
00000000
00001100
00010000
01000000
00100000
00010000
01000000
00100000
,
10000000
00010000
00110000
00000000
01000000
01100000
00000000
10000000
,
10100000
00000000
00010000
01010000
00001000
00010000
00000010
00001000
,
00000001
00000100
00000110
00000000
00001000
00001001
00000000
00000010
,
00000110
00000000
00001000
00001100
00010000
00001000
00100000
00010000
,
01000000
00010000
01010000
00000000
00100000
01100000
00000000
10000000
,
10100000
00000000
00000000
00000000
10000000
00000000
11000000
00000000
00010000
00000000
00000000
00001000
00000000
00000000
00000010
00000000
,
00000100
00000000
00000000
00000000
00000000
00000000
00000010
00000001
00001000
00000000
00000000
00000000
00000000
00000000
00000000
00000000
,
00000001
00000000
00000000
00000000
00000100
00000000
00000000
00000000
00001000
00000000
00000000
00010000
00000000
00000000
00001000
00000000
,
00100000
00000000
00010000
01000000
00000000
00010000
00100000
00000000
01000000
00000000
00010000
00001000
00000000
00010000
00001000
00000000
,
00000100
00000000
00000001
00001000
00000000
00000001
00000010
00000000
00000100
00000000
00001000
00000010
00000000
00000100
00000010
00000000
,
00001000
00000000
00010000
01000000
00000000
00100000
01000000
00000000
00010000
00000000
00100000
01000000
00000000
00100000
01000000
00000000
,
10000000
00000000
00010000
01000000
00000000
00100000
10000000
00000000
01000000
00000000
00100000
00001000
00000000
00010000
00001000
00000000
,
00000100
00000000
00000000
00000001
00000000
00000000
00000010
00000001
00001000
00000000
00000000
00000100
00000000
00000000
00010000
00001000
,
00100000
00000000
00000000
00001000
00000000
00000000
00010000
00001000
01000000
00000000
00000000
00100000
00000000
00000000
10000000
01000000
,
00100000
00010000
01000000
00010000
00100000
00010000
00001000
00000100
,
00000010
00000001
00000010
00000000
00000100
00001000
00000100
00000000
00000001
00000100
00000001
00000100
00000010
00001000
00000010
00001000
,
00000001
00000000
00000100
00000000
00001000
00010000
00011000
00000000
,
00001000
00000000
01000000
00000000
00100000
00000000
10000000
01000000
00100000
00000000
00010000
00000000
00100000
00000000
00010000
00000000
,
01000000
00000000
00001000
00000000
00000100
00000000
00000010
00001000
00000001
00000000
00000010
00000000
00000100
00000000
00001000
00000000
,
00000001
00000000
00000100
00000000
00000010
00000000
00010000
00001000
00010000
00000000
01000000
00000000
00010000
00000000
01000000
00000000
,
10000000
00000000
00100000
00000000
00010000
00000000
00100000
10000000
01000000
00000000
00100000
00000000
00001000
00000000
00010000
00000000
,
00000100
00000000
00000010
00000000
00000001
00000000
00001000
00000010
00000100
00000000
00000001
00000000
00000100
00000000
00000001
00000000
,
00000100
00000000
00000010
00000000
00001000
00000000
00010000
00001000
00010000
00000000
01000000
00100000
10000000
00000000
00010000
10000000
,
01000000
00000000
00000000
00000000
00000000
00000000
00100000
01000000
10000000
00000000
00000000
00000000
00000000
00000000
10100000
00000000
,
00000000
01010000
00001000
00000100
00000010
00001000
00000100
00000010
,
00000200
00000000
00000000
00000300
,
00000010
00000000
00000000
00000001
00000000
00000000
00000010
00000100
00001000
00000000
00000000
00000010
00000000
00000000
00010000
00001000
,
00100000
00000000
00000000
00001000
00000000
00000000
00010000
00000010
00001000
00000000
00010000
00000000
01000000
00000000
00100000
00000000
,
10000000
00000000
00000000
00100000
00000000
00000000
00010000
00100000
01000000
00000000
00000000
00100000
00000000
00000000
10000000
01000000
,
00100000
00000000
00000000
00001000
00000000
00000000
00010000
00000010
00001000
00000000
00000001
00000000
00000100
00000000
00000010
00000000
,
00001000
00000100
00000000
00001000
00000100
00000000
00000010
00000001
00000100
00000010
00000000
00000100
00000010
00000000
00010000
00001000
,
01000000
00010000
00000000
01000000
00010000
00000000
10000000
00100000
01000000
00100000
00000000
01000000
00100000
00000000
10000000
01000000
,
00100000
00010000
00100000
10000000
00100000
00010000
00001000
00000100
,
00000010
00000001
00001000
00000000
00000010
00001000
00000001
00000000
00000010
00000001
00000010
00000001
00000010
00000100
00001000
00000010
,
00000100
00000000
00000000
00000000
00000110
00000000
00000001
00000010
00000100
00000000
00001000
00000000
00000100
00000000
00001000
00000000
,
00000010
00000000
00010000
00000000
00100000
00000000
01000000
00010000
10000000
00000000
01000000
00000000
00100000
00000000
00010000
00000000
,
10000000
00000000
00100000
00000000
01000000
00000000
00001000
00010000
00001000
00000000
00000010
00000000
00001000
00000000
00000010
00000000
,
00000001
00000000
00000100
00000000
00001000
00000000
00000100
00000001
00000010
00000000
00000100
00000000
00010000
00000000
00001000
00000000
,
00100000
00000000
01000000
00000000
10000000
00000000
00010000
01000000
00100000
00000000
10000000
00000000
00100000
00000000
10000000
00000000
,
00100000
00000000
01000000
00000000
00010000
00000000
00001000
00010000
00001000
00000000
00000010
00000100
00000001
00000000
00001000
00000001
,
00000010
00000000
00000000
00000000
00000000
00000000
00000100
00000010
00000001
00000000
00000000
00000000
00000000
00000000
00000101
00000000
,
00000000
00001010
00010000
00100000
01000000
00010000
00100000
01000000
,
10000000
00010000
01000000
00100000
00000000
00010000
00000000
00001000
,
00000000
00000100
00000000
00000001
00000000
00000010
00000001
00001000
,
00000010
00000000
00000000
00000000
00000000
00000000
00000100
00001000
00010000
00000000
00000000
00000000
00000000
00000000
01000000
00000000
,
00000000
10000000
00010000
01000000
00100000
10000000
01000000
00100000
,
00000000
00000000
00000000
00000000
;
