#TITLE:Monkey Business;
#ARTIST:kors k;
#BANNER:Monkey Business.png;
#BACKGROUND:Monkey Business-bg.png;
#CDTITLE:./CDTITLES/DanceDanceRevolution 2013.png;
#MUSIC:Monkey Business.ogg;
#SAMPLESTART:79.5;
#SAMPLELENGTH:15;
#BPMS:0=160.3,4=160,46.5=80,47.5=160,76.5=80,77.5=160,124.5=80,156.5=160,171.5=80,172=160,248=80,250=160;
#STOPS:32=1.125,40=0.188,54.5=0.188,70=0.188,84.5=0.188,124=0.188;
#STAGE:14;

//---------------dance-single - ----------------
#NOTES:
     dance-single:
     :
     Beginner:
     3:
     :
0000
0000
0000
0000
,
0000
0000
0000
0000
,
0000
0000
0000
0000
,
0000
0000
0000
0000
,
0000
0000
0000
0000
,
0010
0000
0010
0000
,
0100
0000
0100
0000
,
0010
0000
0010
0000
,
0100
1000
0000
1000
,
0000
0001
0000
0000
,
0000
0001
0000
0000
0000
0001
0000
0000
,
0000
1000
0000
0000
0000
0000
0000
0010
,
0000
0000
0000
0010
0000
0000
0000
0100
,
0000
0000
0000
0100
,
0000
0100
0000
0010
,
0000
0000
0000
0001
,
0000
1000
0000
0001
,
0000
0000
0000
0000
0000
0010
0000
0000
,
0000
0100
0000
0000
0000
0010
0000
0000
,
0000
0000
0000
1000
0000
0000
0000
0001
,
0000
0000
0000
1000
0000
0000
0000
0001
,
0000
0100
0000
0010
,
0000
0100
0000
0010
,
0000
1001
0000
0000
,
0000
0000
0000
0000
,
0000
0100
0000
0000
,
0000
0100
0000
0000
,
0000
0010
0000
0000
,
0000
0010
0000
0000
,
0000
0001
0000
0001
,
0000
1000
0000
1000
,
0000
0100
0000
0100
0000
0100
0000
0100
,
0000
0010
0000
0010
0000
0010
0000
0010
,
0000
0001
0000
0001
0000
0001
0000
0001
,
0000
1000
0000
1000
0000
1000
0000
1000
,
0000
0010
0000
0010
0000
0100
0000
0100
,
0000
0001
0000
0001
0000
1000
0000
1000
,
0000
0100
0000
0100
0000
0010
0000
0010
,
0000
0001
0000
0001
0000
1000
0000
1000
,
0000
1001
0000
0000
0000
0000
0000
0000
,
0000
0000
0000
0000
,
0000
0010
0000
0000
0000
1000
0000
0000
,
0000
0001
0000
0000
0000
0100
0000
0000
,
0010
0000
0001
0000
,
0010
0000
0001
0000
,
1000
0000
0100
0000
,
1000
0000
0100
0000
,
1000
0000
0010
0000
,
1000
0000
0010
0000
,
0100
0000
0001
0000
,
0100
0000
0001
0000
,
1001
0000
0000
0000
,
0110
0000
0000
0000
,
1001
0000
0000
0000
,
0110
0000
0000
0000
,
1001
0000
0000
0000
,
0110
0000
0000
0000
,
1001
0000
0000
0000
,
0110
0000
0000
0000
,
0010
0000
0010
0000
,
1000
0000
1000
0000
,
0001
0000
0001
0000
,
0100
0000
0010
0000
,
1000
0000
0010
0000
,
1000
0000
0001
0000
,
0100
0000
0001
0000
,
1001
0000
0000
0000
,
0000
0000
0000
0000
;

//---------------dance-single - ----------------
#NOTES:
     dance-single:
     :
     Easy:
     7:
     :
0000
0000
0000
0000
,
0000
0000
0000
0000
,
0000
0000
0000
0000
,
0000
0000
0000
0000
,
0000
0000
0000
0000
,
0001
0010
0001
0010
,
0100
1000
0100
1000
,
0010
0100
0010
0100
,
2002
3003
0000
0000
0000
0000
0000
0000
0000
0000
0000
0000
0000
0000
0000
0000
0010
0000
0000
0000
0000
0000
0000
0000
0000
0000
0000
0000
0000
0000
0000
0000
0100
0000
0000
0000
0000
0000
0000
0000
0000
0000
0000
0000
0000
0000
0000
0000
0010
0000
0000
0000
0000
0000
0000
0000
0000
0000
0000
0000
0000
0000
0000
0000
,
0100
1001
0110
1001
,
0000
0100
0000
0010
0000
0100
0000
0010
,
0000
1001
0000
0110
0000
2002
3003
0001
,
0000
1000
0000
0001
0000
1000
0000
0110
,
0000
1001
0000
0110
0000
0000
1000
0000
,
0001
1000
0001
0010
,
0100
0000
0010
0010
0010
0000
0001
0000
,
0100
0001
0100
0010
,
1000
0000
0020
0030
0000
1000
0000
0100
,
0000
1000
0000
0100
0000
0010
0000
0001
,
0000
0020
0030
0001
0000
0100
0000
0010
,
0000
1000
0000
0100
0000
0010
0000
0002
,
0003
0100
0010
1000
,
0001
0000
0010
0000
0100
0000
1000
1000
,
1000
1001
0100
0000
,
0100
0000
0100
0000
,
0100
0000
0010
0000
,
0010
0000
0010
0000
,
0010
1001
0100
0000
,
0100
0000
0100
0000
,
0100
0010
0001
1000
,
0100
0020
0000
0000
,
0130
1000
0100
1000
1001
0001
0100
0001
,
1001
0020
0000
0100
0130
0010
1000
0001
,
1001
0001
0010
0001
1001
1000
0010
1000
,
1001
0200
0000
0000
0000
0010
0310
1001
,
1001
0100
1000
0100
0110
0010
0001
0010
,
0110
1000
1000
0001
0001
0110
1001
0110
,
1001
0010
1000
0001
0110
0100
0001
1000
,
1001
0200
0000
0000
0000
0000
0000
0010
,
0310
2002
0000
0000
0000
0000
0000
0000
,
0000
0000
0000
0000
,
3003
0001
0000
0010
0000
0100
0000
1000
,
0000
0000
0000
0000
0000
0000
0000
0000
0020
0000
0000
0000
0000
0000
0000
0000
0000
0000
0000
0000
0000
0000
0000
0000
0000
0000
0000
0000
0000
0000
0000
0000
0000
0000
0000
0000
0000
0000
0000
0000
0130
0000
0000
0000
0000
0000
0000
0000
0000
0000
0000
0000
0000
0000
0000
0000
2002
3003
0000
0000
0000
0000
0000
0000
,
0001
0001
0100
1001
,
1000
1000
0100
1001
,
0010
0010
1000
1001
,
0100
0100
0001
1001
,
0001
0001
0100
0110
,
1000
1000
0100
0110
,
0010
0010
0001
0110
,
0100
0100
1000
0110
,
0020
0031
2000
3100
,
0020
0031
0010
0100
,
0020
0031
2000
3100
,
0020
0130
0010
0100
,
2000
3010
0200
0301
,
0020
0130
0010
0100
,
0010
0001
0100
1000
,
0010
0100
0020
0000
,
1030
0000
0100
0000
1000
0100
1000
0000
,
0001
0000
0100
0000
0001
0100
0001
0000
,
0100
0000
0010
0000
0100
0010
0100
0000
,
2002
0000
0000
3003
1000
0000
0100
0000
,
1000
0100
1000
0000
0001
0000
0100
0000
,
0001
0100
0001
0000
0010
0000
1000
0000
,
0100
0001
0010
0001
,
0100
1001
0000
0000
,
0000
0000
0000
0000
;

//---------------dance-single - ----------------
#NOTES:
     dance-single:
     :
     Medium:
     9:
     :
0000
0000
0000
0000
,
0000
0000
0000
0000
,
0000
0000
0000
0000
,
0000
0000
0000
0000
,
0000
0000
0000
0000
,
0010
1000
0001
0100
,
0010
1000
0100
0001
,
0100
1000
0100
0000
0010
0100
0010
0000
,
2002
3003
0000
0000
0000
0000
0000
0000
0000
0000
0000
0000
0000
0000
0000
0000
1100
0000
0000
0000
0000
0000
0000
0000
0000
0000
0000
0000
0000
0000
0000
0000
0101
0000
0000
0000
0000
0000
0000
0000
0000
0000
0000
0000
0000
0000
0000
0000
1100
0000
0000
0000
0000
0000
0000
0000
0000
0000
0000
0000
0000
0000
0000
0000
,
0101
0000
0010
0100
0010
0000
1001
0000
,
0200
0300
0000
0000
0000
0000
0000
0000
1010
0000
0000
0000
0000
0000
0000
0000
0000
0000
0000
0000
0000
0000
0000
0000
0011
0000
0000
0000
0000
0000
0000
0000
0000
0000
0000
0000
0000
0000
0000
0000
1010
0000
0000
0000
0000
0000
0000
0000
0000
0000
0000
0000
0000
0000
0000
0000
0011
0000
0000
0000
0000
0000
0000
0000
,
0000
0001
0010
0100
1000
0002
2003
3001
,
0001
0100
0000
1000
1000
0100
0000
1010
,
0000
0000
0000
0000
0000
0000
0000
0000
0101
0000
0000
0000
0000
0000
0000
0000
0000
0000
0000
0000
0000
0000
0000
0000
1100
0000
0000
0000
0000
0000
0000
0000
0000
0000
0000
0000
0000
0000
0000
0000
0020
0030
0000
0000
0000
0000
0000
0000
1010
0000
0000
0000
0000
0000
0000
0000
0000
0000
0000
0000
0000
0000
0000
0000
,
1100
0000
0011
0000
0101
0000
0000
1000
,
0000
0001
0000
0100
0010
0100
0010
0000
,
1000
0000
0001
0100
0001
0000
1100
0000
,
0101
0000
0000
0000
0000
0000
0000
0000
0000
0000
0000
0000
0000
0000
0000
0000
1100
0000
0000
0000
0000
0000
0000
0000
0000
0000
0000
0000
0000
0000
0000
0000
0020
0030
0000
0000
0000
0000
0000
0000
0100
0000
0000
0000
0000
0000
0000
0000
0000
0000
0000
0000
0000
0000
0000
0000
0001
0000
0000
0000
0000
0000
0000
0000
,
0000
1000
0100
1000
0000
0011
0000
1010
,
0000
0002
2003
3001
0001
1000
0000
1000
,
1000
0001
0000
0010
0100
0010
0000
0100
,
0000
0000
0000
0000
0000
0000
0000
0000
0020
0030
0000
0000
0000
0000
0000
0000
0001
0000
0000
0000
0000
0000
0000
0000
0010
0000
0000
0000
0000
0000
0000
0000
0001
0000
0000
0000
0000
0000
0000
0000
0000
0000
0000
0000
0000
0000
0000
0000
1000
0000
0000
0000
0000
0000
0000
0000
0010
0000
0000
0000
0000
0000
0000
0000
,
1000
0000
0000
0010
0000
0100
0000
0001
,
0010
0100
2000
0000
0001
0000
0000
0000
,
0001
0000
0001
0000
,
3001
0002
1000
0000
,
1000
0000
1000
0000
,
1003
0200
0010
0000
,
0010
0000
0010
0000
,
0310
0100
1000
0001
,
0010
0100
1000
0001
,
2002
3003
0000
0000
0000
0000
0000
0000
1000
0000
0000
0000
0100
0000
0000
0000
1000
0000
0000
0000
0100
0000
0000
0000
1000
0000
0000
0000
0000
0000
0000
0000
0010
0000
0000
0000
0000
0000
0000
0000
0100
0000
0000
0000
0001
0000
0000
0000
0100
0000
0000
0000
0001
0000
0000
0000
0100
0000
0000
0000
0000
0000
0000
0000
,
0010
1000
0100
0001
0100
1000
0010
0001
,
1001
0000
0001
0010
0001
0010
0001
0000
0100
0000
0010
1000
0010
1000
0010
0000
,
0100
0001
0010
1000
0100
0001
0010
1010
,
0101
0000
1000
0100
1000
0100
1000
0100
2000
0000
3001
0100
0001
0100
0001
0100
,
0002
0000
0013
0100
1000
0000
0010
0100
0001
0000
1010
0000
0101
0000
0011
0000
,
1100
0000
0010
0100
0010
0100
0010
0100
0010
0000
1000
0001
1000
0001
1000
0001
,
1000
0020
0230
0302
0023
2030
3002
0203
,
2300
3001
0000
0001
0000
0001
0000
0001
,
0000
1000
0000
1000
0000
1000
0000
1000
,
0000
0010
0000
0100
0000
0001
0000
1000
,
0000
0000
0000
0000
0000
0000
0000
0000
0010
0000
0000
0000
0000
0000
0000
0000
0000
0000
0000
0000
0010
0000
0000
0000
0000
0000
0000
0000
0000
0000
0000
0000
0010
0000
0000
0000
0000
0000
0000
0000
0000
0000
0000
0000
0010
0000
0000
0000
0000
0000
0000
0000
0000
0000
0000
0000
0020
0030
0000
0000
0000
0000
0000
0000
,
2000
0000
3200
0000
0310
0001
0100
0000
,
0002
0000
0203
0000
0310
1000
0100
0000
,
2000
0000
3002
0000
1003
0001
0100
0000
,
0002
0000
2003
0000
3001
1000
0100
0000
,
0020
0000
0032
0000
1003
0010
0100
0000
,
0020
0000
2030
0000
3001
0010
0100
0000
,
2000
0000
3200
0000
1300
0100
0010
0000
,
0001
0000
1000
0000
0010
0100
0010
1000
,
0002
0000
1000
0000
0203
0000
0310
1000
,
0200
0000
0010
0000
1300
0100
1000
0000
,
2000
0000
0001
0000
3200
0000
0310
0001
,
0200
0000
0010
0000
0301
0100
0001
0000
,
0020
0000
0100
0000
0130
1000
0010
0100
,
0002
1000
0203
0010
,
0302
1000
0100
0013
,
0100
1000
0010
0000
0100
0001
0010
0000
,
0001
0100
0001
0100
0001
0100
0001
0000
,
1000
0100
1000
0100
1000
0100
1000
0000
,
0100
0010
0010
0010
0010
0010
0010
0000
,
0200
0000
0010
0000
0310
0001
0010
0001
,
0010
0001
0100
0000
0010
1000
0010
1000
,
0010
1000
0100
0000
1000
0001
0100
0000
,
0010
0000
0100
0000
0001
1000
0100
0010
,
0001
1001
0000
0000
,
0000
0000
0000
0000
;

//---------------dance-single - ----------------
#NOTES:
     dance-single:
     :
     Hard:
     13:
     :
0000
0000
0000
0000
,
0000
0000
0000
0000
,
0000
0000
0000
0000
,
0000
0000
0000
0000
,
0000
0000
0000
0000
,
0010
0010
1000
1000
,
0001
0001
0100
0100
,
0001
0010
0001
0010
0100
0010
0100
1000
,
0001
0000
0000
0000
1000
0000
0100
0000
1000
0000
0000
0000
0001
0000
0000
0100
,
0000
0010
1000
0000
1010
0000
0100
0010
,
0001
1100
0000
1100
0000
0101
0000
0101
,
0000
0000
1000
0000
0000
0100
1000
0000
0010
0000
1000
0000
0101
0000
0001
0000
,
0100
0000
0001
0000
0000
0000
1000
0000
0000
0100
0000
0000
0010
0000
0001
0000
,
0000
1100
0000
0001
0100
0010
1000
0001
,
0100
0001
1000
0001
0010
0001
1000
0110
,
0000
0000
0101
0000
0000
0000
1000
0000
0001
0100
0001
0000
1000
0000
0100
0000
,
0010
0000
1000
0100
0010
0000
1000
0100
,
0010
0001
0100
0010
1000
0001
0100
0010
,
0000
0001
0100
0010
0000
0001
0100
0010
,
1000
0010
1100
0101
0001
1000
0000
0100
,
0001
1000
0000
0100
0001
1000
0100
0010
,
0001
1001
1000
0100
0010
0100
1000
0010
,
1000
0000
0001
0000
0200
0000
0000
0000
0000
0000
0000
0000
0301
1000
0001
1000
,
0001
0200
0001
0000
,
0001
0000
1000
0000
,
1000
0302
0010
0000
,
0100
2003
0100
3002
,
0010
1003
1100
0010
,
0101
0000
1000
0100
0100
0000
0001
0100
,
0100
0000
0000
0000
1000
0000
0100
1000
0000
0000
1000
0000
0100
0000
0000
0100
,
1000
0000
0001
0000
0010
0000
0100
0000
1000
0000
0010
0000
1000
0001
1000
0001
,
1000
0000
0001
0000
0100
0010
0100
0001
0100
0010
1000
0000
0010
0100
0010
1000
,
0010
0100
0001
0000
0101
0000
1001
0000
2010
0000
3001
0100
0010
0000
1000
0000
,
0110
0000
0000
0000
1000
0000
0000
0000
0010
0000
0100
0000
0010
0000
1000
0000
0010
0000
0100
0000
0010
0000
1000
0100
1000
0100
1000
0000
0001
0000
0010
0000
,
0100
0000
2001
0001
3001
0200
0010
0010
0310
2000
0100
0100
0100
3002
0103
0000
,
1100
0000
1000
0100
1000
0001
1000
0100
1000
0001
1000
1000
0010
0010
1000
1000
,
0100
0000
1010
0010
0200
0000
0302
0013
0200
0000
0310
0001
2000
0000
3001
0100
,
1001
0000
1000
0100
1000
0010
0100
1000
0100
0010
1000
0100
0010
0100
1000
0010
,
0100
0010
2002
0000
0000
0000
0000
0000
3000
0103
0110
0000
1000
0100
0001
0000
,
1100
1001
0000
0100
0000
1000
0001
0100
,
0000
1001
0000
0010
0000
0100
1000
0001
,
0000
1010
0000
0101
0000
1100
0000
0011
,
0000
0000
1000
0000
0000
0001
0000
0000
1000
0000
0010
0000
0100
0000
0020
0000
,
1030
0000
0000
0100
0000
0000
1000
0000
0010
0000
0100
0000
0001
0000
0000
0000
,
1000
0000
0000
0010
0000
0000
1000
0000
0100
0000
0010
0000
0001
0000
0000
0000
,
1000
0000
0000
0001
0000
0000
0100
0000
0001
0000
0010
0000
0100
0000
0000
0000
,
1000
0000
0010
0100
0000
0100
0001
0000
1000
0000
0010
0000
0100
0000
0001
0000
,
1000
0000
0010
0100
0000
0000
0001
0000
0010
0000
0100
0000
1000
0000
0000
0000
,
0010
0000
0100
0001
0000
0000
1000
0000
0100
0000
0010
0000
0001
0000
0100
0000
,
0010
0000
1000
0001
0000
0000
0100
0000
0010
0100
0000
0001
0100
0000
0010
0000
,
2002
0000
0000
0000
0000
3003
0110
0000
,
1000
0100
0010
0100
0001
0100
0010
0000
,
0010
0001
1000
0001
0100
1000
0100
0000
,
0100
0001
0010
1000
0010
0001
0100
0000
,
0100
0000
0001
1000
0000
0000
0010
0000
0100
0000
0001
0000
1000
0000
0100
0000
,
1000
0001
0100
0010
1000
0100
1000
0000
,
1000
0010
0001
0010
1000
0100
0010
0000
,
0010
0001
0010
1000
0010
0001
0010
0100
,
1000
0100
0001
0100
1000
0001
1000
0000
,
1000
0001
0001
0001
1000
0100
0010
0000
,
0010
0001
0001
0001
0010
0100
1000
0000
,
1000
0010
0010
0010
0100
0001
0010
0001
,
1000
0010
1000
0010
0000
0100
0001
0100
0001
0000
1000
0000
0000
0000
0110
0000
,
0000
1100
0000
0101
0000
1100
0000
0011
,
1000
0000
0100
0000
0010
0000
0001
0000
1000
0000
0100
1000
0000
0000
0010
0000
,
1000
0000
0000
0001
1000
0000
0010
0000
1000
0100
1000
0100
0000
0000
1000
0000
,
0000
0100
0010
0000
1001
0000
0000
0000
0000
0000
0000
0000
0000
0000
0000
0000
,
0000
0000
0000
0000
;

//---------------dance-single - ----------------
#NOTES:
     dance-single:
     :
     Challenge:
     16:
     :
0000
0000
0000
0000
,
0000
0000
0000
0000
,
0000
0000
0000
0000
,
0000
0000
0000
0000
,
0000
0000
0000
0000
,
0010
0000
0000
0100
0010
0000
1000
0000
0010
0000
0000
0100
0010
0000
0001
0000
,
0010
0100
0000
0010
1000
0000
0001
0000
0010
0100
0000
0010
0001
0000
1000
0000
,
0001
0000
0010
0000
0100
0000
1000
0000
0001
0010
0100
1000
0010
0100
0001
1000
,
0100
0000
0000
0000
1001
0000
0000
0000
1100
0000
0000
0000
0001
1000
0000
0100
,
1000
0000
0010
0000
1000
0100
1000
0000
0001
0100
0001
0000
0100
0000
0000
0000
,
0110
0000
1001
0000
0000
0000
0101
0000
0000
0000
1000
0001
0000
0100
0001
0000
,
0010
0000
0001
0100
0001
0000
1000
0100
1000
0000
0100
0010
0001
1000
0110
0000
,
0000
0000
1010
0000
0000
0000
0010
1000
0000
0010
0001
0000
0010
0000
0100
0010
,
1000
0001
0010
0100
1000
0001
2000
0000
0000
0000
3001
0000
0110
0000
0000
0000
,
0011
0000
0000
0000
0010
0001
0000
0010
1000
0000
0010
0000
0100
0010
0001
0000
,
1000
0010
0100
0000
0001
0010
0100
1000
0001
0100
0010
1000
0100
1000
0000
0100
,
1000
0000
0010
0000
0100
0001
0000
0100
0001
0000
0010
0000
0100
0010
0100
0000
,
1000
0100
0010
0001
2000
0000
0000
0000
3001
0000
0100
0001
0000
0100
0001
0000
,
0010
0000
0100
1000
0000
0100
1000
0000
0010
0000
0100
0010
0100
0000
0001
0100
,
0010
0000
1000
0000
0001
0100
0001
0000
0010
0000
0100
0000
1000
0000
0100
0000
1000
0000
0000
0000
0010
0000
0100
0000
0010
0000
1000
0000
0100
0000
0000
0000
,
1000
0000
0010
0000
0100
0000
0001
0100
1000
0000
0100
0001
0010
0000
0100
0010
,
0100
0000
1001
0000
0001
0100
0001
0000
0010
0100
0010
0001
0100
0000
0001
0000
,
0010
0000
0100
0000
1000
0100
0001
0000
0100
1000
0010
0000
0100
0010
0100
0010
,
1000
0001
1000
0001
0200
0000
0000
0000
0000
0000
0000
0000
0000
0000
0000
0000
,
0000
0000
0000
0000
,
0000
0000
0000
0000
,
0000
0000
0000
0000
,
0000
0300
0010
1000
0001
0000
0100
0001
,
0010
0000
0100
1000
0001
0000
1000
0010
,
0100
0000
0001
0010
0100
1000
0010
0100
,
0001
0000
0010
0100
0010
1000
0001
0100
,
1001
0000
0000
0000
0101
0000
0001
0100
0010
0100
0001
0100
0010
0100
0001
0010
0100
1000
0100
0000
1100
0000
0100
1000
0100
0010
0100
1000
0100
0010
0100
1000
,
0100
0010
0001
0100
0020
0000
1030
0001
0100
0000
0020
0000
1030
0010
2000
0000
3001
0010
0002
0000
1003
0010
1000
0000
0100
0000
0010
0000
0001
0100
0010
0000
,
2002
0000
3003
0000
1100
0000
1000
0100
0010
0100
1000
0100
0010
0100
1000
0010
0100
0001
0100
0000
0002
0000
0103
0001
0100
0010
0100
0001
0100
0010
0100
0001
,
0100
0010
1000
0100
0020
0000
0031
1000
0100
0000
0020
0000
0031
0010
0000
0001
0010
0000
2000
0000
3010
0001
0100
0000
0010
0000
1000
0000
1100
0000
0000
0000
,
0101
0000
0000
0000
1001
0000
0001
1000
0100
1000
0100
1000
0001
0100
0001
1000
0100
1000
0001
0000
0100
0000
0010
0000
0100
0010
1000
0001
0010
0000
0100
0000
,
0010
0100
0010
0000
0012
0000
0013
0100
2000
0000
0010
0000
3010
0000
0200
0000
0010
0000
0310
0000
0002
0000
0010
0000
0013
0000
0001
0000
0010
0000
1000
0000
,
0110
0000
0000
0000
1001
0000
1000
0001
0010
0001
0010
0001
1000
0010
1000
0001
0010
0001
1000
0000
0010
0000
0100
0010
1000
0010
0100
0001
0100
0000
0001
0000
,
0100
0010
0100
0000
0010
0000
1000
0010
1000
0000
0100
0000
0010
0001
0000
0010
0100
0000
0010
0000
0100
0010
0001
0000
0100
0000
0010
0000
0100
0010
1000
0100
,
0020
0030
2002
0000
0000
0000
0000
0000
0000
0000
0000
0000
0000
0000
0000
0000
,
0000
0000
0000
0000
,
3003
0000
0000
1000
0100
0000
0001
0100
0000
1000
0100
0000
0001
0100
0000
1000
,
0010
0000
0002
0000
0000
2003
0000
0000
3001
0010
0100
1000
0001
0000
2001
0000
,
3002
0000
0000
0023
0000
0000
0130
0000
1000
0100
0010
0000
0001
0000
0100
0000
,
0020
0000
0000
2030
0000
0000
3100
0000
1000
0100
0010
0000
0001
0000
0100
0000
,
0020
0000
0000
2030
0000
0000
3001
0000
0010
0100
1000
0000
0001
0000
0010
0000
,
0200
0000
0000
0302
0000
0000
0203
0000
0000
2300
0000
0000
3020
0000
0230
0000
,
0320
0000
0000
2030
0000
0000
3010
0000
0100
0001
0010
0000
0011
0000
0001
0000
,
0200
0000
0000
0320
0000
0000
1030
0000
0001
1000
0100
0000
1100
0000
0100
0000
,
0020
0000
0000
0032
0000
0000
2003
0000
0000
3020
0000
0000
0230
0000
0000
0302
,
0000
0000
0203
0000
0000
2300
0000
0000
3200
0000
0000
0302
0000
0000
0013
0000
,
0010
0001
0000
0010
0001
0000
0100
0000
0010
1000
0001
0000
0110
0000
0000
0000
,
0001
0100
0000
0001
0100
0000
1000
0000
0001
0010
0100
0000
1001
0000
0000
0000
,
0100
0001
0000
0100
0001
0000
0010
0000
0100
1000
0001
0000
0110
0000
0000
0000
,
1000
0100
0000
1000
0100
0000
0001
0000
1000
0010
0100
0000
1001
0000
0000
0000
,
0100
0000
0010
1000
0000
1000
0100
0000
0010
0001
0010
0000
0100
1000
0100
0000
,
0010
0000
0100
1000
0000
1000
0010
0000
0100
0001
0100
0000
0010
1000
0010
0000
,
0100
0000
0001
0010
0000
0010
0001
0000
1000
0010
1000
0000
0001
0100
0001
0000
,
1000
0100
1000
0001
0100
0001
0010
0100
2000
0000
0000
3002
0000
0000
0013
0000
,
1100
0000
1000
0100
0010
0100
1000
0100
0010
0100
1000
0010
0100
0001
0100
0000
,
0101
0000
0001
0100
0010
0100
0001
0100
0010
0100
0001
0010
0100
1000
0100
0000
,
0020
0000
0230
0000
1300
0100
1000
0100
0010
0001
0010
0001
1000
0100
1000
0200
,
0010
0010
0010
0010
0010
0010
0010
0310
1001
0000
0001
0010
0001
0010
0001
0010
,
0100
1000
0010
1000
0100
1000
0010
0000
1001
0000
1000
0010
1000
0010
1000
0010
,
0100
0001
0010
0001
0100
0001
0010
0000
1001
0000
0001
0010
0100
0000
0010
0000
,
0001
0010
0000
1000
0010
0000
0100
0000
0010
1000
0001
0000
0100
0000
0010
0000
,
1000
0100
0010
0001
1000
0000
0000
0000
0000
0000
0000
0000
0000
0000
0000
0000
,
0000
0000
0000
0000
;

//---------------dance-double - ----------------
#NOTES:
     dance-double:
     :
     Easy:
     7:
     :
00000000
00000000
00000000
00000000
,
00000000
00000000
00000000
00000000
,
00000000
00000000
00000000
00000000
,
00000000
00000000
00000000
00000000
,
00000000
00000000
00000000
00000000
,
10000000
00100000
01000000
00010000
,
00100000
00001000
00010000
00000100
,
00001000
00000010
00000100
00000001
,
00002002
00003003
00000000
00000000
00000000
00000000
00000000
00000000
00000000
00000000
00000000
00000000
00000000
00000000
00000000
00000000
00000100
00000000
00000000
00000000
00000000
00000000
00000000
00000000
00000000
00000000
00000000
00000000
00000000
00000000
00000000
00000000
00000100
00000000
00000000
00000000
00000000
00000000
00000000
00000000
00000000
00000000
00000000
00000000
00000000
00000000
00000000
00000000
00000001
00000000
00000000
00000000
00000000
00000000
00000000
00000000
00000000
00000000
00000000
00000000
00000000
00000000
00000000
00000000
,
00000010
00000110
00001001
00011000
,
00000000
01000000
00000000
01000000
00000000
10000000
00000000
00100000
,
00000000
01100000
00000000
10010000
00000000
00022000
00033000
00001000
,
00000000
00001000
00000000
00000100
00000000
00000001
00000000
00000110
,
00000000
00001001
00000000
00011000
00000000
00000000
00010000
00000000
,
00010000
01000000
10000000
01100000
,
10010000
00000000
00100000
01000000
01000000
00000000
00010000
00000000
,
01000000
00001000
00010000
00000100
,
00001000
00000000
00000020
00000030
00000000
00001000
00000000
00000100
,
00000000
00010000
00000000
00001000
00000000
00100000
00000000
00010000
,
00000000
02000000
03000000
00010000
00000000
01000000
00000000
00100000
,
00000000
10000000
00000000
01000000
00000000
00100000
00000000
00002000
,
00003000
00010000
00001000
00000010
,
00000001
00000000
00000100
00000000
00000010
00000000
00001000
00001000
,
00000001
00001001
00000100
00000000
,
00000100
00000000
00001000
00000000
,
00001000
00000000
00010000
00000000
,
00010000
00000000
00100000
00000000
,
00100000
10010000
01000000
00000000
,
01000000
00000000
00010000
00000000
,
00010000
00000000
00001000
00000000
,
00001000
00000200
00000000
00000000
,
00000310
00000100
00000001
00000010
00000100
00001000
00010000
01000000
,
00100000
20000000
00000000
01000000
31000000
00100000
00010000
10000000
,
10010000
01000000
10000000
00100000
01000000
00010000
00001000
00000100
,
00000010
00000002
00000000
00000100
00000103
00000010
00001000
00001001
,
00001001
00000001
00000001
00001000
00001000
00010000
00010000
10000000
,
10000000
00100000
01000000
00100000
01000000
01100000
10010000
01100000
,
10010000
10000000
10000000
00010000
00010000
00001000
00001000
00000001
,
00000001
00000200
00000000
00000000
00000000
00000000
00000000
00000010
,
00000310
00002002
00000000
00000000
00000000
00000000
00000000
00000000
,
00000000
00000000
00000000
00000000
,
00003003
00000100
00000000
00000001
00000000
00000010
00000000
00001000
,
00000000
00000000
00000000
00000000
00000000
00000000
00000000
00000000
00000200
00000000
00000000
00000000
00000000
00000000
00000000
00000000
00000000
00000000
00000000
00000000
00000000
00000000
00000000
00000000
00000000
00000000
00000000
00000000
00000000
00000000
00000000
00000000
00000000
00000000
00000000
00000000
00000000
00000000
00000000
00000000
00000310
00000000
00000000
00000000
00000000
00000000
00000000
00000000
00000000
00000000
00000000
00000000
00000000
00000000
00000000
00000000
00002002
00003003
00000000
00000000
00000000
00000000
00000000
00000000
,
00000100
00000001
00000010
00001001
,
00000100
00001000
00000010
00001001
,
00000100
00010000
00001000
00011000
,
00100000
00001000
00010000
00011000
,
01000000
10000000
00100000
10010000
,
01000000
00010000
00100000
10010000
,
01000000
00001000
00010000
00011000
,
00000010
00010000
00001000
00011000
,
00200000
00310000
00002000
00013000
,
00020000
00030100
00000010
00000100
,
00000020
00001030
00020000
00031000
,
00002000
01003000
00100000
01000000
,
20000000
30010000
00200000
00301000
,
00020000
00030100
00000010
00000100
,
00000010
00000001
00000100
00001000
,
00000010
00000100
00000220
00000330
,
00000001
00000000
00000010
00000000
00000001
00000010
00000001
00000000
,
00001000
00000000
00000100
00000000
00001000
00000100
00001000
00000000
,
00000100
00000000
00010000
00000000
00001000
00010000
00001000
00000000
,
00022000
00033000
01000000
00000000
10000000
00000000
00100000
00000000
,
10000000
00100000
10000000
00000000
00010000
00000000
01000000
00000000
,
00010000
01000000
00010000
00000000
01000000
00000000
00001000
00000000
,
00010000
00001000
00010000
00000000
00000010
00000000
00001000
00000000
,
00000100
00001001
00000000
00000000
,
00000000
00000000
00000000
00000000
;

//---------------dance-double - ----------------
#NOTES:
     dance-double:
     :
     Medium:
     10:
     :
00000000
00000000
00000000
00000000
,
00000000
00000000
00000000
00000000
,
00000000
00000000
00000000
00000000
,
00000000
00000000
00000000
00000000
,
00000000
00000000
00000000
00000000
,
00000001
00000010
00000001
00000100
,
00000010
00001000
00000100
00010000
,
01000000
10000000
01000000
00000000
00100000
00001000
00010000
00000000
,
00022000
00033000
00000000
00000000
00000000
00000000
00000000
00000000
00000000
00000000
00000000
00000000
00000000
00000000
00000000
00000000
00001100
00000000
00000000
00000000
00000000
00000000
00000000
00000000
00000000
00000000
00000000
00000000
00000000
00000000
00000000
00000000
00000101
00000000
00000000
00000000
00000000
00000000
00000000
00000000
00000000
00000000
00000000
00000000
00000000
00000000
00000000
00000000
00001010
00000000
00000000
00000000
00000000
00000000
00000000
00000000
00000000
00000000
00000000
00000000
00000000
00000000
00000000
00000000
,
00000011
00000000
00000001
00000100
00001000
00000000
00011000
00000000
,
00200000
00300000
00000000
00000000
00000000
00000000
00000000
00000000
11000000
00000000
00000000
00000000
00000000
00000000
00000000
00000000
00000000
00000000
00000000
00000000
00000000
00000000
00000000
00000000
00110000
00000000
00000000
00000000
00000000
00000000
00000000
00000000
00000000
00000000
00000000
00000000
00000000
00000000
00000000
00000000
10100000
00000000
00000000
00000000
00000000
00000000
00000000
00000000
00000000
00000000
00000000
00000000
00000000
00000000
00000000
00000000
00110000
00000000
00000000
00000000
00000000
00000000
00000000
00000000
,
00000000
10000000
01000000
00010000
00000000
00002000
00003200
00000301
,
00000100
00000010
00000000
00001000
00000100
00000010
00000000
00000110
,
00000000
00000000
00000000
00000000
00000000
00000000
00000000
00000000
00001100
00000000
00000000
00000000
00000000
00000000
00000000
00000000
00000000
00000000
00000000
00000000
00000000
00000000
00000000
00000000
00011000
00000000
00000000
00000000
00000000
00000000
00000000
00000000
00000000
00000000
00000000
00000000
00000000
00000000
00000000
00000000
00200000
00300000
00000000
00000000
00000000
00000000
00000000
00000000
11000000
00000000
00000000
00000000
00000000
00000000
00000000
00000000
00000000
00000000
00000000
00000000
00000000
00000000
00000000
00000000
,
01010000
00000000
00110000
00000000
10100000
00000000
00000000
10000000
,
00000000
01000000
00000000
00100000
00010000
00001000
00000100
00000000
,
00000010
00000000
00000001
00000100
00000010
00000000
00001010
00000000
,
00011000
00000000
00000000
00000000
00000000
00000000
00000000
00000000
00000000
00000000
00000000
00000000
00000000
00000000
00000000
00000000
01010000
00000000
00000000
00000000
00000000
00000000
00000000
00000000
00000000
00000000
00000000
00000000
00000000
00000000
00000000
00000000
00200000
00300000
00000000
00000000
00000000
00000000
00000000
00000000
01000000
00000000
00000000
00000000
00000000
00000000
00000000
00000000
00000000
00000000
00000000
00000000
00000000
00000000
00000000
00000000
00100000
00000000
00000000
00000000
00000000
00000000
00000000
00000000
,
00000000
00010000
00100000
00010000
00000000
00110000
00000000
00011000
,
00000000
00000000
00000200
00000000
00000001
00000301
00000010
00000000
00000100
00000000
00000010
00000000
00000000
00000000
00000001
00000000
,
00000100
00001000
00000000
00010000
00001000
00100000
00000000
01100000
,
00000000
00000000
00000000
00000000
00000000
00000000
00000000
00000000
00200000
00300000
00000000
00000000
00000000
00000000
00000000
00000000
00010000
00000000
00000000
00000000
00000000
00000000
00000000
00000000
00100000
00000000
00000000
00000000
00000000
00000000
00000000
00000000
01000000
00000000
00000000
00000000
00000000
00000000
00000000
00000000
00000000
00000000
00000000
00000000
00000000
00000000
00000000
00000000
10000000
00000000
00000000
00000000
00000000
00000000
00000000
00000000
01000000
00000000
00000000
00000000
00000000
00000000
00000000
00000000
,
00100000
00000000
00000000
00001000
00000000
00010000
00000000
00001000
,
00000100
00000001
00000020
00000000
00000001
00000000
00000000
00000000
,
00000001
00000000
00000001
00000000
,
00000031
00000100
00002000
00000000
00010000
00000000
00000000
00000000
,
00010000
00000000
00010000
00000000
,
00013000
00001000
00200000
00000000
00010000
00000000
00000000
00000000
,
00010000
00000000
00010000
00000000
,
00310000
01000000
10000000
00010000
,
00100000
00001000
00000010
00000100
,
00002002
00003003
00000000
00000000
00000000
00000000
00000000
00000000
00000010
00000000
00000000
00000000
00001000
00000000
00000000
00000000
00000100
00000000
00000000
00000000
00000010
00000000
00000000
00000000
00000001
00000000
00000000
00000000
00000000
00000000
00000000
00000000
00000110
00000000
00000000
00000000
00000000
00000000
00000000
00000000
00000010
00000000
00000000
00000000
00000001
00000000
00000000
00000000
00000100
00000000
00000000
00000000
00000010
00000000
00000000
00000000
00001000
00000000
00000000
00000000
00000000
00000000
00000000
00000000
,
00001001
00000010
00000001
00000100
00001000
00010000
01000000
10000000
,
10010000
00000000
01000000
00010000
00100000
01000000
10000000
00000000
01100000
00000000
01000000
10000000
00100000
01000000
00010000
00000000
,
10010000
00100000
10000000
01000000
00010000
00001000
00000100
00001010
,
00011000
00000000
00100000
00010000
00100000
00001000
00010000
00001000
00000100
00000000
00000010
00000100
00000010
00010000
00001000
00010000
,
02000000
00000000
03100000
01000000
10000000
00000000
01000000
00100000
00010000
00000000
00110000
00000000
00011000
00000000
00001100
00000000
,
00011000
00000000
00000010
00001000
00000010
00010000
00001000
00010000
01000000
00000000
00100000
01000000
00100000
00001000
00010000
00001000
,
00000100
00000020
00002030
00003200
00020300
00032000
00023000
02030000
,
23000000
30010000
00000000
00010000
00000000
00100000
00000000
00100000
,
00000000
00001000
00000000
00001000
00000000
00010000
00000000
00010000
,
00000000
00000100
00000000
00000100
00000000
00000010
00000000
00000010
,
00000000
00000000
00000000
00000000
00000000
00000000
00000000
00000000
00000001
00000000
00000000
00000000
00000000
00000000
00000000
00000000
00000000
00000000
00000000
00000000
00001000
00000000
00000000
00000000
00000000
00000000
00000000
00000000
00000000
00000000
00000000
00000000
00000001
00000000
00000000
00000000
00000000
00000000
00000000
00000000
00000000
00000000
00000000
00000000
00001000
00000000
00000000
00000000
00000000
00000000
00000000
00000000
00000000
00000000
00000000
00000000
00002002
00003003
00000000
00000000
00000000
00000000
00000000
00000000
,
00000101
00000000
00000011
00000000
00000100
00000010
00001000
00000000
,
00001100
00000000
00011000
00000000
00010000
00001000
00100000
00000000
,
01010000
00000000
00110000
00000000
00010000
10000000
00100000
00000000
,
10000000
00100000
01000000
00010000
01000000
00100000
10000000
00000000
,
11000000
00000000
10100000
00000000
01000000
00100000
00010000
00000000
,
01010000
00000000
00011000
00000000
00001000
00010000
00000010
00000000
,
00001100
00000000
00001010
00000000
00001000
00000001
00000010
00000000
,
00000001
00000010
00000100
00001000
00000100
00000010
00000001
00000000
,
00000200
00000000
00000001
00000000
00000320
00000000
00001030
00000100
,
00020000
00000000
00001000
00000000
00130000
10000000
01000000
00000000
,
02000000
00000000
10000000
00000000
03200000
00000000
00310000
01000000
,
00002000
00000000
00010000
00000000
00003010
00000001
00000100
00000000
,
00000002
00000000
00000010
00000000
00000103
00000001
00000100
00001000
,
00020000
00001000
00230000
10000000
,
00320000
10000000
00130000
20000000
,
31000000
10000000
00100000
00000000
01000000
00010000
00100000
00000000
,
10000000
01000000
00010000
00001000
00010000
00001000
00000100
00000000
,
00000001
00000100
00001000
00010000
00001000
00010000
01000000
00000000
,
10000000
00100000
00010000
00100000
10000000
01000000
00010000
00000000
,
02000000
00000000
00010000
00000000
03010000
00001000
00000100
00000001
,
00000010
00000100
00001000
00000000
00000100
00001000
00000010
00010000
,
01000000
00100000
00010000
00000000
10000000
00010000
01000000
00000000
,
00100000
00000000
01000000
00000000
00010000
00100000
00001000
00000100
,
00000010
00011000
00000000
00000000
,
00000000
00000000
00000000
00000000
;

//---------------dance-double - ----------------
#NOTES:
     dance-double:
     :
     Hard:
     13:
     :
00000000
00000000
00000000
00000000
,
00000000
00000000
00000000
00000000
,
00000000
00000000
00000000
00000000
,
00000000
00000000
00000000
00000000
,
00000000
00000000
00000000
00000000
,
00000010
00000010
00001000
00001000
,
00010000
00010000
00100000
00100000
,
10000000
01000000
00100000
00001000
00010000
00000100
00000010
00000001
,
00001000
00000000
00000000
00000000
00000001
00000000
00000100
00000000
00000001
00000000
00000000
00000000
00000100
00000000
00000000
00001000
,
00000000
00010000
01000000
10000000
01000000
00000000
00100000
00001000
,
00010000
00011000
00000000
00010100
00000000
00001100
00000000
00001001
,
00000000
00000000
00000001
00000000
00000000
00000100
00000010
00000000
00001000
00000000
00001100
00000000
00011000
00000000
00010000
00000000
,
01000000
00000000
10000000
00000000
00000000
00000000
00010000
00000000
00000000
01000000
00000000
00000000
00100000
00000000
10000000
00000000
,
00000000
01010000
00000000
10000000
01000000
00100000
00001000
00010000
,
00000100
00010000
00100000
10000000
01000000
00100000
00010000
00100000
,
00000000
00101000
00000000
00011000
00000000
00010000
00000010
00000100
,
00001000
00000000
00000100
00001000
00010000
00000000
00001000
00010000
,
01000000
10000000
01000000
10000000
00010000
01000000
00100000
00010000
,
00000000
00100000
00010000
00001000
00000000
00010000
00001000
00000100
,
00000001
00000101
00000110
00001000
00000100
00010000
00000000
00001000
,
00000100
00010000
00000000
00001000
00010000
01000000
00100000
00010000
,
00100000
00001000
01000000
00001000
00010000
00000000
01000000
00001000
,
00010000
00000000
00000100
00000100
00010000
00010000
00001000
00001000
,
00100000
00100000
00011000
00000000
00000000
00000000
00000000
00000000
,
00001000
00000000
00010000
00000000
,
00000010
00000000
00100000
00000000
,
00000010
00000000
00100000
00000000
,
01000000
10000000
01000000
00100000
,
00010000
00001000
00000100
00000010
,
00000001
00000000
00000000
00000000
00001000
00000000
00000100
00001000
00000000
00000000
00000010
00000000
00010000
00000000
00000000
00001000
,
00010000
00000000
01000000
00000000
10000000
00000000
00100000
00000000
10000000
00000000
00010000
00000000
01000000
00100000
01000000
00100000
,
01000000
00000000
00010000
00000000
00100000
00001000
00010000
00001000
00100000
00001000
00010000
00000000
00001000
00010000
00000100
00001000
,
00000010
00000100
00000001
00000010
00000001
00000000
00000101
00000000
00002010
00000000
00003100
00010000
00001000
00000000
00011000
00000000
,
00110000
00000000
00000000
00000000
20000000
00000000
00000000
00000000
30010000
00000000
01000000
00000000
00100000
00000000
00010000
00000000
00001000
00000000
00010000
00000000
00000100
00000000
00010000
00001000
00010000
00001000
00010000
00000000
00001000
00000000
00000100
00000000
,
00000010
00000000
00001020
00001000
00001000
00020030
00001000
00001000
00031000
02000000
00010000
00010000
03010000
20000000
30100000
00000000
,
01100000
00000000
01000000
00010000
00100000
00001000
00010000
00100000
00010000
00001000
00000100
00000100
00000010
00000010
00001000
00001000
,
00000001
00000000
00000100
00000000
00000001
00000000
00000010
00000001
00000010
00000000
00000100
00000000
00010000
00000000
01000000
00000000
10000000
00000000
00100000
00000000
01000000
00000000
00010000
00000000
00100000
00000000
01000000
00000000
01100000
00000000
01100000
00000000
,
10010000
00000000
00100000
00100000
00001000
00010000
00001000
00001000
00000100
00000001
00001000
00001000
00000100
00000001
00000100
00000100
,
00001001
00000000
00000220
00000000
00000000
00000000
00000000
00000000
00000330
00000000
00001000
00010000
01000000
00000000
01000000
10000000
,
00010000
01000000
00000000
00010000
00000000
01000000
00100000
00010000
,
00000000
00001000
00000010
00000001
00000000
00001000
00000100
00010000
,
00000000
01000000
10000000
00010000
00000000
00100000
00001000
00010000
,
00000000
00000000
00000010
00000000
00000000
00000100
00000000
00000000
00000001
00000000
00001000
00000000
00000100
00000000
00000020
00000000
,
00001030
00000000
00000000
00010000
00000000
00000000
01000000
00000000
10000000
00000000
00010000
00000000
01000000
00000000
00000000
00000000
,
00100000
00000000
00000000
00010000
00000000
00000000
00001000
00000000
00000010
00000000
00000001
00000000
00000100
00000000
00000000
00000000
,
00001000
00000000
00000000
00010000
00000000
00000000
00100000
00000000
10000000
00000000
00010000
00000000
00100000
00000000
00000000
00000000
,
00001000
00000000
00100000
00001000
00000000
00001000
00010000
00000000
00001000
00000000
00010000
00000000
00000100
00000000
00000010
00000000
,
00000001
00000000
00001000
00000100
00000000
00000000
00010000
00000000
00001000
00000000
01000000
00000000
00010000
00000000
00100000
00000000
,
00010000
00000000
10000000
01000000
00000000
00000000
00100000
00000000
00001000
00000000
00010000
00000000
00000100
00000000
00000010
00000000
,
00000001
00000000
00001000
00000001
00000000
00000000
00000100
00000000
00001000
00010000
00000000
00001000
00100000
00000000
01000000
00000000
,
22000000
00000000
00000000
00000000
00000000
33000000
10010000
00000000
,
01000000
00100000
00001000
00010000
01000000
00100000
00001000
00010000
,
00001000
01000000
00100000
00010000
00001000
01000000
00100000
00010000
,
00001000
00010000
00000010
00000100
00001000
00010000
00000010
00000100
,
00001000
00010000
00100000
01000000
10000000
01000000
00100000
00010000
,
00001000
00000010
00000001
00001000
00000010
00000100
00001000
00100000
,
10000000
00100000
00010000
01000000
00100000
00010000
00001000
00000100
,
00000001
00000010
00000011
00000000
00001000
00000100
00010100
00000000
,
00010000
01000000
10000000
00010000
00100000
01000000
10000000
00000000
,
10000000
00100000
00100000
00100000
00010000
00001000
00000010
00000000
,
00000001
00000010
00000010
00000010
00001000
00010000
00100000
00000000
,
10000000
00100000
00100000
00100000
00010000
00001000
00000010
00000000
,
00000001
00000010
00000100
00001000
00000000
00000100
00010000
00001000
00010000
00000000
01000000
00000000
10000000
00000000
01000000
00000000
,
00000000
01000000
00010000
00100000
00000000
00100000
00010000
00001000
,
00000000
00000000
00001000
00000000
00000010
00000000
00000100
00000000
00000001
00000000
00001000
00000100
00000000
00000000
00010000
00000000
,
00001000
00000000
00000000
00010000
00001000
00000000
00010000
00000000
01000000
00000000
10000000
00000000
00010000
00000000
00100000
00000000
,
00001000
00011000
00000000
00000000
,
00000000
00000000
00000000
00000000
;

//---------------dance-double - ----------------
#NOTES:
     dance-double:
     :
     Challenge:
     16:
     :
00000000
00000000
00000000
00000000
,
00000000
00000000
00000000
00000000
,
00000000
00000000
00000000
00000000
,
00000000
00000000
00000000
00000000
,
00000000
00000000
00000000
00000000
,
00001000
00000000
00000000
00010000
00001000
00000000
00000100
00000000
00001000
00000000
00000000
00010000
01000000
00000000
00010000
00000000
,
00001000
00000100
00000000
00000100
00000001
00000000
00000010
00000000
00000100
00000010
00000000
00000010
00000001
00000000
00000100
00000000
,
00001000
00000000
00010000
00000000
01000000
00000000
10000000
00000000
00010000
00100000
01000000
10000000
00100000
01000000
00010000
10000000
,
01000000
00000000
00000000
00000000
00110000
00000000
00000000
00000000
00011000
00000000
00000000
00000000
00001000
00000100
00000000
00000100
,
00000001
00000000
00000010
00000000
00000100
00001000
00000100
00000000
00010000
00000100
00001000
00000000
00000110
00000000
00000000
00000000
,
00000101
00000000
00001010
00000000
00000000
00000000
00011000
00000000
00000000
00000000
00010000
01000000
00000000
01000000
10000000
00000000
,
00100000
00000000
01000000
00010000
01000000
00000000
00001000
01000000
00010000
00000000
01000000
00100000
00010000
00001000
00000110
00000000
,
00000000
00000000
00001001
00000000
00000000
00000000
00000001
00000100
00000000
00000100
00001000
00000000
00010000
00000000
01000000
00100000
,
00010000
00000000
01000000
00100000
10000000
00010000
20000000
00000000
00000000
00000000
30010000
00000000
01100000
00000000
00000000
00000000
,
10010000
00000000
00000000
00000000
10000000
01000000
00000000
01000000
00010000
00000000
00001000
00000000
00000100
00000010
00001000
00000000
,
00000100
00000010
00000001
00000000
00001000
00000100
00010000
00001000
00100000
00001000
00010000
00000100
00000010
00000001
00000000
00000010
,
00000001
00000000
00000100
00000000
00001000
00010000
00000000
00001000
00010000
00000000
00100000
00000000
01000000
00100000
01000000
00000000
,
00010000
01000000
00100000
10000000
00020000
00000000
00000000
00000000
10030000
00000000
00100000
10000000
00000000
00100000
10000000
00000000
,
01000000
00000000
00010000
00001000
00000000
00010000
00001000
00000000
00000010
00000000
00000100
00000010
00000100
00000000
00001000
00000100
,
00000010
00000001
00002000
00000000
00000001
00003001
00000100
00000010
00000100
00000000
00000001
00000010
00000001
00000100
00000010
00000000
,
00000100
00000000
00001000
00000000
00010000
00000000
01000000
10000000
00100000
00000000
01000000
00010000
00100000
00000000
00010000
00100000
,
01000000
00000000
10010000
00000000
01000000
00100000
01000000
00000000
10000000
00100000
10000000
01000000
00100000
00000000
01000000
00000000
,
00010000
00000000
00001000
00000000
00000100
00000001
00000010
00000000
00000100
00001000
00000010
00000000
00001000
00000010
00000100
00000000
,
00000001
00000100
00001000
00010000
02000000
00000000
00000000
00000000
00100000
00000000
00000000
00000000
00000000
00000000
00000000
00000000
,
00100000
00000000
10000000
00000000
,
10000000
00000000
00010000
00000000
,
00010000
00000000
10000000
00000000
,
00010000
00000000
03100000
00010000
10000000
00000000
01000000
10000000
,
00100000
00000000
00010000
00001000
00000100
00000000
00000010
00001000
,
00000100
00000000
00000010
00000001
00000100
00001000
00010000
01000000
,
10000000
01000000
00010000
00001000
00000010
00000001
00000100
00000010
,
00001001
00000000
00000000
00000000
00000101
00000000
00000001
00000100
00000001
00000100
00000010
00001000
00000010
00001000
00000100
00001000
00000100
00010000
00001000
00000000
00011000
00000000
00010000
00001000
00010000
00001000
00100000
00010000
00100000
00010000
10000000
01000000
,
10000000
01000000
00100000
00010000
00200000
00000000
00310000
10000000
01000000
00000000
00200000
00000000
00310000
00100000
00002000
00000000
00013000
00001000
00000200
00000000
00000310
00001000
00000010
00000000
00000100
00000000
00001000
00000000
00010000
01000000
00100000
00000000
,
02200000
00000000
03300000
00000000
11000000
00000000
10000000
01000000
10000000
01000000
00100000
00010000
00100000
00010000
01000000
00010000
01000000
00001000
00010000
00000000
00011000
00000000
00001000
00010000
00001000
00010000
00000010
00001000
00000010
00001000
00000001
00000100
,
00000001
00000100
00000010
00001000
00000020
00000000
00001030
00000001
00000100
00000000
00000020
00000000
00001030
00000010
00000000
00001000
00000010
00000000
00000100
00000000
00000010
00000100
00001000
00000000
00000100
00000000
00000001
00000000
00002002
00000000
00003003
00000000
,
00000220
00000000
00000330
00000000
00001001
00000000
00000001
00000100
00000001
00000100
00000001
00000100
00000001
00000100
00001000
00010000
01000000
10000000
01000000
00000000
10000000
00000000
00100000
00000000
10000000
00100000
10000000
00010000
00100000
00000000
01000000
00000000
,
00010000
00001000
00000100
00000001
00000020
00000000
00000130
00001000
00000020
00000000
00000100
00000000
00000130
00000000
00000002
00000000
00000100
00000000
00000103
00000000
00002000
00000000
00000100
00000000
00003100
00000000
00001000
00000000
00010000
00000000
01000000
00000000
,
01100000
00000000
00000000
00000000
10010000
00000000
10000000
01000000
10000000
01000000
10000000
01000000
10000000
01000000
00010000
00001000
00000100
00000001
00000100
00000000
00000001
00000000
00000010
00000000
00000001
00000010
00000001
00001000
00000010
00000000
00000100
00000000
,
00001000
00010000
01000000
10000000
00200000
00000000
01300000
00010000
00200000
00000000
01000000
00000000
01000000
00000000
00000000
01000000
00000000
00000000
01300000
00000000
00020000
00000000
00001000
00000000
00031000
00000000
00000100
00000000
00000001
00000000
00000010
00000000
,
00000110
00002002
00000000
00000000
00000000
00000000
00000000
00000000
,
00000000
00000000
00000000
00000000
,
00003003
00000000
00000020
00000000
00000000
00000032
00000000
00000000
00000203
00000000
00000000
00002300
00000000
00000000
00023000
00000000
,
00000000
00000000
20030000
00000000
00000000
30020000
00000000
00000000
00130000
10000000
01000000
00100000
00010000
00000000
20000000
00000000
,
30020000
00000000
00000000
00230000
00000000
00000000
01300000
00000000
10000000
01000000
00100000
00000000
00010000
00000000
00100000
00000000
,
00002000
00000000
00000000
00023000
00000000
00000000
00031000
00000000
00010000
00001000
00000100
00000000
00000010
00000000
00001000
00000000
,
00000002
00000000
00000000
00000023
00000000
00000000
00000130
00000000
00000010
00000001
00000100
00000000
00000010
00000000
00001000
00000000
,
00000200
00000000
00000000
00020300
00000000
00000000
00032000
00000000
00000000
00003200
00000000
00000000
00000320
00000000
00002030
00000000
,
00003002
00000000
00000000
00000023
00000000
00000000
00000130
00000000
00001000
00000100
00010000
00000000
00011000
00000000
00001000
00000000
,
02000000
00000000
00000000
03200000
00000000
00000000
10300000
00000000
00010000
10000000
01000000
00000000
11000000
00000000
10000000
00000000
,
00200000
00000000
00000000
00320000
00000000
00000000
00032000
00000000
00000000
00003200
00000000
00000000
00000302
00000000
00000000
00000023
,
00000000
00000000
00002030
00000000
00000000
00203000
00000000
00000000
02300000
00000000
00000000
23000000
00000000
00000000
30100000
00000000
,
00100000
10000000
00000000
10000000
01000000
00000000
00010000
00000000
00001000
00000000
00000100
00000000
00000001
00000000
00000000
00000000
,
00000010
00000001
00000000
00000001
00000100
00000000
00001000
00000000
00010000
00000000
01000000
00000000
10000000
00000000
00000000
00000000
,
01000000
10000000
00000000
10000000
00100000
00000000
00010000
00000000
00001000
00000000
00000010
00000000
00000001
00000000
00000000
00000000
,
00000100
00000001
00000000
00000001
00000010
00000000
00001000
00000000
00010000
00000000
00100000
00000000
10000000
00000000
00000000
00000000
,
01000000
00000000
00100000
10000000
00000000
10000000
01000000
00000000
00100000
00010000
00000000
00010000
00100000
00000000
00001000
00000000
,
00010000
00000000
00001000
00010000
00000000
00010000
00001000
00000000
00000100
00000010
00000000
00000010
00000100
00000000
00000001
00000000
,
00000010
00000000
00000010
00000100
00000000
00000100
00001000
00000000
00001000
00000100
00000000
00000100
00010000
00000000
00010000
00100000
,
00000000
00100000
01000000
00000000
01000000
00010000
00100000
01000000
20000000
00000000
00000000
30020000
00000000
00000000
00130000
00000000
,
11000000
00000000
10000000
01000000
00100000
00010000
00100000
00010000
00001000
00000100
00001000
00000100
00000010
00000001
00000100
00000000
,
00000101
00000000
00000001
00000100
00000010
00000100
00000001
00001000
00000100
00000010
00000001
00000100
00000010
00001000
00000100
00000000
,
00020000
00000000
00032000
00000000
00013000
00001000
00100000
00010000
00100000
00010000
01000000
00001000
01000000
00001000
00010000
00000100
,
00010000
00000000
00001000
00000000
00000100
00000000
00000001
00000000
00000101
00000000
00000001
00000100
00000010
00001000
00000010
00001000
,
00010000
01000000
00010000
01000000
00100000
10000000
01000000
00000000
11000000
00000000
10000000
01000000
00100000
01000000
10000000
00010000
,
01000000
00100000
10000000
01000000
00100000
00010000
01000000
00000000
00001000
00000000
00010000
00001000
00010000
00000000
00001000
00000000
,
00000100
00000010
00000000
00000010
00000100
00000001
00001000
00000000
00000001
00000100
00001000
00000000
00010000
00000000
01000000
00000000
,
00100000
01000000
00000000
01000000
00100000
00000000
00000000
00000000
00000000
00000000
00000000
00000000
00000000
00000000
00000000
00000000
,
00000000
00000000
00000000
00000000
;
