#TITLE:Magnetic;
#ARTIST:Sota Fujimori;
#BANNER:Magnetic.png;
#BACKGROUND:Magnetic-bg.png;
#CDTITLE:./CDTITLES/jubeat saucer.png;
#MUSIC:Magnetic.ogg;
#SAMPLESTART:77.997;
#SAMPLELENGTH:15;
#BPMS:0=160,168=80,184=40,186=160,250=80,252=160;
#STAGE:15;

//---------------dance-single - ----------------
#NOTES:
     dance-single:
     :
     Beginner:
     3:
     :
0000
0000
0000
0000
,
0000
0000
0000
0000
,
0000
0000
0000
0000
,
0000
0000
0000
0000
,
0000
0000
0000
0000
,
0000
0000
0000
0000
,
0001
0000
0001
0000
,
0001
0000
0000
0000
,
0001
0000
0001
0000
,
1000
0000
0000
0000
,
1000
0000
1000
0000
,
1000
0000
0000
0000
,
0001
0000
0001
0000
,
0001
0000
0000
0000
,
0100
0000
0100
0000
,
0100
0000
0000
0000
,
0001
0000
0001
0000
,
0000
0000
0000
0000
,
1000
0000
1000
0000
,
1000
1000
1000
0000
,
0001
0000
0001
0000
,
0001
0001
0001
0000
,
0100
0000
0100
0000
,
0100
0100
0100
0000
,
0001
0000
0001
0000
,
1000
0000
0000
0000
,
0100
0000
0100
0000
,
0100
0000
0000
0000
,
0001
0000
0001
0000
,
0001
0001
0001
0000
,
0100
0000
0100
0000
,
0100
0000
0000
0000
,
2000
0000
0000
0000
,
3000
0000
0000
0000
,
0100
0000
0100
0000
,
1000
1000
1000
0000
,
0100
0000
0100
0000
,
0001
0001
0001
0000
,
0100
0000
0100
0000
,
0100
0000
0100
0000
,
0001
0000
1000
0000
,
0001
0000
0001
0000
,
0100
0010
0000
1000
,
0100
0100
0000
0001
,
0100
0100
0000
1000
,
0001
1000
0001
1000
,
0100
0000
0010
0000
,
0010
0000
0010
0010
,
0010
0000
1000
0000
,
1000
0000
0001
0000
,
0000
0000
0010
0000
,
0010
0000
0010
0010
,
0010
0000
1000
0000
,
0001
0000
1000
0000
,
0000
0000
0010
0000
,
0010
0000
0010
0010
,
0010
0000
0001
0000
,
0001
0000
1000
0000
,
0000
0000
0010
0000
,
0010
0000
0010
0010
,
0010
0000
0001
0000
,
1000
0000
0001
0000
,
1000
0000
0000
0000
,
0001
0000
0001
0000
,
1000
0000
0000
0000
,
1000
0000
1000
0000
,
0001
0000
0000
0000
,
0001
0000
0001
0000
,
1000
1000
1000
0000
,
1000
0000
1000
0000
,
0001
0001
0001
0001
,
0000
0000
0000
0000
;

//---------------dance-single - ----------------
#NOTES:
     dance-single:
     :
     Easy:
     7:
     :
0000
0000
0000
0000
,
0000
0000
0000
0000
,
0000
0000
0000
0000
,
0000
0000
0000
0000
,
0000
0000
0000
0000
,
0000
0000
0000
0000
,
1000
0010
0001
1000
,
0001
0010
1000
0001
,
1000
0010
0001
0010
,
1001
0000
0200
2300
,
3100
0001
0100
0001
,
0100
1000
1000
0010
,
0100
0001
0100
0010
,
0001
0000
0000
0000
0010
0000
0000
0000
0100
0000
0000
0100
0000
0000
0000
0000
,
1000
0001
0010
1000
,
0010
0000
0001
0000
0010
0100
0010
0000
,
1000
0010
0001
1000
,
0002
0000
0000
0000
0000
0000
1003
0000
0000
0001
0000
1000
0000
0000
0000
0000
,
0001
0001
0010
0010
,
0001
0100
1000
0100
,
0010
0010
1000
1000
,
0001
0000
0010
0000
0100
0000
0010
0001
,
0001
0001
1000
1000
,
0010
1000
0100
1000
,
0010
0010
0100
0100
,
0110
0000
0000
0000
0000
0000
0000
0000
1000
0000
0000
1000
0000
0000
0000
0000
,
0002
0000
0103
0010
,
2000
0000
3010
0001
,
0020
0000
1030
0001
,
0100
0010
1000
0001
,
2000
0000
3001
0010
,
2000
0000
3010
0001
,
0000
1000
0000
0000
1000
0000
0000
0000
0000
0001
0000
1000
0000
0000
0002
0000
,
0000
0000
0000
0000
0000
0000
0003
0100
0000
0010
0000
0200
0000
0000
0300
0000
,
0001
0010
0001
0000
1000
0000
0100
0000
,
0020
0032
2003
3020
,
0130
0001
2000
3010
,
0100
0010
1000
0000
0001
0000
1001
0000
,
0200
0010
0320
0100
,
0230
0001
0320
1000
,
0130
0000
0000
0000
0001
0020
0000
0030
,
0100
0000
1000
0001
,
1001
0000
0010
0000
0100
0100
0010
0000
,
1000
0100
0010
0100
1000
0010
0010
0010
,
0200
0000
0302
0000
1000
1000
1003
0000
,
0200
0000
2300
0000
3001
0001
1000
0000
,
0200
0000
0000
0000
0310
0000
1000
0010
,
0100
0001
2000
3100
,
1000
0100
0010
0000
0001
0000
1000
0000
,
0010
0001
1000
0100
,
0001
0000
1000
1000
0010
0000
0100
0001
,
0010
0001
0020
0130
,
1000
1000
0001
0000
0100
0000
1000
0000
,
0100
0000
0001
0000
2000
0000
0000
3001
,
0200
0000
0300
0000
0010
0000
0001
0100
,
0010
1000
0002
0103
,
0001
0100
0100
0000
0010
0000
1000
0001
,
0010
0001
0100
0010
,
0110
0000
1000
0010
1000
0000
0001
0100
,
0010
0100
0002
1003
,
0100
0100
0100
0000
0010
0000
0001
0000
,
1000
0000
0100
0000
0020
0000
0000
0031
,
2000
0000
0000
3200
0000
0000
0000
0000
,
0310
1000
0001
0100
,
1000
0001
0100
2000
,
3001
0010
1000
0001
,
0100
0010
1000
0002
,
0103
0010
1000
0010
,
0100
0001
2000
3200
,
0301
0100
0010
0001
,
1001
0000
0110
2002
,
3003
0000
0000
0000
,
0000
0000
0000
0000
;

//---------------dance-single - ----------------
#NOTES:
     dance-single:
     :
     Medium:
     11:
     :
0000
0000
0000
0000
,
0000
0000
0000
0000
,
0000
0000
0000
0000
,
0000
0000
0000
0000
,
0000
0000
0000
0000
,
0000
0000
0000
0000
,
0100
0010
0001
0000
1000
0010
1000
0000
,
0001
0000
1000
0000
0001
0010
0100
0000
,
1000
0000
0010
0000
0100
0010
0001
0000
,
0220
0330
1010
0101
,
1000
0100
1000
0100
0001
0100
1000
0000
,
0100
0010
0100
0001
,
1000
0100
1000
0100
0001
0100
1000
0000
,
0010
0000
1000
0000
0010
0000
0000
0000
0100
0000
0000
0100
0000
0000
0000
0000
,
1000
0100
1000
0100
0001
0100
1000
0000
,
0200
0301
0020
1030
,
1000
0100
1000
0100
0001
0100
1000
0000
,
0000
0001
0000
0001
0000
0000
1000
0000
0000
0100
0000
0100
0000
0000
0000
0000
,
0010
0001
1000
0010
1000
0010
0100
0001
,
1000
0000
1100
0000
1000
0001
0010
0000
,
0010
0001
1000
0010
1000
0010
0100
0001
,
2000
0000
3200
0000
0302
0000
0203
0010
,
0310
0001
1000
0010
1000
0010
0100
0001
,
1000
0001
0000
0000
1000
0000
0100
0000
1000
0000
0000
0000
0001
0000
0000
0000
,
0010
0001
1000
0010
1000
0010
0100
0001
,
2001
0000
0000
0000
3100
0000
0000
0000
0010
0100
0000
1000
0000
0001
0000
0000
,
1000
0000
0000
0000
0100
0000
0000
0010
0100
0000
0000
0100
1000
0000
0001
0000
,
1000
0000
0001
0000
0100
0001
0010
0000
,
0001
0000
0000
0000
0100
0000
0010
0000
1000
0000
0000
1000
0001
0000
0100
0000
,
0000
0100
0001
0010
0000
0100
0010
0000
,
0001
0000
0000
0000
0010
0000
0000
0100
0010
0000
0000
0010
0001
0000
1000
0000
,
0100
0000
1000
0000
0010
1000
0100
0000
,
0000
1000
0000
0001
1000
0000
0000
0000
0000
0010
0000
0100
0000
0000
1000
0000
,
0000
0100
0000
0010
0000
0000
0000
0100
0000
0001
0000
2000
0000
0000
0000
0000
,
3100
0010
0100
0000
1000
0001
1000
0000
,
0002
0103
2000
3010
,
0001
0100
0010
0000
2000
0010
3010
0000
,
0100
0001
0010
0001
0100
0010
0100
0000
,
0001
2000
0000
0100
0000
0010
0000
3100
,
0010
0002
0000
1000
0000
0010
0000
1003
,
0100
0000
0010
0000
0001
0202
0000
0303
,
0010
1000
0010
0000
0200
0000
0310
0000
,
1001
1000
0000
1000
0020
0000
0000
0000
0000
0130
0001
0100
0001
0001
0000
0000
,
0010
0100
0000
0100
1000
0001
1000
0000
0002
0100
0000
1000
0000
0010
0003
0000
,
0100
0100
0100
0100
2000
0000
0000
0000
0100
0100
0000
0100
0000
0000
3010
0000
,
0001
1000
0001
1000
0200
0000
0000
0000
1300
1000
0000
0001
0000
2020
0000
3030
,
0200
0000
0000
0000
1300
0001
0100
1001
0020
0000
0000
0000
0000
0000
1030
0000
,
0020
0000
0000
0031
0020
0000
0130
0100
,
0010
0100
0010
0000
2000
0000
0000
3001
,
1000
0010
0100
0001
2000
0000
0100
0000
,
3002
0000
0103
0100
0020
0000
1030
0001
,
0020
0000
0031
1000
0020
0000
1030
0001
,
0100
0100
0110
0000
0002
0000
0000
1003
,
0001
0000
0100
0000
0010
0000
1000
0000
0002
0000
0000
0000
0003
0000
1000
0010
,
1000
0000
0001
0000
0020
0000
0031
0100
,
0020
0000
1030
0100
0020
0000
0031
0100
,
0010
0000
0100
0010
0100
0000
0000
0000
0002
0000
0000
0000
0000
0000
1003
0000
,
0100
0001
0100
1000
0020
0000
0000
1030
,
0002
0000
0103
0100
0020
0000
0130
0001
,
0020
0000
0130
1000
0020
0000
0130
0001
,
0010
0100
0110
0000
0200
0000
0000
1300
,
0010
0100
0001
0100
2000
0000
0000
3100
,
0002
0000
0000
0000
1003
0000
2200
0000
0000
0000
0000
0000
0000
0000
0000
3300
,
0001
0000
0000
0000
1001
0000
0000
0010
1000
0000
0000
0000
1000
0000
0000
0000
,
0100
0001
0010
2000
,
3100
0000
0000
0000
0011
0000
0000
0010
0100
0000
0000
0000
1000
0000
0000
0000
,
0100
0000
0000
0010
0000
0000
0001
0000
0000
1000
0100
1000
,
0100
1010
0100
0001
,
0010
0000
0000
1000
0000
0000
0001
0100
0001
0200
0000
0000
,
0310
1000
0001
0100
,
0010
0000
0000
0200
0000
0000
0000
0000
0000
0300
0000
0000
0010
0000
1000
0000
0100
0000
0010
0000
0001
0000
0100
0000
,
0000
0000
0000
0000
;

//---------------dance-single - ----------------
#NOTES:
     dance-single:
     :
     Hard:
     15:
     :
0000
0000
0000
0000
,
0000
0000
0000
0000
,
0000
0000
0000
0000
,
0000
0000
0000
0000
,
0000
0000
0000
0000
,
0000
0000
0000
0000
,
0010
0001
0000
0000
0100
0000
0000
0010
0100
0000
0001
0000
1000
0000
0100
0000
,
1000
0001
0000
0001
1000
0000
0001
0000
0010
0100
0000
0010
0100
0000
1000
0000
,
0001
1000
0000
1000
0001
0000
0100
0000
0010
0000
0100
0010
1000
0000
1000
0000
,
2200
0000
0000
0000
0000
0000
0000
0000
0000
3300
0000
0000
0001
0000
0010
0000
0100
0000
1000
0000
0010
0000
0100
0000
,
0001
0100
0001
0000
1000
0010
0000
1000
0010
0000
0100
0000
0001
0100
0001
0000
,
1000
0001
1000
0100
0010
0001
0100
0000
,
0010
0001
0010
0000
1000
0010
0000
0010
1000
0000
0001
0000
0100
0000
1000
0000
,
0100
0000
0001
0000
1000
0000
0001
0000
0100
0000
0000
0110
0000
0000
1000
0010
,
0100
0010
0100
0000
0001
1000
0000
1000
0001
0000
0010
0000
0100
0000
1000
0000
,
0010
0000
0100
0000
0001
0000
0010
0100
0010
0000
0000
0010
0001
0000
1000
0000
,
0001
0100
0001
0000
1000
0010
0000
0010
1000
0000
0100
0000
0010
0000
0001
0000
,
0000
1000
0100
1000
0000
0000
0110
0000
0000
0001
0010
0100
0000
0000
0000
0000
,
1000
0100
1000
0000
0001
0100
0000
0001
0100
0000
1000
0000
0100
0000
0001
0000
,
1000
0010
0000
0100
0001
0100
0001
0000
1000
0000
0001
0000
0100
0000
0001
0000
,
0010
0100
0010
0000
0100
1000
0000
0100
1000
0000
0001
0000
1000
0000
0100
0000
,
0001
0000
0001
0000
0100
0000
1000
0000
0001
0000
1000
0100
0000
1000
0100
0000
,
0010
0001
0010
0000
0001
0100
0000
0001
0100
0000
0010
0000
1000
0000
0100
0000
,
0010
0001
0000
1000
0100
1000
0100
0000
0001
0000
0100
0000
1000
0000
0001
0000
,
0100
0001
0100
0000
0001
1000
0000
0001
1000
0000
0010
0000
0100
0000
1000
0000
,
1100
0000
0000
0000
0101
0000
0000
0000
0010
1000
0000
2010
0000
3001
0000
0000
,
0001
0100
0000
0001
1000
0000
0000
0001
1000
0010
0000
0010
0100
0000
0001
0000
,
1000
0100
1000
0000
0001
0000
0100
0000
0001
0000
0010
0001
1000
0000
0001
0000
,
1000
0100
0000
1000
0100
1000
0100
0000
0020
0000
0000
0031
1000
0000
0100
0000
,
1000
0001
1000
0000
0001
1000
0001
0000
0100
0010
0100
0000
0020
0000
0000
0030
,
0100
0010
1000
0010
1000
0000
0000
1000
0100
0000
0000
0100
0010
0000
0001
0000
,
0100
0001
1000
0000
0010
0000
0100
0000
0001
0000
0010
0000
1000
0000
0010
0000
,
0000
0011
0000
0010
0200
0000
0000
0300
0000
1100
0000
1001
0000
0000
0020
0000
,
0000
2030
0000
3002
0000
0003
0000
0100
0000
1010
0000
1002
0000
0000
0000
0000
,
0103
0000
0010
1000
0010
0000
0100
0000
0001
0000
0010
0000
0100
0000
0000
0000
,
1000
0100
1000
0100
1000
0001
0000
0001
0100
0010
1000
0000
0010
0000
0000
0000
,
1000
0000
0100
0000
0001
0100
0000
0000
1000
0000
0010
0000
0001
0010
0000
0000
,
0100
0000
0001
0100
0001
0000
1000
0000
0100
0010
0100
0000
0010
0000
0000
0000
,
0001
0002
0013
2000
3010
0002
0103
2000
,
3100
0002
2003
3020
0032
0023
2030
3001
,
0200
0000
0000
0000
0310
0000
1000
0100
1000
0000
2200
0000
0000
0000
3300
0000
,
0010
0000
0001
1000
0001
1000
0000
0000
0100
0000
0000
0010
0100
0000
0000
0000
,
0011
0000
0100
0000
0000
0000
1100
0000
0020
0000
0000
0000
0000
0000
0000
0000
0000
0000
0031
0100
0001
0000
0001
0000
0010
0000
0100
0000
1000
0010
1000
0010
,
0100
0100
0001
0001
1000
0010
0010
0010
0100
1000
0100
0001
0100
0010
0100
0000
,
0001
0000
0001
0000
0001
0000
0001
0000
2000
0000
0020
0000
0000
0000
0030
0000
0100
0000
0100
0000
0000
0000
0100
0000
0100
0000
0000
0000
3010
0100
0010
0100
,
0001
1000
1000
1000
0020
0000
0000
0130
0001
0001
0000
1000
0100
0022
0000
0033
,
0200
0000
0000
0301
0000
1000
0010
0000
0200
0000
0301
0001
0001
0100
0110
0000
2000
0000
0000
0000
0000
0000
0000
0000
0000
0000
3000
0000
0001
0000
1000
0000
,
0200
0000
0000
0000
0000
0000
1300
0001
0020
0000
0000
0000
0130
0000
0100
0000
,
1000
0000
0100
0000
0001
0000
0000
0000
2000
0000
0000
0000
0000
0000
3001
0010
,
0100
0000
0010
0000
0001
0000
0100
0000
0020
0000
0000
0000
1000
0000
1030
0001
,
0200
0000
0000
0000
0301
0000
0001
0000
2000
0000
0000
0000
3001
0100
0010
0000
,
0200
0000
0000
0000
0301
1000
0100
0000
0020
0000
0000
0000
0031
0000
1000
0000
,
0010
0000
1010
0000
1010
0000
0000
0000
2000
0000
0000
0000
3001
0000
0100
0010
,
0001
0000
1000
0000
0100
0000
0001
0000
2000
0000
0000
0000
3001
0000
0010
0100
,
1000
0000
0000
0000
0010
0000
1000
0001
2000
0000
0000
0000
3010
0100
0010
0100
,
0002
0000
0000
0000
0013
0000
0100
1000
0020
0000
0000
0000
1030
0000
0100
0000
,
0001
0000
0100
0010
0100
0000
0000
0000
2000
0000
0000
0000
0000
0000
3001
0100
,
0010
0000
0001
0000
0010
0000
0100
0000
0002
0000
0000
0000
0013
0000
0001
0100
,
2000
0000
0000
0000
3100
0000
0001
0000
0020
0000
0000
0000
0130
1000
0010
0100
,
0002
0000
0100
0103
0020
0000
1030
0100
,
1000
0100
0010
0001
1000
0000
0000
0000
0020
0000
0000
0000
0130
0000
0001
0100
,
0010
0000
1000
0000
0001
0000
0010
0000
0200
0000
0000
0000
1300
0000
0001
0010
,
0200
0000
0000
0000
1300
0001
0200
0000
0000
0000
0000
0000
0020
0000
0300
0000
,
0130
0000
0000
0000
1010
0000
0000
0010
0100
0000
0001
0000
1000
0000
0000
0000
,
0100
0000
1000
0000
0100
0000
0000
0010
0100
0000
0000
0000
0020
0000
0000
0000
,
0130
0000
0010
0000
0001
0000
1000
0001
0100
0000
0010
0000
0100
0000
0000
0000
,
0001
0000
0000
0001
0000
0000
1000
0000
0000
0000
0000
0000
1001
0000
0000
0000
0000
0000
0001
0000
0010
0000
0100
0000
,
1000
0000
0001
0000
0100
0010
0000
0010
0100
0000
0001
0000
1000
0000
0000
0000
,
0010
0000
0000
0000
0000
0000
1000
0000
0000
0010
0000
0000
1000
0000
0000
0000
0000
0000
1000
0000
0000
0000
0000
0000
0001
0000
0000
0000
0010
0000
0000
0000
0100
0000
0000
0000
1000
0000
0000
0100
0000
0000
1000
0000
0000
0100
0000
0000
,
0010
0000
0001
0000
1000
0000
0000
0010
1000
0000
0100
0000
0001
0000
0000
0000
,
1000
0000
0000
0020
0000
0000
0000
0000
0000
0030
0000
0000
0001
0000
0100
0000
0010
0000
1000
0000
0100
0000
0001
0000
,
0000
0000
0000
0000
;

//---------------dance-single - ----------------
#NOTES:
     dance-single:
     :
     Challenge:
     17:
     :
0000
0000
0000
0000
,
0000
0000
0000
0000
,
0000
0000
0000
0000
,
0000
0000
0000
0000
,
0000
0000
0000
0000
,
0000
0000
0000
0000
,
0001
1000
0000
0010
1000
0000
0100
0000
0010
0001
0000
0001
0100
0000
0010
0000
,
1000
0100
0000
1000
0010
0000
0100
0000
0001
0010
0000
0010
0100
0000
1000
0000
,
0010
0100
0000
0100
0001
0000
1000
0010
0100
0001
0000
0010
0100
0000
1000
0000
,
2002
0000
0000
0000
0000
0000
0000
0000
0000
3003
0000
0000
0100
0000
0100
0000
0100
0000
0010
0000
0010
0000
0010
0000
,
0100
0010
1000
0000
0001
0100
0000
0010
1000
0000
0100
0000
0010
0001
1000
0000
,
0200
0302
0203
0320
0230
2300
3002
0103
,
0010
1000
0001
0000
0001
0010
0000
0100
1000
0000
0001
0000
0010
0001
0100
0000
,
0020
0000
2030
0000
3002
0000
0203
0000
0310
0000
0000
1010
0000
0000
0001
0100
,
0010
1000
0010
0000
1000
0100
0000
0010
0001
0000
1000
0000
0010
0100
0001
0000
,
1000
0000
0100
0000
0010
0001
0010
0001
1000
0001
0000
0001
0100
0010
1000
0000
,
0001
1000
0010
0000
1000
0001
0000
0100
0010
0000
0100
0000
0010
1000
0010
0000
,
0000
0100
0001
0010
0000
0000
1001
0000
0000
0010
1000
0100
0000
0000
0020
0000
,
0130
1000
0001
0000
0001
0010
0000
0010
0100
0000
1000
0000
1000
0010
1000
0000
,
0001
0010
0000
0010
0001
1000
0100
0010
0001
0010
0001
1000
0100
1000
0100
0000
,
0100
1000
0001
0000
0001
0100
0000
0100
0010
0000
1000
0000
0001
1000
0010
0000
,
0200
0000
0000
0000
0000
0000
0320
0000
0000
0000
0000
0000
0130
0000
0000
0001
0000
0000
0010
0000
0000
0001
0000
0000
0100
0000
0000
0000
0000
0000
0010
0000
0000
1000
0000
0000
0000
0000
0000
1000
0000
0000
0001
0000
0010
0000
0001
0000
,
0010
0100
1000
0000
0010
0100
0000
0001
0100
0001
1000
0000
0002
0000
2003
0000
,
3100
0010
0000
0010
0100
1000
0001
0010
0001
0010
0100
0010
0100
1000
0001
0000
,
0010
0001
0010
0001
1000
0010
0000
0010
0100
0010
0100
0010
0100
0001
1000
0001
,
0010
0000
0100
0000
1100
0000
0000
0000
0001
0100
0000
0201
0000
1300
0000
0000
,
0100
0010
0100
0010
1000
0100
0000
0100
1000
0010
1000
0010
0100
0000
0001
0000
,
0010
0100
1000
0000
1000
0100
0010
0000
0002
0000
1003
0010
0100
0000
0010
0000
,
1000
0001
0000
0001
0010
0100
0010
0000
0002
0000
0000
1003
0100
0000
0010
0000
,
0100
1000
0001
0000
0001
0010
0100
0000
0100
1000
0010
1000
0020
0000
0000
1030
,
0001
0010
0001
0010
0100
0000
0000
0100
1000
0000
0000
0001
0100
0000
1000
0000
,
0100
0010
1000
0000
0001
0000
0100
0000
0002
0000
0023
0000
0130
1000
0001
0000
,
0000
0201
0000
0310
2000
0000
0000
3000
0000
2200
3300
0022
0033
0000
0220
0000
,
0330
0202
0303
2020
3030
0000
0000
2200
3300
0202
0303
2002
0000
0000
3003
0000
,
0010
0000
0010
0100
0010
0000
0010
0000
1000
0100
1000
0000
0002
0000
0000
0000
,
0013
0100
0001
0100
0010
1000
0000
1000
0010
0100
0010
0000
0001
0000
0100
0000
,
1000
0000
0100
1000
0100
0001
0000
0000
1000
0000
0010
0001
0010
1000
0000
0000
,
0020
0000
1030
0100
1000
0000
0002
0000
0013
0100
1000
0001
0020
0000
0000
0031
,
2000
0100
3002
0010
2003
0100
3002
0010
,
0203
1000
0320
0001
0230
1000
0302
1003
,
0020
0000
0000
0000
1030
0100
0010
0001
0100
0000
0020
0000
0000
0000
0030
0000
,
0100
0000
0001
0010
0001
0100
0000
0000
0020
0000
0000
1030
0100
0000
0100
0010
,
0100
0000
0000
0000
0000
0000
1000
0000
0000
0000
0000
0000
0000
0000
0000
0000
0000
0000
1000
0000
0000
0000
0000
0000
0002
0000
0000
0000
0000
0000
0000
0000
0000
0000
0000
0000
0000
0000
0000
0000
0000
0000
0000
0000
0000
0000
0000
0000
0000
0000
0000
0000
0000
0000
1003
0000
0010
0000
1000
0000
0010
0000
0000
0000
0000
0000
0100
0000
0000
0000
0000
0000
0001
0000
0000
0000
0000
0000
0010
0000
0000
0000
0000
0000
0001
0000
0000
1000
0000
0000
0001
0000
0000
1000
0000
0000
,
0200
0000
0000
0010
0000
0000
0010
0000
0000
0310
0000
0000
0002
0000
0000
0100
0000
0000
0100
0000
0000
0103
0000
0000
0010
0000
0000
1010
0000
0000
0000
0000
0000
0011
0000
0000
0000
0000
0000
0101
0000
0000
0010
0000
0100
0000
0010
0000
,
1000
0000
0000
1000
0000
0000
1000
0000
0000
1000
0000
0000
1002
0000
0000
0200
0000
0000
0000
0000
0000
0300
0000
0000
0010
0000
0000
0010
0000
0000
0000
0000
0000
0100
0000
0000
0100
0000
0000
0000
0000
0000
1003
0010
1000
0010
1000
0010
,
1000
0000
0000
0001
0000
0000
0001
0000
0000
0001
0000
0000
1000
0000
0100
0000
1000
0000
0010
0000
0001
0000
0010
0000
1000
0000
0000
0001
0000
0000
0000
0000
0000
0001
0000
0000
0010
0000
0000
2002
0000
0000
0000
0000
0000
3003
0000
0000
,
0200
0000
0000
0000
0000
0000
0310
0000
0000
0000
1000
0000
0001
0000
0000
0000
0200
0000
0000
0000
0301
0010
0100
1000
0001
0000
0100
0000
0110
0000
0000
0000
0002
0000
0000
0000
0000
0000
0000
0000
0000
0000
0000
0000
0000
0000
0000
0000
0000
0000
0000
0000
0103
0000
0000
0000
0010
0000
0000
0000
0100
0000
0000
0000
,
2000
0000
0000
0000
3100
0000
0100
0010
0002
0000
0000
0000
0013
0000
1000
0000
,
0001
0000
0100
0000
0110
0000
0000
0000
0002
0000
0000
0000
0000
1003
0100
0010
,
0001
0000
0100
0000
1000
0000
0100
0000
0002
0000
0000
0000
0103
0000
0010
1000
,
0200
0000
0000
0000
0310
0000
0011
0000
0002
0000
0000
0000
1003
0010
0100
0001
,
2000
0000
0000
0000
3010
0100
0001
1000
0200
0000
0000
0000
0310
0000
0001
0000
,
0100
0000
1010
0000
0101
0000
0000
0000
0002
0000
0000
0000
1003
0100
0010
0100
,
1000
0000
0001
0000
0010
0000
1000
0000
0002
0000
0000
0000
0103
0000
1000
0010
,
0001
0000
0000
0000
0010
0000
0100
0001
0020
0000
0000
0000
0031
0100
1000
0100
,
0002
0000
0000
0000
1003
0000
0010
0001
0020
0000
0000
0000
1030
0000
0001
0000
,
0011
0000
0001
1000
0200
0000
0000
0000
0302
0000
0000
0000
0000
0000
1003
0010
,
0001
0000
0010
0000
0100
0000
1000
0000
0002
0000
0000
0000
0103
0000
1000
0100
,
0002
0000
0000
0000
1003
0000
0100
0001
0200
0000
0000
0000
1300
0001
0100
0010
,
2000
0000
3100
0000
0120
0000
0031
0100
,
1000
0100
0001
0010
2000
0000
0000
0000
3020
0000
0000
0000
0031
0010
0100
1000
,
0001
0000
0001
0000
0100
0000
0100
0000
0020
0000
0000
0000
1030
0000
0001
0010
,
2000
0000
0000
0000
3010
0001
0200
0000
0000
0000
0000
0000
0302
0000
1000
0000
,
0013
0000
0000
0000
0110
0000
0000
0100
1000
0000
0001
0000
1000
0000
0100
0000
,
0010
0000
0000
0000
0000
0000
0001
0000
0000
0000
0000
0000
1000
0000
0000
0000
0000
0000
0000
0000
0000
0010
0000
0000
1000
0000
0000
0000
0000
0000
0001
0000
0000
0000
0000
0000
1000
0000
0100
0000
1000
0000
0100
0000
1000
0000
0100
0000
,
1000
0000
0001
0000
0010
0000
0010
0100
0010
0000
0001
0000
1000
0000
0010
0000
,
0100
0000
0000
0001
0000
0000
0000
0000
0000
0001
0000
0000
1000
0000
0000
0000
0000
0000
0100
0000
0000
0000
0000
0000
0020
0000
0000
0000
0000
0000
0031
0000
0000
0000
0000
0000
0100
0000
0000
0000
0100
0000
0000
0000
0100
0000
0000
0000
,
0001
0000
0001
0000
1000
0001
0000
1000
0100
0000
0010
0001
1000
0000
0001
0000
,
1000
0000
0000
0010
0000
0000
1000
0000
0000
0010
0000
0000
1000
0000
0000
0010
0000
0000
0000
0000
0000
0010
0000
0000
1000
0000
0000
0000
0100
0000
0000
0000
0010
0000
0000
0000
0001
0000
0000
1000
0000
0000
0100
0000
0000
0010
0000
0000
,
0001
0000
0100
0000
0010
0100
0000
0001
1000
0000
0010
0000
2000
0000
0000
0000
,
3001
0000
0000
0000
0000
0000
0200
0000
0000
0000
0000
0000
0000
0000
0000
0001
0000
0000
0300
0000
0000
0000
0000
0000
0010
0000
0000
0000
0010
0000
0000
0000
0010
0000
0000
0000
1000
0000
0000
0000
0100
0000
0000
0000
0110
0000
0000
0000
,
0000
0000
0000
0000
;

//---------------dance-double - ----------------
#NOTES:
     dance-double:
     :
     Easy:
     7:
     :
00000000
00000000
00000000
00000000
,
00000000
00000000
00000000
00000000
,
00000000
00000000
00000000
00000000
,
00000000
00000000
00000000
00000000
,
00000000
00000000
00000000
00000000
,
00000000
00000000
00000000
00000000
,
01000000
00100000
10000000
00010000
,
00100000
00001000
00000010
00000100
,
00010000
01000000
10000000
00010000
,
00011000
00000000
00002000
00023000
,
00030100
00001000
00000001
00000100
,
00000020
00001000
00000001
00000130
,
00000010
00001000
00000100
00010000
,
01000000
00000000
00000000
00000000
00100000
00000000
00000000
00000000
01000000
00000000
00000000
01000000
00000000
00000000
00000000
00000000
,
10000000
00010000
01000000
00010000
,
00001000
00000000
00000100
00000000
00001000
00000001
00001000
00000000
,
00000010
00001000
00100000
00010000
,
00002000
00000000
00000000
00000000
00000000
00000000
00013000
00000000
00000000
00001000
00000000
00010000
00000000
00000000
00000000
00000000
,
01000000
10000000
00100000
10000000
,
00010000
01000000
00100000
00010000
,
00001000
00010000
00001000
00000010
,
00000001
00000000
00000100
00000000
00000010
00000000
00001000
00000001
,
00000001
00000010
00000100
00010000
,
00001000
00000010
00000001
00000100
,
00001000
00010000
00100000
10000000
,
10010000
00000000
00000000
00000000
00000000
00000000
00000000
00000000
00001000
00000000
00000000
00010000
00000000
00000000
00000000
00000000
,
00200000
00000000
10300000
01000000
,
00200000
00000000
00301000
00000010
,
00000200
00000000
00001300
00000001
,
00000100
00000010
00010000
00001000
,
00000200
00000000
00000310
00010000
,
00002000
00000000
00103000
01000000
,
00000000
20000000
00000000
00000000
30000000
00000000
00000000
00000000
00000000
00010000
00000000
10000000
00000000
00000000
02000000
00000000
,
00000000
00000000
00000000
00000000
00000000
03000000
00000000
10000000
00000000
10000000
00000000
20000000
00000000
00000000
30000000
00000000
,
01000000
00010000
00001000
00100000
,
00002000
00003200
00000302
00000023
,
00000031
00001000
00000020
00000130
,
00001000
00010000
00000100
00000000
00001000
00000000
00011000
00000000
,
00200000
00010000
00010000
01300000
,
20000000
00010000
00010000
30100000
,
10000000
00000000
00010000
00000000
00100000
02000000
00000000
03000000
,
00010000
00000000
00001000
00000000
,
00011000
00000000
00000020
00000000
00000000
00000000
00000000
00000030
,
00000100
00000001
00001000
00000010
00000100
00001000
00010000
00001000
,
02000000
00000000
03200000
00000000
10000000
10000000
10300000
00000000
,
00020000
00000000
00230000
00000000
00310000
00001000
00000010
00000000
,
00000200
00000000
00000000
00000000
00000000
00000000
00000000
00000300
00000020
00000000
00000000
00000000
00000000
00000000
00000031
00000000
,
00002000
00003000
00000002
00000103
,
00000010
00001000
00000001
00000000
00000010
00000000
00001000
00000000
,
00100000
00010000
10000000
01000000
,
00010000
00000000
00001000
00010000
00002000
00000000
00000000
00103000
,
00020000
00030000
20000000
30010000
,
01000000
01000000
01000000
00000000
00100000
00000000
00010000
00000000
,
00000010
00000000
00001000
00000000
00000002
00000000
00000000
00001003
,
00000200
00000000
00000300
00000000
00000010
00000000
00000001
00000100
,
00000010
00000100
00000020
00001030
,
00000100
00000100
00000010
00000000
00001000
00000000
00010000
00001000
,
00010000
01000000
00100000
00010000
,
10000000
00000000
00100000
10000000
00100000
00000000
01000000
00010000
,
00100000
01000000
00020000
00031000
,
00000010
00000010
00000010
00000000
00000100
00000000
00001000
00000000
,
00000001
00000000
00000100
00000000
00000020
00000000
00000000
00000130
,
00002000
00000000
00003000
00020000
00000000
00000000
00000000
00000000
,
00130000
10000000
01000000
00100000
,
00001000
00010000
00000100
00002000
,
00003001
00000010
00001000
00010000
,
00000010
00000100
00001000
00020000
,
00130000
10000000
00010000
01000000
,
00100000
10000000
00020000
00032000
,
00013000
00001000
00000100
00000010
,
00000110
00000000
00000001
00000202
,
00000303
00000000
00000000
00000000
,
00000000
00000000
00000000
00000000
;

//---------------dance-double - ----------------
#NOTES:
     dance-double:
     :
     Medium:
     11:
     :
00000000
00000000
00000000
00000000
,
00000000
00000000
00000000
00000000
,
00000000
00000000
00000000
00000000
,
00000000
00000000
00000000
00000000
,
00000000
00000000
00000000
00000000
,
00000000
00000000
00000000
00000000
,
00001000
00100000
00010000
00000000
10000000
00000000
01000000
00000000
,
00100000
00001000
00010000
00000000
00000010
00000001
00000010
00000000
,
00001000
00000000
00000001
00000000
00000010
00001000
00010000
00000000
,
00022000
00033000
00110000
11000000
,
10000000
01000000
10000000
01000000
00100000
00010000
01000000
00000000
,
00001000
00010000
00001000
00000100
,
00000001
00000100
00000001
00000100
00000010
00001000
00000100
00000000
,
00000001
00000000
00000100
00000000
00001000
00000000
00000000
00000000
00000010
00000000
00000000
00000100
00000000
00000000
00000000
00000000
,
00000010
00001000
00000100
00010000
00000100
00000010
00001000
00000000
,
00020000
00130000
20000000
31000000
,
00010000
01000000
00100000
01000000
00010000
00001000
00010000
00000000
,
00000000
00001000
00000000
00010000
00000000
00000000
00001000
00000000
00000000
00000100
00000000
00000100
00000000
00000000
00000000
00000000
,
00000001
00000010
00001000
00000001
00000100
00000010
00000001
00000010
,
00000100
00000000
00010000
00000000
00001000
00010000
00000100
00000000
,
00010000
00001000
00100000
00001000
00010000
01000000
00100000
01000000
,
20000000
30200000
00320000
00032000
,
00103000
00010000
01000000
00100000
00010000
00100000
01000000
00001000
,
00001000
00000000
00010000
00001000
00000010
00000000
00001000
00000000
,
00000001
00000100
00001000
00000010
00010000
00001000
00000100
00000010
,
00000210
00000000
00000000
00000000
00000301
00000000
00000000
00000000
00000010
00000100
00000000
00000001
00000000
00001000
00000000
00000000
,
00010000
00000000
00000000
00001000
00010000
00000000
00000000
00100000
00010000
00000000
00000000
01000000
00010000
00000000
00100000
00000000
,
01000000
00000000
10000000
00000000
00100000
00010000
00100000
00000000
,
01000000
00000000
00000000
00010000
10000000
00000000
00000000
00010000
00100000
00000000
00000000
01000000
00010000
00000000
00100000
00000000
,
00001000
00010000
00000000
00000000
00010000
00001000
00000000
00000000
00001000
00000000
00000010
00000000
00000100
00000000
00000000
00000010
,
00000100
00000000
00000000
00001000
00000001
00000000
00000000
00000100
00000010
00000000
00000000
00000001
00000010
00000000
00000100
00000000
,
00001000
00000000
00010000
00000000
00001000
00100000
01000000
00000000
,
00000000
10000000
00000000
01000000
00100000
00000000
00000000
00000000
00000000
00001000
00000000
00010000
00000000
00000000
00001000
00000000
,
00000000
00000100
00000000
00000010
00000000
00000000
00000000
00001000
00000000
00000001
00000000
00000200
00000000
00000000
00000000
00000000
,
00000301
00000000
00000100
00000000
00001000
00000001
00001000
00000000
,
00002000
00000100
00000001
00003010
,
00010000
00000100
00000010
00000000
00010000
00001000
00010000
00000000
,
00001000
00010000
00100000
01000000
10000000
01000000
00010000
00000000
,
10000000
00020000
00000000
01000000
00000000
10000000
00000000
00100000
,
00000000
00032000
00000000
00000100
00000000
00000001
00000000
00003010
,
00000100
00000000
00000010
00000000
00000100
00002000
00000000
00003000
,
00010000
01000000
10000000
00000000
00020000
00000000
10030000
00000000
,
01000000
00000000
00000000
10000000
00200000
00000000
00000000
00000000
00000000
10300000
01000000
10000000
01000000
00010000
00000000
00000000
,
00000000
00010000
00001000
00010000
00000000
00000010
00001000
00000100
00000000
00002000
00000000
00003200
00000000
00000301
00000000
00000000
,
00000100
00000100
00000100
00000100
00000020
00000000
00000000
00000000
00000001
00000001
00000000
00000001
00000000
00000000
00000130
00000000
,
00001000
00000100
00010000
00000100
00020000
00000000
00000000
00000000
00130000
00100000
00000000
01000000
00000000
00200000
00000000
00300000
,
20000000
00000000
00000000
00000000
31000000
00010000
00001000
00011000
00000020
00000000
00000000
00000000
00000000
00000000
00000031
00000000
,
00000020
00000000
00000000
00001030
00000020
00000000
00000130
00001000
,
00000001
00001000
00000001
00000000
00000200
00000000
00000000
00000310
,
00010000
00100000
01000000
00100000
20000000
00000000
01000000
00000000
,
30020000
00000000
01030000
01000000
00200000
00000000
10300000
00010000
,
00200000
00000000
00301000
00010000
00002000
00000000
00013000
00000100
,
00000010
00000010
00000100
00000000
00002000
00000000
00000000
00003001
,
00000100
00000000
00000010
00000000
00000100
00000000
00001000
00000000
00020000
00000000
00000000
00000000
00000000
00000000
00031000
00100000
,
00002000
00000000
01003000
00000000
00200000
00000000
10300000
01000000
,
00200000
00000000
01300000
00010000
00002000
00000000
00013000
00000100
,
00001000
00000000
00000001
00001000
00000001
00000000
00000000
00000000
00000200
00000000
00000000
00000000
00000000
00000000
00000310
00000000
,
00001000
00000001
00000100
00001000
00020000
00000000
00000000
01030000
,
00200000
00000000
00310000
10000000
00200000
00000000
01300000
00010000
,
00200000
00000000
01300000
00000000
00020000
00000000
00031000
00000100
,
00000010
00000100
00000110
00000000
00000002
00000000
00000000
00000013
,
00000100
00000010
00000001
00000100
00002000
00000000
00000000
00013000
,
02000000
00000000
00000000
00000000
03100000
00000000
20000000
00000000
00000000
00000000
00000000
00000000
00000000
00000000
00000000
30000000
,
00100000
00000000
00000000
00000000
01100000
00000000
00000000
00100000
00010000
00000000
00000000
00000000
01000000
00000000
00000000
00000000
,
00001000
00000100
00000010
00000002
,
00000013
00000000
00000000
00000000
00000110
00000000
00000000
00000001
00001000
00000000
00000000
00000000
00000010
00000000
00000000
00000000
,
00010000
00000000
00000000
00100000
00000000
00000000
01000000
00000000
00000000
00100000
01000000
00100000
,
01000000
00000000
00000000
00000000
00100000
00000000
00000000
10000000
01000000
00000000
00000000
00000000
00010000
00000000
00000000
00000000
,
00001000
00000000
00000000
00100000
00000000
00000000
00001000
00010000
00001000
00020000
00000000
00000000
,
00030100
00000010
00000001
00000100
,
00001000
00000000
00000000
00020000
00000000
00000000
00000000
00000000
00000000
00030000
00000000
00000000
00001000
00000000
00010000
00000000
00001000
00000000
00100000
00000000
00010000
00000000
01000000
00000000
,
00000000
00000000
00000000
00000000
;

//---------------dance-double - ----------------
#NOTES:
     dance-double:
     :
     Hard:
     15:
     :
00000000
00000000
00000000
00000000
,
00000000
00000000
00000000
00000000
,
00000000
00000000
00000000
00000000
,
00000000
00000000
00000000
00000000
,
00000000
00000000
00000000
00000000
,
00000000
00000000
00000000
00000000
,
00010000
00001000
00000000
00000000
00000010
00000000
00000000
00001000
00010000
00000000
00001000
00000000
00100000
00000000
01000000
00000000
,
10000000
00010000
00000000
10000000
00010000
00000000
10000000
00000000
01000000
00100000
00000000
00100000
01000000
00000000
00100000
00000000
,
00001000
00010000
00000000
00001000
00010000
00000000
00000100
00000000
00000010
00000000
00000100
00001000
00000001
00000000
00000100
00000000
,
00000002
00000000
00000000
00000000
00000000
00000000
00000000
00000000
00000000
00000003
00000000
00000000
00000010
00000000
00000001
00000000
00000100
00000000
00001000
00000000
00010000
00000000
01000000
00000000
,
10000000
01000000
10000000
00000000
10000000
01000000
00000000
10000000
00010000
00000000
00100000
00000000
00010000
10000000
00010000
00000000
,
01000000
00001000
00010000
00000100
00010000
00001000
01000000
00000000
,
00010000
00100000
00010000
00000000
00010000
00100000
00000000
00001000
00100000
00000000
00001000
00000000
00010000
00000000
00001000
00000000
,
00000100
00000000
00000001
00000000
00000100
00000000
00001000
00000000
00000100
00000000
00000010
00000100
00000000
00000000
00000001
00000000
,
00001000
00000100
00001000
00000000
00001000
00000100
00000000
00000010
00000001
00000000
00001000
00000000
00000010
00000000
00010000
00000000
,
00100000
00000000
01000000
00000000
00010000
01000000
00010000
00000000
00100000
00001000
00000000
01000000
00010000
00000000
10000000
00000000
,
01000000
10000000
01000000
00000000
10000000
01000000
00000000
00010000
00001000
00000000
01000000
00000000
00100000
00000000
00010000
00000000
,
00000000
00001000
00010000
00001000
00000000
00000000
00011000
00000000
00000000
00001000
00000100
00000010
00000000
00000000
00000000
00000000
,
00001000
00000001
00001000
00000000
00001000
00000100
00000000
00000010
00000001
00000000
00000100
00000000
00010000
00000000
00100000
00000000
,
01000000
00100000
00000000
10000000
00100000
00000000
10000000
00000000
00010000
01000000
00010000
00000000
10000000
00000000
00100000
00000000
,
01000000
00100000
01000000
00000000
00010000
01000000
00000000
00001000
00010000
00000000
00100000
00000000
00010000
00000000
00001000
00000000
,
00000100
00000000
00000001
00000000
00001000
00000000
00000001
00000000
00001000
00000000
00000010
00000100
00000000
00001000
00010000
00000000
,
00001000
00010000
00001000
00000000
00100000
00010000
00000000
00100000
01000000
00000000
10000000
00000000
00100000
00000000
01000000
00000000
,
00100000
10000000
00000000
00010000
01000000
00010000
01000000
00010000
10000000
00000000
00010000
00000000
01000000
00000000
00010000
00000000
,
00100000
00001000
00100000
00000000
00001000
00100000
00000000
00001000
00010000
00000000
00000100
00000000
00000010
00000000
00000001
00000000
,
00000011
00000000
00000000
00000000
00001100
00000000
00000000
00000000
00000010
00001000
00000000
00001200
00000000
00010300
00000000
00000000
,
00001000
00010000
00000000
00010000
00100000
00000000
00000000
00100000
10000000
00100000
00000000
00100000
10000000
00000000
00010000
00000000
,
10000000
01000000
10000000
00000000
00100000
00000000
00010000
00000000
00001000
00000000
00000100
00000010
00000100
00000000
00000001
00000000
,
00001000
00000100
00000000
00000100
00000010
00000100
00000010
00000000
00002000
00000000
00000000
00013000
00100000
00000000
01000000
00000000
,
00010000
01000000
00010000
00000000
10000000
01000000
10000000
00000000
00010000
00100000
00010000
00000000
20000000
00000000
00000000
31000000
,
00100000
00000000
00000000
00010000
00100000
00010000
00000000
10000000
01000000
00000000
00000000
01000000
00010000
00000000
00001000
00000000
,
00010000
00001000
00010000
00000000
00000100
00000000
00000001
00000000
00001000
00000000
00000010
00000000
00000001
00000000
00000010
00000000
,
00000000
00000110
00000000
00000001
00002000
00000000
00000000
00003000
00000000
00000010
00000000
00010000
00000000
00000000
00200000
00000000
,
00000000
20300000
00000000
32000000
00000000
03000000
00000000
00010000
00000000
00001000
00000000
00012000
00000000
00000000
00000000
00000000
,
00003100
00000001
00000100
00001000
00010000
00100000
01000000
00000000
,
00010000
10000000
00010000
10000000
00010000
01000000
00000000
00100000
10000000
00100000
10000000
00000000
01000000
00000000
00000000
00000000
,
00100000
00000000
01000000
00000000
00010000
00001000
00000000
00000000
00000100
00000000
00000010
00000000
00000100
00000001
00000000
00000000
,
00001000
00000000
00000010
00000100
00000010
00000000
00001000
00000000
00000001
00001000
00000001
00000000
00000010
00000000
00000000
00000000
,
00000002
00000103
00000020
00001030
00000200
00010300
02000000
03100000
,
00020000
10030000
00200000
01300000
00002000
00023000
00130000
10000000
,
00020000
00000000
00000000
00000000
00130000
00000000
01000000
00100000
01000000
00000000
22000000
00000000
00000000
00000000
33000000
00000000
,
00100000
00000000
00001000
00010000
00001000
00010000
00000000
00000000
00001000
00000000
00000000
00001000
00000100
00000000
00000000
00000000
,
00000110
00000000
00000100
00000000
00000000
00000000
00000001
00000000
00000200
00000000
00000000
00000000
00000000
00000000
00000000
00000000
00000000
00000000
00000310
00001000
00000010
00000000
00000010
00000000
00000100
00000000
00000010
00000000
00001000
00000100
00001000
00000100
,
00001000
00000010
00010000
00010000
00000100
00010000
00010000
00001000
00100000
00010000
00100000
01000000
00100000
10000000
00100000
00000000
,
00001000
00000000
00001000
00000000
00001000
00000000
00001000
00000000
00200000
00000000
00020000
00000000
00000000
00000000
00030000
00000000
01000000
00000000
01000000
00000000
00000000
00000000
01000000
00000000
01300000
00000000
00000000
00000000
10000000
01000000
10000000
01000000
,
10000000
00010000
00010000
00010000
00200000
00000000
00000000
10300000
00010000
01000000
00000000
00010000
00001000
00022000
00000000
00033000
,
00000200
00000000
00000000
00000310
00000000
00001000
00000001
00000000
00000100
00000000
00000001
00000010
00000001
00000000
00001001
00000000
00000200
00000000
00000000
00000000
00000000
00000000
00000000
00000000
00000000
00000000
00000000
00000000
00000310
00000000
00000001
00000000
,
00000020
00000000
00000000
00000000
00000030
00000000
00001000
00000100
00002000
00000000
00000000
00000000
00003010
00000000
00010000
00000000
,
00100000
00000000
00100000
00000000
01000000
00000000
00000000
00000000
00020000
00000000
00000000
00000000
00000000
00000000
10030000
01000000
,
10000000
00000000
01000000
00000000
00100000
00000000
00010000
00000000
02000000
00000000
00000000
00000000
03100000
00000000
10000000
00010000
,
02000000
00000000
00000000
00000000
03010000
00000000
00100000
00000000
00002000
00000000
00000000
00000000
00013000
00000100
00010000
00000000
,
00002000
00000000
00010000
00000000
00003200
00000000
00000310
00000100
,
00000001
00000000
00001000
00000000
00001100
00000000
00000000
00000000
00000020
00000000
00000000
00000000
00000031
00000000
00000100
00000001
,
00000010
00000000
00001000
00000000
00010000
00000000
00001000
00000000
00200000
00000000
00000000
00000000
00310000
00000000
10000000
01000000
,
00100000
00000000
00000000
00000000
00010000
00000000
01000000
00010000
20000000
00000000
00000000
00000000
30100000
01000000
00100000
01000000
,
00020000
00000000
00000000
00000000
00130000
00000000
00001000
00010000
00002000
00000000
00000000
00000000
00003100
00000000
00000001
00000000
,
00001000
00000000
00001000
00000001
00001000
00000000
00000000
00000000
00000020
00000000
00000000
00000000
00000000
00000000
00000130
00000001
,
00000100
00000000
00001000
00000000
00010000
00000000
01000000
00000000
00200000
00000000
00000000
00000000
00310000
00000000
10000000
01000000
,
20000000
00000000
00000000
00000000
30010000
00000000
01000000
00000000
00200000
00000000
00000000
00000000
10300000
00010000
10000000
00010000
,
00200000
00000000
00001000
00301000
02000000
00000000
03010000
00100000
,
00001000
00010000
00001000
00010000
00000100
00000000
00000000
00000000
00000020
00000000
00000000
00000000
00000031
00000000
00000100
00000001
,
00001000
00000000
00000010
00000000
00010000
00000000
00100000
00000000
02000000
00000000
00000000
00000000
03100000
00000000
10000000
00010000
,
00200000
00000000
00000000
00000000
00310000
10000000
02000000
00000000
00000000
00000000
00000000
00000000
00000000
00000000
00000000
03000000
,
00010000
00000000
00000000
00000000
00011000
00000000
00000000
00001000
00000100
00000000
00000010
00000000
00000100
00000000
00000000
00000000
,
00000001
00000000
00000000
00000000
00000010
00000000
00000000
00000100
00000010
00000000
00000000
00000000
00002000
00000000
00000000
00000000
,
00013000
00000000
00001000
00000000
00100000
00000000
00010000
00100000
01000000
00000000
00100000
00000000
00010000
00000000
00000000
00000000
,
10000000
00000000
00000000
10010000
00000000
00000000
01100000
00000000
00000000
10000000
01000000
00100000
,
00010000
00000000
10000000
00000000
00010000
01000000
00000000
00001000
00100000
00000000
00001000
00000000
00010000
00000000
00000000
00000000
,
00000010
00000000
00000000
00000000
00000000
00000000
00000100
00000000
00000000
00000010
00000000
00000000
00000100
00000000
00000000
00000000
00000000
00000000
00000100
00000000
00000000
00000000
00000000
00000000
00000001
00000000
00000000
00000000
00000010
00000000
00000000
00000000
00000100
00000000
00000000
00000000
00001000
00000000
00000000
00000001
00000000
00000000
00001000
00000000
00000000
00000001
00000000
00000000
,
00000100
00000000
00000010
00000000
00000100
00000000
00000000
00000010
00000100
00000000
00001000
00000000
00010000
00000000
00000000
00000000
,
00001000
00000000
00000000
00200000
00000000
00000000
00000000
00000000
00000000
00300000
00000000
00000000
10000000
00000000
00100000
00000000
00010000
00000000
10000000
00000000
01000000
00000000
00010000
00000000
,
00000000
00000000
00000000
00000000
;

//---------------dance-double - ----------------
#NOTES:
     dance-double:
     :
     Challenge:
     17:
     :
00000000
00000000
00000000
00000000
,
00000000
00000000
00000000
00000000
,
00000000
00000000
00000000
00000000
,
00000000
00000000
00000000
00000000
,
00000000
00000000
00000000
00000000
,
00000000
00000000
00000000
00000000
,
00000010
00000001
00000000
00001000
00000010
00000000
00000100
00000001
00001000
00000000
00000000
00000100
00010000
00000000
00001000
00000000
,
00100000
00010000
00000000
10000000
00100000
00000000
01000000
00000000
00010000
01000000
00000000
10000000
01000000
00000000
00010000
00000000
,
00100000
00001000
00000000
00001000
00000100
00000000
00000100
00000010
00000100
00000000
00000000
00000001
00001000
00000000
00000100
00000000
,
00020200
00000000
00000000
00000000
00000000
00000000
00000000
00000000
00000000
00030300
00000000
00000000
00001000
00000000
00000010
00000000
00000100
00000000
00001000
00000000
00100000
00000000
01000000
00000000
,
00100000
00010000
01000000
00000000
01000000
00010000
00000000
00010000
01000000
00000000
10000000
00000000
01000000
00010000
01000000
00000000
,
00200000
00302000
00003200
00000320
00002030
00203000
02300000
13000000
,
10000000
01000000
00100000
00000000
00100000
00001000
00000000
00001000
00000100
00000000
00000001
00000000
00000100
00000010
00001000
00000000
,
00000002
00000000
00002003
00000000
00023000
00000000
00032000
00000000
00003001
00000000
00001000
00000001
00000000
00000000
00000010
00000001
,
00000100
00000010
00000100
00000000
00000010
00001000
00000000
00100000
00010000
00000000
00001000
00000000
00100000
01000000
00010000
00000000
,
01000000
00000000
10000000
00000000
00100000
10000000
00100000
10000000
00100000
10000000
00000000
00010000
10000000
00010000
10000000
00000000
,
00010000
00100000
01000000
00000000
01000000
00010000
00000000
00001000
00000100
00000000
00000010
00000000
00001000
00000010
00000100
00000000
,
00000000
00000010
00001000
00000001
00000000
00000000
00000101
00000000
00000000
00000100
00001000
00010000
00000000
00000000
00200000
00000000
,
10300000
00010000
10000000
00000000
01000000
00100000
00000000
00001000
00100000
00000000
00001000
00000000
00010000
00001000
00100000
00000000
,
00100000
00010000
00000000
00100000
01000000
10000000
01000000
00100000
00010000
00100000
00010000
00100000
00010000
01000000
00010000
00000000
,
00100000
01000000
00010000
00000000
00010000
00001000
00000000
00001000
00000010
00000000
00000001
00000000
00000001
00000010
00000001
00000000
,
00002000
00000000
00000000
00000000
00000000
00000000
00003002
00000000
00000000
00000000
00000000
00000000
00000013
00000000
00000000
00000100
00000000
00000000
00000010
00000000
00000000
00000100
00000000
00000000
00001000
00000000
00000000
00000000
00000000
00000000
00000001
00000000
00000000
00001000
00000000
00000000
00000000
00000000
00000000
00000001
00000000
00000000
00001000
00000000
00000100
00000000
00001000
00000000
,
00000100
00000010
00000100
00000000
00010000
00001000
00000000
00010000
00001000
00100000
00001000
00000000
00020000
00000000
02030000
00000000
,
03100000
00010000
00000000
00010000
10000000
00010000
10000000
00010000
01000000
00100000
01000000
00100000
10000000
01000000
10000000
00000000
,
00100000
10000000
00100000
10000000
01000000
10000000
00000000
01000000
00010000
01000000
00010000
00001000
00010000
00001000
00010000
00000000
,
00000010
00000000
00000100
00000000
00000110
00000000
00000000
00000000
00000001
00000010
00000000
00001100
00000000
00011000
00000000
00000000
,
00100000
00010000
00000000
00010000
10000000
01000000
00000000
01000000
10000000
00100000
00000000
00100000
00010000
00000000
10000000
00000000
,
01000000
00100000
01000000
00000000
00010000
01000000
00100000
00000000
00020000
00000000
00000000
00031000
01000000
00000000
00010000
00000000
,
00100000
01000000
00000000
01000000
10000000
01000000
10000000
00000000
00020000
00000000
00000000
01030000
00001000
00000000
00010000
00000000
,
00000010
00010000
00000100
00000000
00000100
00001000
00000001
00000000
00000001
00000100
00000010
00000000
00000200
00000000
00000000
00000301
,
00001000
00000001
00001000
00000001
00000100
00000000
00000000
00000100
00000010
00000000
00000000
00010000
00100000
00000000
10000000
00000000
,
00100000
10000000
00010000
00000000
10000000
00000000
01000000
00000000
00200000
00000000
02300000
00000000
03010000
00001000
00010000
00000000
,
00000000
00010010
00000000
00001000
00000200
00000000
00000000
00000300
00000000
00000012
00000000
00000103
00000000
00000000
00002020
00000000
,
00003030
00020020
00030030
00022000
00033000
00000000
00000000
00220000
00330000
20200000
30300000
20020000
00000000
00000000
30030000
00000000
,
10000000
00000000
10000000
01000000
10000000
00000000
01000000
00000000
00010000
00000000
00001000
00000000
00000200
00000000
00000000
00000000
,
00001300
00100000
00001000
00100000
00001000
00010000
00000000
00010000
00000100
00010000
00000100
00000000
00000020
00000000
00000000
00000000
,
00000031
00000000
00000001
00000000
00000100
00000010
00000000
00000000
00001000
00000000
00010000
00000000
01000000
00100000
00000000
00000000
,
20000000
00000000
30010000
01000000
10000000
00000000
02000000
00000000
03010000
00100000
00010000
00000000
10000000
00000000
00000000
00000000
,
00200000
01000000
00320000
00001000
00230000
01000000
00320000
00001000
,
00030200
00001000
00000320
00000001
00000230
00001000
00000320
00000031
,
00000200
00000000
00000000
00000000
00000301
00000010
00000100
00010000
00001000
00000000
00020200
00000000
00000000
00000000
00030300
00000000
,
00001000
00000000
00100000
00010000
00100000
00010000
00000000
00000000
00002000
00000000
00000000
00013000
01000000
00000000
00000000
00000000
,
01100000
00000000
00000000
00000000
00000000
00000000
10000000
00000000
00000000
00000000
00000000
00000000
00000000
00000000
00000000
00000000
00000000
00000000
10000000
00000000
00000000
00000000
00000000
00000000
02000000
00000000
00000000
00000000
00000000
00000000
00000000
00000000
00000000
00000000
00000000
00000000
00000000
00000000
00000000
00000000
00000000
00000000
00000000
00000000
00000000
00000000
00000000
00000000
00000000
00000000
00000000
00000000
00000000
00000000
03100000
00000000
00010000
00000000
00100000
00000000
00010000
00000000
00000000
00000000
00000000
00000000
10000000
00000000
00000000
00000000
00000000
00000000
00100000
00000000
00000000
00000000
00000000
00000000
00010000
00000000
00000000
00000000
00000000
00000000
00000010
00000000
00000000
00001000
00000000
00000000
00000010
00000000
00000000
00001000
00000000
00000000
,
00000100
00000010
00000010
00000010
00000001
00000100
00000100
00000100
00000001
00001000
00000000
00010000
00000000
00100000
02000000
00000000
,
03100000
00000000
00000000
00100000
00000000
00000000
00100000
00000000
00000000
00100000
00000000
00000000
20010000
00000000
00000000
02000000
00000000
00000000
00000000
00000000
00000000
03000000
00000000
00000000
00100000
00000000
00000000
00010000
00000000
00000000
00000000
00000000
00000000
00010000
00000000
00000000
31000000
00000000
00000000
00000000
00000000
00000000
00100000
01000000
00100000
01000000
00100000
01000000
,
00100000
00010000
00010000
00010000
00002000
00000000
00000000
00003100
00000010
00000100
00000000
00000001
00000100
00002020
00000000
00003030
,
00000002
00000000
00000000
00000000
00000000
00000000
00000013
00000000
00000000
00000000
00001000
00000000
00000001
00000000
00000000
00000000
00000200
00000000
00000000
00000000
00001300
00010000
00001000
00010000
00001000
00000000
00100000
00000000
01100000
00000000
00000000
00000000
00020000
00000000
00000000
00000000
00000000
00000000
00000000
00000000
00000000
00000000
00000000
00000000
00000000
00000000
00000000
00000000
00000000
00000000
00000000
00000000
10030000
00000000
00000000
00000000
01000000
00000000
00000000
00000000
00100000
00000000
00000000
00000000
,
00020000
00000000
00000000
00000000
00030000
00000000
01000000
00100000
00020000
00000000
00000000
00000000
00031000
00000000
00000100
00000000
,
00000001
00000000
00000010
00000000
00002000
00000000
00000000
00000000
00023000
00000000
00000000
00000000
00000000
00030010
00001000
00000001
,
00000100
00000000
00001000
00000000
00100000
00000000
10000000
00000000
00020000
00000000
00000000
00000000
00031000
00000000
00100000
00010000
,
00200000
00000000
00000000
00000000
01300000
00000000
01000000
00000000
20000000
00000000
00000000
00000000
00000000
30100000
01000000
00010000
,
00200000
00000000
00000000
00000000
01300000
00000000
00010000
00001000
00000020
00000000
00000000
00000000
00000031
00000000
00000100
00000000
,
00000010
00000000
00001010
00000000
00001001
00000000
00000000
00000000
00000002
00000000
00000000
00000000
00001003
00000010
00000100
00000001
,
00000010
00000000
00001000
00000000
00000001
00000000
00000100
00000000
00002000
00000000
00000000
00000000
00013000
00000000
01000000
00100000
,
00010000
00000000
00100000
00000000
10000000
00000000
01000000
00100000
02000000
00000000
00000000
00000000
13000000
00010000
00100000
01000000
,
20000000
00000000
00000000
00000000
31000000
00000000
00010000
00001000
00020000
00000000
00000000
00000000
00030010
00000000
00001000
00000000
,
00001100
00000000
00000010
00000001
00000200
00000000
00000000
00000000
00002300
00000000
00000000
00000000
00010000
00000000
00103000
00010000
,
01000000
00000000
10000000
00000000
01000000
00000000
00010000
00000000
00200000
00000000
00000000
00000000
01300000
00000000
00010000
00001000
,
00000200
00000000
00000000
00000000
00000301
00000000
00001000
00000100
00000020
00000000
00000000
00000000
00000031
00000100
00000010
00010000
,
00002000
00000000
01003000
00000000
00200000
00000000
10300000
01000000
,
00010000
00001000
00000010
00000001
00000020
00000000
00000000
00000000
00002030
00000000
00000000
00000000
00013000
00000100
00001000
00000010
,
00000100
00000000
00000001
00000000
00000010
00000000
00001000
00000000
00020000
00000000
00000000
00000000
00031000
00000000
00000100
00000001
,
00000020
00000000
00000000
00000000
00001030
00010000
02000000
00000000
00000000
00000000
00000000
00000000
03200000
00000000
10000000
00000000
,
00310000
00000000
00000000
00000000
10010000
00000000
00000000
00010000
01000000
00000000
10000000
00000000
01000000
00000000
00010000
00000000
,
00100000
00000000
00000000
00001000
00000000
00000000
00000000
00000000
00000000
00001000
00000000
00000000
00100000
00000000
00000000
00000000
00000000
00000000
01000000
00000000
00000000
00100000
00000000
00000000
01000000
00000000
00000000
00000000
00000000
00000000
00000000
00000000
00000000
00000000
00000000
00000000
00010000
00000000
00000000
00000000
00010000
00000000
00000000
00000000
00010000
00000000
00000000
00000000
,
00000100
00000000
00002000
00000000
00000001
00000000
00003001
00000010
00001000
00000000
00000010
00000000
00000001
00000000
00000100
00000000
,
00000010
00000000
00000000
00000100
00000000
00000000
00000000
00000000
00000000
00001000
00000000
00000000
00010000
00000000
00000000
00000000
00000000
00000000
00000100
00000000
00000000
00000000
00000000
00000000
00000020
00000000
00000000
00000000
00000000
00000000
00010030
00000000
00000000
00000000
00000000
00000000
00100000
00000000
00000000
00000000
00010000
00000000
00000000
00000000
01000000
00000000
00000000
00000000
,
10000000
00000000
00010000
00000000
00100000
01000000
00000000
00100000
01000000
00000000
00100000
10000000
01000000
00000000
00100000
00000000
,
00001000
00000000
00000000
00010000
00000000
00000000
00001000
00000000
00000000
00000000
00000000
00000000
00010000
00000000
00000000
00001000
00000000
00000000
00000000
00000000
00000000
00010000
00000000
00000000
00001000
00000000
00000000
00000000
00000100
00000000
00000000
00000000
00000010
00000000
00000000
00000000
00000100
00000000
00000000
00000010
00000000
00000000
00000100
00000000
00000000
00000010
00000000
00000000
,
00000100
00000000
00000001
00000000
00000100
00000010
00000000
00000010
00001000
00000000
00010000
00000000
00200000
00000000
00000000
00000000
,
01300000
00000000
00000000
00000000
00000000
00000000
00010000
00000000
00000000
00000000
00000000
00000000
00000000
00000000
00000000
00001000
00000000
00000000
00000000
00000000
00000000
00000000
00000000
00000000
00100000
00000000
00000000
00000000
00010000
00000000
00000000
00000000
00001000
00000000
00000000
00000000
00000010
00000000
00000000
00000000
00001000
00000000
00000000
00000000
00010000
00000000
00000000
00000000
,
00000000
00000000
00000000
00000000
;
