#TITLE:ロンドンは夜8時(LON 8PM - TYO 4AM);
#ARTIST:TAG meets “eimy”;
#TITLETRANSLIT:London wa Yoru 8 Ji (LON 8PM - TYO 4AM);
#BANNER:London wa Yoru 8 Ji (LON 8PM - TYO 4AM).png;
#BACKGROUND:London wa Yoru 8 Ji (LON 8PM - TYO 4AM)-bg.png;
#CDTITLE:./CDTitles/DanceDanceRevolution 2013.png;
#MUSIC:London wa Yoru 8 Ji (LON 8PM - TYO 4AM).ogg;
#SAMPLESTART:75.578;
#SAMPLELENGTH:15;
#BPMS:0=181;
#STAGE:2;

//---------------dance-single - ----------------
#NOTES:
     dance-single:
     :
     Beginner:
     3:
     :
0000
0000
0000
0000
,
0000
0000
0000
0000
,
0000
0000
0000
0000
,
0000
0000
0000
0000
,
0000
0000
0000
0000
,
0001
0000
0000
0000
,
1000
0000
0000
0000
,
0001
0000
1000
0000
,
0001
0001
0001
0000
,
0010
0000
0000
0000
,
0001
0000
0000
0000
,
1000
0000
0000
0000
,
0100
0000
0000
0000
,
0010
0000
0010
0000
,
0001
0000
0001
0000
,
1000
0000
1000
0000
,
0010
0000
0010
0000
,
0100
0000
0000
0000
,
0001
0000
0000
0000
,
1000
0000
0000
0000
,
0100
0000
0000
0000
,
0010
0000
0010
0000
,
0001
0000
0001
0000
,
0100
0000
0100
0000
,
1000
0000
1000
0000
,
0002
0000
0003
0000
,
0200
0000
0300
0000
,
2000
0000
3000
0000
,
0020
0000
0030
0000
,
1000
0000
1000
0000
,
0001
0000
0001
0000
,
0010
0000
0010
0000
,
0100
0000
0100
0000
,
2000
0000
3000
0000
,
0020
0000
0030
0000
,
0002
0000
0003
0000
,
0200
0000
0300
0000
,
2002
0000
0000
0000
,
0000
0000
3003
0000
,
0001
0000
1000
0000
,
0001
0001
0001
0000
,
1001
0000
0000
0000
,
0000
0000
0000
0000
,
0010
0000
0000
0000
,
0000
0000
0000
0000
,
0100
0000
0000
0000
,
0000
0000
0000
0000
,
1000
0000
0000
0000
,
0000
0000
0000
0000
,
0001
0000
0001
0000
,
0010
0000
0010
0000
,
1000
0000
1000
0000
,
0100
0000
0100
0000
,
0001
0001
0001
0000
,
0010
0010
0010
0000
,
1000
1000
1000
0000
,
0100
0000
0000
0000
,
0001
0000
0010
0000
,
0001
0000
0010
0000
,
0100
0000
1000
0000
,
0100
0000
1000
0000
,
0001
0000
0000
0000
,
1000
0000
0000
0000
,
0001
0000
0000
0000
,
1000
0000
0000
0000
,
1000
0000
0010
0000
,
1000
0000
0010
0000
,
0100
0000
0001
0000
,
0100
0000
0001
0000
,
1000
0000
0000
0000
,
0001
0000
0000
0000
,
1000
0000
0000
0000
,
0001
0000
0000
0000
,
0010
0000
0100
0000
,
0010
0000
0100
0000
,
1000
0000
0001
0000
,
1000
0000
0001
0000
,
0020
0000
0030
0000
,
0200
0000
0300
0000
,
0020
0000
0030
0000
,
0200
0000
0300
0000
,
1000
0000
0010
0000
,
0001
0000
0010
0000
,
1000
0000
0010
0000
,
0001
0000
0010
0000
,
1000
1000
1000
0000
,
0010
0010
0010
0000
,
0001
0001
0001
0000
,
1000
1000
1000
0000
,
1001
0000
0000
0000
,
0000
0000
0000
0000
;

//---------------dance-single - ----------------
#NOTES:
     dance-single:
     :
     Easy:
     7:
     :
0000
0000
0000
0000
,
0000
0000
0000
0000
,
0000
0000
0000
0000
,
0000
0000
0000
0000
,
0000
0000
0000
0000
,
0002
0000
0000
0103
,
2000
0000
0000
3100
,
1001
0000
0110
0000
,
0010
1000
1001
0000
,
1000
1000
0100
0000
,
0001
0010
1000
0100
,
0001
0100
0010
0100
,
0110
0000
0001
0001
,
1000
1000
0001
0000
,
0001
1000
0001
0100
,
1000
0010
0100
0010
,
1000
1000
0010
0000
,
0001
0001
1000
0000
,
0001
0010
1000
0100
,
0010
0001
0010
1000
,
0010
0010
0100
0100
,
0001
0001
1000
0000
,
1000
1000
0001
0100
,
0001
0010
0100
0010
,
0001
1000
1001
0000
,
0002
0003
0100
0100
,
2000
3000
0100
0100
,
0020
0030
0100
0100
,
0001
0010
0100
1000
,
0010
1000
0100
0000
,
0010
0001
0100
0000
,
0010
1000
0001
0010
,
0100
1000
0001
0000
,
2000
3000
0010
0100
,
2000
3000
0001
0010
,
0200
0300
1000
0001
,
0200
0300
0010
1000
,
1001
0000
0000
0000
,
0100
0000
0000
0000
,
0001
0000
1000
0000
,
0001
0010
0100
1000
,
0110
0000
0000
0000
,
0001
0000
0000
0000
,
1000
1000
0000
0000
0000
0000
0000
0010
,
0000
0010
0000
0100
0000
0100
0100
0000
,
0001
0001
0000
0000
0000
0000
0000
0000
,
0000
0000
0000
0000
,
0010
0010
0000
0000
0000
0000
0000
1000
,
0000
0001
0000
1000
0000
0000
1001
0000
,
0010
0001
0100
0000
,
0010
1000
0100
0000
,
0010
0001
1000
0000
,
0010
1000
0001
0000
,
0010
0001
0010
0001
,
1000
0100
1000
0100
,
0001
0100
1000
0100
,
0020
0000
0030
1001
,
0010
0010
0001
0010
,
1000
0010
0100
0001
,
1000
1000
0001
0010
,
0001
0100
1000
0000
,
0001
0001
0010
0100
,
1000
0010
0100
0001
,
0100
0100
0010
1000
,
0001
1000
1001
0000
,
0001
0001
0100
0010
,
1000
0001
1000
0100
,
0010
0010
0001
1000
,
0010
0001
1000
0000
,
0100
0100
0010
0001
,
1000
0010
0100
0001
,
0010
0010
0001
1000
,
0110
1001
0110
0000
,
0002
0000
0000
0003
,
2000
0000
0000
3000
,
0001
0001
1000
0010
,
0100
1000
0001
0000
,
1000
1000
0010
0100
,
0001
0010
0100
1000
,
0100
0100
0010
0001
,
1000
0001
1001
0000
,
0100
0000
0000
0000
,
0000
0000
0000
0000
,
0001
0001
0000
0000
0000
0000
0000
0010
,
0000
0100
0000
0010
0000
0000
0001
0000
,
0010
0010
0100
0100
,
1000
1000
0010
0010
,
0100
0001
0010
1000
,
0100
0001
0010
0100
,
1001
0000
0000
0000
,
0000
0000
0000
0000
;

//---------------dance-single - ----------------
#NOTES:
     dance-single:
     :
     Medium:
     10:
     :
0000
0000
0000
0000
,
0000
0000
0000
0000
,
0000
0000
0000
0000
,
0000
0000
0000
0000
,
0000
0000
0000
0000
,
1000
0000
0010
0000
0001
1000
0010
0000
,
0001
0100
1000
0100
,
1000
0001
0100
0000
0001
1000
0100
0000
,
0010
0000
0001
0000
0100
0000
0001
0000
1000
0000
0000
1000
0000
0000
1000
0000
,
0001
0000
0001
0000
0100
0010
0100
0000
,
0001
0010
1000
0100
,
0010
0001
0100
0000
0010
1000
0100
0000
,
0110
0000
0001
1000
,
0001
0001
1000
0010
,
1000
0001
0010
0000
0001
1000
0100
0000
,
0001
0010
0100
0010
,
0001
0001
0010
0100
,
1000
0000
1000
0000
0100
0010
0100
0000
,
1000
0010
0001
0100
,
0010
1000
0100
0000
0010
0001
0100
0000
,
0010
0010
1000
0001
,
1000
1000
0001
0010
,
0001
1000
0010
0000
1000
0001
0100
0000
,
1000
0010
0100
0010
,
1000
0001
1001
0000
,
1000
0000
0010
0000
0100
0010
0000
1000
,
0001
0000
0010
0100
0000
1000
0001
0000
,
0100
0000
0010
0000
1000
0100
0000
0010
,
0001
0000
0100
0010
0000
1000
0001
0000
,
1000
0000
0100
0000
0010
0100
0000
0001
,
0100
0000
1000
0001
0000
0100
0010
0000
,
1000
0000
0010
0000
0100
0001
0000
1000
,
0100
0000
0010
0100
0000
0010
0001
1000
,
0001
0000
0010
0000
0100
0010
0000
0001
,
1000
0000
0010
0100
0000
0001
1000
0000
,
0100
0000
0010
0000
0001
0100
0000
0010
,
1000
0000
0100
0010
0000
0001
1000
0000
,
0010
1000
0010
0000
0100
0001
0100
0000
,
0001
0010
0001
0000
1000
0100
1000
0000
,
0001
0100
0010
0000
1000
0100
0010
0000
,
0001
0100
1000
0100
0001
0000
1000
0000
,
1001
0000
0000
0000
0000
1000
1000
0000
,
0100
0000
1000
0001
0000
0000
0000
1000
,
0001
1000
0000
0000
0000
0000
0000
0010
,
0000
0100
0000
0110
0000
0010
1000
0000
,
0001
0001
0000
0000
0000
0000
0000
0000
,
0000
0000
0000
0000
0000
0000
0000
0010
,
0100
0010
0000
0000
0000
0000
0000
0001
,
0000
1000
0000
1001
0000
0010
0100
0000
,
0010
0000
1000
0000
0100
0010
0001
0000
,
1000
0000
0001
0000
0100
0010
0100
0000
,
0010
0000
1000
0000
0001
1000
0100
0000
,
0010
0000
0001
0000
1000
0010
0100
0000
,
0010
1010
0100
0101
,
1000
1100
0010
0011
,
1000
0100
0010
0000
0001
0100
0010
0000
,
1000
0001
0010
0100
1000
0000
1001
0000
,
0010
0000
0010
2000
0000
3001
0000
2000
,
0000
3010
0000
0010
1000
0100
0010
0000
,
0001
0000
0001
2000
0000
3010
0000
2000
,
0000
3100
0000
0100
1000
0001
0100
0000
,
1000
0000
1000
0020
0000
0130
0000
0020
,
0000
1030
0000
1000
0001
0010
0100
0000
,
1000
0000
1000
0002
0000
0013
0000
0011
,
0000
1100
0000
0110
0000
1001
0000
0010
,
1000
0000
1000
0200
0000
0301
0000
0200
,
0000
0310
0000
0001
1000
0001
0100
0000
,
0010
0000
0010
2000
0000
3001
0000
2000
,
0000
3100
0000
0010
0100
0010
0001
0000
,
0100
0000
0100
0020
0000
1030
0000
0020
,
0000
0130
0000
0001
0010
0100
1000
0000
,
0010
0000
0010
2000
0000
3001
0000
1010
,
0000
0101
0000
0011
0000
1100
0000
0001
,
1000
0000
0000
0000
,
0001
0000
0000
0100
,
1000
0000
1000
0002
0000
0013
0000
0002
,
0000
0103
0000
0100
0001
1000
0100
0000
,
0001
0000
0001
0020
0000
0130
0000
0020
,
0000
0031
0000
1000
0010
0100
0001
0000
,
1000
0000
1000
0200
0000
0310
0000
0011
,
0000
1100
0000
0110
0000
1001
0000
0010
,
0100
0000
0000
0000
,
0000
0000
0000
0000
0000
0000
0000
1000
,
0001
1000
0000
0000
0000
0000
0000
1010
,
0000
0101
0000
1100
0000
0010
0001
0000
,
1000
0010
1000
0000
0010
0100
0010
0000
,
0100
0001
0100
0000
0001
1000
0001
0000
,
0100
0010
1000
0000
0100
0010
0001
0000
,
1000
0010
0100
0001
0010
0100
0010
0000
,
1001
0000
0000
0000
,
0000
0000
0000
0000
;

//---------------dance-single - ----------------
#NOTES:
     dance-single:
     :
     Hard:
     12:
     :
0000
0000
0000
0000
,
0000
0000
0000
0000
,
0000
0000
0000
0000
,
0000
0000
0000
0000
,
0000
0000
0000
0000
,
0001
0000
0000
0010
0000
0000
1000
0000
0000
0010
0000
0000
0001
0000
0000
0000
,
1000
0010
0001
0100
,
0001
1000
0100
1000
0001
0100
0001
1000
,
0010
0000
1000
0000
0100
0000
0010
0000
0001
0000
0000
1000
0000
0000
0001
0000
,
1000
0000
1000
0010
0100
0000
0100
0001
,
1000
0000
1000
0100
0010
0001
1000
0010
,
0100
0000
0100
0001
0010
0000
0010
0100
,
1000
0000
1000
0001
0100
0010
1000
0001
,
1000
0001
0100
0000
0001
1000
0010
0000
,
1000
0001
0010
0000
0001
1000
0100
0000
,
1000
0010
1000
0010
0100
0001
0100
0001
,
0010
0000
0000
0000
0001
0000
0000
0000
1000
0000
0000
1000
0100
0000
0010
0000
,
0001
0000
0001
0010
0100
0000
0100
1000
,
0001
0000
0001
0100
0010
1000
0001
0010
,
0100
0000
0100
1000
0010
0000
0010
0100
,
0001
0000
0001
1000
0100
0010
0001
1000
,
0001
1000
0100
0000
1000
0001
0010
0000
,
0001
1000
0010
0000
1000
0001
0100
0000
,
0001
0010
0001
0010
0100
1000
0100
1000
,
0010
1000
1001
0000
,
0010
0001
0100
0000
0010
0100
0000
0010
,
1000
0000
0100
0010
0000
0001
1000
0010
,
1000
0001
0010
0000
0100
0010
0000
0001
,
1000
0000
0010
0100
0000
0001
1000
0100
,
0010
0100
1000
0000
0001
0100
0000
1000
,
0100
0000
0001
1000
0000
0100
0010
0001
,
0100
0001
1000
0000
0010
0001
0000
0010
,
1000
0000
0001
0010
0000
0100
1000
0001
,
0100
0001
0001
0000
0010
0100
0000
1000
,
0100
0000
0010
0001
0000
1000
0001
0100
,
0001
1000
1000
0000
0010
0100
0000
0001
,
1000
0000
0100
0010
0000
0001
1000
0010
,
0100
0010
0100
0000
0001
1000
0001
0000
,
1000
0100
1000
0000
0001
0010
0001
0000
,
1000
0001
0100
0001
1000
0001
0100
0001
,
1000
0010
0100
0001
1000
0100
0010
0001
,
1001
0000
0000
0000
0000
0001
0001
0010
,
0100
0010
0001
1000
0000
0000
0000
0001
,
1000
0001
0000
0000
0000
0000
0000
0101
,
0000
1100
0000
0011
0000
0110
0100
1000
,
0001
0001
0000
0000
0000
0000
0000
0000
,
0000
0000
0000
0000
0000
0000
0000
0100
,
0010
0100
0000
0000
0000
0000
0000
1001
,
0000
0110
0000
1001
0000
0010
1001
0000
,
0010
0000
0000
0010
0000
0000
0001
0000
0000
0001
0000
0000
0100
0000
0000
0000
,
0010
1000
0001
0000
0100
0001
0010
0000
,
0100
1000
0001
0000
1000
0100
0010
0000
,
1000
0001
0100
0001
1000
0010
0100
0000
,
0001
0010
0001
0010
0100
1000
0100
1000
,
0001
0100
0001
0100
0010
1000
0010
1000
,
0001
0100
0010
0100
0001
0100
0010
1000
,
0001
0010
0100
1000
0010
0100
1001
0000
,
0010
0000
0010
1000
0001
1000
0001
1000
,
0100
0010
0100
0010
0100
0001
0100
0000
,
1000
0000
1000
0001
0100
0001
0100
0001
,
1000
0010
1000
0010
0100
0001
1000
0000
,
0001
0000
0001
0010
0100
0010
0100
0010
,
0001
1000
0001
1000
0010
0100
0001
0000
,
0100
0000
0100
0010
1000
0010
1000
0001
,
0000
1000
0000
0100
0010
0011
0000
0001
,
1000
0000
1000
0001
0010
0001
0010
0001
,
0100
0010
0100
0010
0100
1000
0100
0000
,
0001
0000
0001
1000
0100
1000
0100
1000
,
0001
0010
0001
0010
0100
1000
0001
0000
,
1000
0000
1000
0010
0100
0010
0100
0010
,
1000
0001
1000
0001
0010
0100
1000
0000
,
0100
0000
0100
0010
0001
0010
0001
1000
,
0000
0001
0000
0100
0010
1010
0000
1000
,
0001
0000
0000
0000
,
1000
0000
0000
0100
,
0010
0000
0010
1000
0001
0100
0001
1000
,
0100
0010
0001
0100
0010
1000
0100
0000
,
0001
0000
0001
0010
0100
0010
0001
1000
,
0001
0100
0001
0010
0100
1000
0010
0000
,
0100
0000
0100
0010
1000
0010
0100
0010
,
0000
0000
1000
0000
0000
0000
0001
0000
1000
0000
1001
0000
0000
0000
0010
0100
,
0010
0000
0000
0000
,
0000
0000
0000
0000
0000
0000
0000
0001
,
1000
0001
0000
0000
0000
0000
0000
0011
,
0000
1100
0000
0101
0000
0010
1000
0001
,
1000
1000
1000
0000
0100
0100
0100
0000
,
0001
0001
0001
0000
0010
0010
0010
0000
,
0001
1000
0100
0010
0001
1000
0010
0100
,
0001
0010
0100
0010
1000
0001
0100
0010
,
1001
0000
0000
0000
,
0000
0000
0000
0000
;

//---------------dance-double - ----------------
#NOTES:
     dance-double:
     :
     Easy:
     7:
     :
00000000
00000000
00000000
00000000
,
00000000
00000000
00000000
00000000
,
00000000
00000000
00000000
00000000
,
00000000
00000000
00000000
00000000
,
00000000
00000000
00000000
00000000
,
00002000
00000000
00000000
00003100
,
00000002
00000000
00000000
00000103
,
00001001
00000000
00000110
00000000
,
00000010
00001000
00011000
00000000
,
00100000
00100000
00010000
00000000
,
10000000
00100000
00010000
01000000
,
00100000
10000000
01000000
00010000
,
00011000
00000000
00001000
00001000
,
00000100
00000001
00001000
00000000
,
00000001
00001000
00000100
00000000
,
00000010
00000001
00000100
00001000
,
00010000
00100000
01000000
00000000
,
00100000
00100000
10000000
00000000
,
00010000
00100000
01000000
10000000
,
00010000
01000000
00001000
00000000
,
00010000
00010000
00000100
00000100
,
00001000
00000100
00000010
00000000
,
00000001
00000100
00000010
00000000
,
00001000
00010000
01000000
00100000
,
10000000
00010000
10010000
00000000
,
00200000
00300000
10000000
10000000
,
02000000
03000000
00010000
00010000
,
00002000
00003000
00000010
00000010
,
00000001
00001000
00000010
00000100
,
00000001
00001000
00000100
00000000
,
00001000
00000010
00000100
00000000
,
00000001
00000010
00001000
00010000
,
01000000
10000000
00010000
00000000
,
20000000
30000000
00100000
01000000
,
00002000
00003000
00010000
00000100
,
00000020
00000030
00000001
00001000
,
00000020
00000030
00000100
00000001
,
00001001
00000000
00000000
00000000
,
00000100
00000000
00000000
00000000
,
00001000
00000000
00010000
00000000
,
00001000
00010000
00001000
00010000
,
00011000
00000000
00000000
00000000
,
00100000
00000000
00000000
00000000
,
01000000
01000000
00000000
00000000
00000000
00000000
00000000
10000000
,
00000000
10000000
00000000
00010000
00000000
00010000
00010000
00000000
,
01000000
01000000
00000000
00000000
00000000
00000000
00000000
00000000
,
00000000
00000000
00000000
00000000
,
00001000
00001000
00000000
00000000
00000000
00000000
00000000
00010000
,
00000000
00000010
00000000
00001000
00000000
00000000
00001001
00000000
,
00000010
00001000
00000100
00000000
,
00000010
00000001
00000100
00000000
,
00001000
00010000
01000000
00000000
,
10000000
00100000
01000000
00000000
,
00100000
10000000
00010000
01000000
,
00001000
00010000
00000010
00001000
,
00000001
00000010
00000100
00001000
,
00000020
00000000
00000030
00001001
,
00000010
00000010
00001000
00000100
,
00000010
00001000
00010000
01000000
,
10000000
10000000
00010000
01000000
,
00100000
10000000
01000000
00010000
,
00001000
00001000
00000010
00000100
,
00000010
00000001
00001000
00000010
,
00000100
00000100
00000010
00001000
,
00010000
01000000
01100000
00000000
,
00100000
00100000
10000000
01000000
,
00100000
00010000
00001000
00000100
,
00000010
00000010
00000001
00000100
,
00000010
00001000
00000001
00001000
,
00000100
00000100
00010000
00001000
,
00010000
01000000
10000000
00010000
,
01000000
01000000
00100000
10000000
,
00010000
10000000
10010000
00000000
,
00200000
00000000
00000000
00300000
,
02000000
00000000
00000000
03000000
,
00010000
00010000
00001000
00000010
,
00000100
00000001
00001000
00000000
,
00000001
00000001
00000010
00000100
,
00001000
00000010
00000100
00001000
,
00010000
01000000
10000000
00010000
,
01000000
00100000
10010000
00000000
,
01000000
00000000
00000000
00000000
,
00000000
00000000
00000000
00000000
,
00100000
00100000
00000000
00000000
00000000
00000000
00000000
10000000
,
00000000
00010000
00000000
10000000
00000000
00000000
01000000
00000000
,
00010000
00010000
00001000
00001000
,
00000010
00000010
00000001
00000001
,
00000100
00001000
00000100
00000010
,
00001000
00010000
01000000
00100000
,
10010000
00000000
00000000
00000000
,
00000000
00000000
00000000
00000000
;

//---------------dance-double - ----------------
#NOTES:
     dance-double:
     :
     Medium:
     10:
     :
00000000
00000000
00000000
00000000
,
00000000
00000000
00000000
00000000
,
00000000
00000000
00000000
00000000
,
00000000
00000000
00000000
00000000
,
00000000
00000000
00000000
00000000
,
00010000
00000000
00100000
00000000
10000000
00010000
00100000
00000000
,
01000000
00010000
00001000
00000100
,
00000001
00001000
00000100
00000000
00000010
00000001
00000100
00000000
,
00000010
00000000
00001000
00000000
00000100
00000000
00010000
00000000
00001000
00000000
00000000
00001000
00000000
00000000
00001000
00000000
,
00100000
00000000
00100000
00000000
01000000
00100000
00010000
00000000
,
10000000
00100000
00010000
01000000
,
00100000
10000000
01000000
00000000
00100000
00010000
00001000
00000000
,
00011000
00000000
00001000
00001000
,
00000100
00000001
00001000
00000100
,
00000010
00000001
00001000
00000000
00000010
00000100
00000010
00000000
,
00001000
00010000
01000000
00100000
,
10000000
00010000
01000000
00010000
,
10000000
00000000
00010000
00000000
01000000
00100000
10000000
00000000
,
01000000
00010000
00001000
00000100
,
00000010
00001000
00000100
00000000
00000010
00000001
00000100
00000000
,
00000010
00000010
00001000
00000001
,
00001000
00001000
00010000
00010000
,
01000000
00100000
10000000
00000000
01000000
00100000
00010000
00000000
,
00100000
10000000
01000000
00100000
,
00010000
00001000
00011000
00000000
,
00001000
00000000
00000100
00000000
00000010
00001000
00000000
00000100
,
00000010
00000000
00000001
00000100
00000000
00001000
00010000
00000000
,
00100000
00000000
10000000
00000000
00010000
01000000
00000000
00100000
,
10000000
00000000
01000000
00100000
00000000
00010000
01000000
00000000
,
00001000
00000000
00010000
00000000
00001000
00000100
00000000
00000010
,
00001000
00000000
00000100
00000010
00000000
00000001
00000100
00000000
,
00000010
00000000
00001000
00000000
00000100
00010000
00000000
00001000
,
01000000
00000000
00100000
01000000
00000000
00010000
10000000
00000000
,
00010000
00000000
00010000
00000000
00100000
00010000
00000000
01000000
,
00100000
00000000
10000000
01000000
00000000
00010000
00001000
00000000
,
00000010
00000000
00000001
00000000
00001000
00000100
00000000
00000010
,
00000001
00000000
00000100
00000010
00000000
00001000
00000100
00000000
,
00000010
00000001
00000010
00000000
00000001
00000100
00000010
00000000
,
00001000
00000001
00001000
00000000
00000100
00010000
00001000
00000000
,
00100000
00010000
01000000
00000000
00100000
10000000
01000000
00000000
,
00100000
00010000
01000000
00001000
00010000
00000000
00000100
00000000
,
00000110
00000000
00000000
00000000
00000000
00000010
00000010
00000000
,
00000001
00000000
00000100
00001000
00000000
00000000
00000000
00000100
,
00000010
00000100
00000000
00000000
00000000
00000000
00000000
00001000
,
00000000
00010000
00000000
00011000
00000000
00100000
00010000
00000000
,
10000000
10000000
00000000
00000000
00000000
00000000
00000000
00000000
,
00000000
00000000
00000000
00000000
00000000
00000000
00000000
00100000
,
01000000
00100000
00000000
00000000
00000000
00000000
00000000
00010000
,
00000000
00001000
00000000
00011000
00000000
00000100
00000010
00000000
,
00000001
00000000
00000100
00000000
00000010
00001000
00000100
00000000
,
00000010
00000000
00001000
00000000
00010000
00001000
00010000
00000000
,
01000000
00000000
10000000
00000000
00010000
01000000
00100000
00000000
,
10000000
00000000
01000000
00000000
00100000
00010000
10000000
00000000
,
00100000
00100000
00100000
00000000
10000000
01000000
00010000
00000000
,
00001000
00001000
00001000
00000000
00010000
00001000
00000100
00000000
,
00000001
00001000
00000100
00000000
00000010
00000001
00001000
00000000
,
00000010
00000100
00000001
00000010
00000100
00000000
00001001
00000000
,
00000010
00000000
00000010
00000200
00000000
00000310
00000000
00020000
,
00000000
00031000
00000000
00100000
00010000
10000000
00100000
00000000
,
10000000
00000000
10000000
00020000
00000000
01030000
00000000
20000000
,
00000000
31000000
00000000
00010000
00100000
01000000
00010000
00000000
,
00001000
00000000
00001000
00000200
00000000
00000301
00000000
00002000
,
00000000
00003100
00000000
00000010
00000001
00000010
00000100
00000000
,
00001000
00000000
00001000
00000020
00000000
00000130
00000000
00001000
,
00000000
00010000
00000000
00100000
00000000
10010000
00000000
00100000
,
00010000
00000000
00010000
02000000
00000000
03100000
00000000
20000000
,
00000000
31000000
00000000
00100000
01000000
00100000
00010000
00000000
,
00001000
00000000
00001000
00000200
00000000
00000310
00000000
00000002
,
00000000
00001003
00000000
00000010
00001000
00000001
00001000
00000000
,
00000010
00000000
00000010
00000200
00000000
00001300
00000000
00020000
,
00000000
01030000
00000000
00100000
00010000
10000000
01000000
00000000
,
10000000
00000000
10000000
00020000
00000000
01030000
00000000
00001000
,
00000000
00010000
00000000
00001010
00000000
00000101
00000000
00000010
,
00000100
00000000
00000000
00000000
,
00001000
00000000
00000000
00000010
,
00000001
00000000
00000001
00002000
00000000
00003100
00000000
00000002
,
00000000
00000103
00000000
00001000
00000010
00000100
00001000
00000000
,
00010000
00000000
00010000
02000000
00000000
13000000
00000000
00020000
,
00000000
01030000
00000000
00100000
10000000
00100000
01000000
00000000
,
00010000
00000000
00010000
00200000
00000000
01300000
00000000
00010000
,
00000000
00001000
00000000
00000010
00000000
00001001
00000000
00000010
,
00000100
00000000
00000000
00000000
,
00000000
00000000
00000000
00000000
00000000
00000000
00000000
00000001
,
00001000
00000001
00000000
00000000
00000000
00000000
00000000
00010010
,
00000000
00011000
00000000
01010000
00000000
00100000
10000000
00000000
,
00010000
00100000
00010000
00000000
00100000
01000000
10000000
00000000
,
00100000
01000000
00100000
00000000
00010000
00001000
00010000
00000000
,
00000100
00001000
00000010
00000000
00000100
00000001
00000010
00000000
,
00000001
00001000
00000100
00001000
00000001
00000100
00001000
00000000
,
00011000
00000000
00000000
00000000
,
00000000
00000000
00000000
00000000
;

//---------------dance-double - ----------------
#NOTES:
     dance-double:
     :
     Hard:
     12:
     :
00000000
00000000
00000000
00000000
,
00000000
00000000
00000000
00000000
,
00000000
00000000
00000000
00000000
,
00000000
00000000
00000000
00000000
,
00000000
00000000
00000000
00000000
,
00000001
00000000
00000000
00000010
00000000
00000000
00000100
00000000
00000000
00001000
00000000
00000000
00000010
00000000
00000000
00000000
,
00000100
00001000
00010000
01000000
,
10000000
00010000
01000000
00000000
00100000
10000000
01000000
00000000
,
00100000
00000000
00010000
00000000
00001000
00000000
00000100
00000000
00000010
00000000
00000000
00000001
00000000
00000000
00001000
00000000
,
00000001
00000000
00000001
00000100
00000010
00000000
00000010
00001000
,
00000100
00000000
00000100
00010000
00001000
00100000
00010000
01000000
,
00100000
00000000
00100000
10000000
00010000
00000000
00010000
10000000
,
01000000
00000000
01000000
00010000
00001000
00000100
00000001
00001000
,
00000001
00001000
00000100
00000000
00000010
00000100
00001000
00000000
,
00000001
00000010
00001000
00000000
00000010
00000001
00000100
00000000
,
00001000
00010000
00001000
00010000
00100000
01000000
00100000
01000000
,
00100000
00000000
00000000
00000000
10000000
00000000
00000000
00000000
00010000
00000000
00000000
00010000
01000000
00000000
00100000
00000000
,
10000000
00000000
10000000
01000000
00100000
00000000
00100000
00010000
,
01000000
00000000
01000000
00001000
00010000
00000010
00001000
00000100
,
00000010
00000000
00000010
00000001
00001000
00000000
00001000
00000001
,
00000100
00000000
00000100
00001000
00010000
01000000
10000000
00010000
,
10000000
00010000
01000000
00000000
00100000
01000000
00010000
00000000
,
10000000
00100000
00010000
00000000
00100000
10000000
01000000
00000000
,
00010000
00001000
00010000
00001000
00000010
00000100
00000010
00000100
,
00000010
00000001
00001001
00000000
,
00000010
00001000
00000100
00000000
00000010
00001000
00000000
00010000
,
00001000
00000000
01000000
00010000
00000000
10000000
01000000
00010000
,
01000000
10000000
00010000
00000000
01000000
00100000
00000000
00010000
,
00001000
00000000
00000100
00000010
00000000
00001000
00000001
00000010
,
00000100
00000010
00000001
00000000
00001000
00000100
00000000
00000001
,
00000100
00000000
00001000
00000001
00000000
00000100
00000010
00001000
,
00010000
01000000
00100000
00000000
10000000
00010000
00000000
00100000
,
01000000
00000000
10000000
00100000
00000000
01000000
00010000
00100000
,
00001000
00010000
00010000
00000000
00000010
00000100
00000000
00000001
,
00001000
00000000
00000100
00000010
00000000
00000001
00000100
00001000
,
00000100
00000010
00000010
00000000
00010000
00001000
00000000
00100000
,
00010000
00000000
01000000
00001000
00000000
00010000
00100000
10000000
,
00010000
01000000
00010000
00000000
10000000
01000000
10000000
00000000
,
00100000
01000000
00100000
00000000
00010000
00001000
00010000
00000000
,
00000010
00001000
00000001
00001000
00000010
00001000
00000001
00001000
,
00000001
00000010
00000100
00010000
00001000
00100000
00010000
10000000
,
10010000
00000000
00000000
00000000
00000000
00100000
00100000
01000000
,
00010000
00100000
01000000
10000000
00000000
00000000
00000000
01000000
,
00010000
00001000
00000000
00000000
00000000
00000000
00000000
00010010
,
00000000
00001010
00000000
00000101
00000000
00000110
00000100
00001000
,
00000001
00000001
00000000
00000000
00000000
00000000
00000000
00000000
,
00000000
00000000
00000000
00000000
00000000
00000000
00000000
00000100
,
00001000
00010000
00000000
00000000
00000000
00000000
00000000
00010010
,
00000000
00011000
00000000
00101000
00000000
01000000
10010000
00000000
,
00100000
00000000
00000000
00100000
00000000
00000000
10000000
00000000
00000000
10000000
00000000
00000000
01000000
00000000
00000000
00000000
,
00100000
00010000
01000000
00000000
00100000
10000000
01000000
00000000
,
00010000
00001000
00000010
00000000
00000001
00001000
00000010
00000000
,
00000100
00000001
00001000
00000001
00000100
00000010
00001000
00000000
,
00000001
00000010
00000001
00000010
00000100
00010000
00000100
00010000
,
00001000
01000000
00001000
01000000
00100000
10000000
00100000
10000000
,
00010000
10000000
00100000
10000000
00010000
10000000
00100000
10000000
,
01000000
00010000
00001000
00000100
00000001
00000010
00001001
00000000
,
00000010
00000000
00000010
00001000
00000100
00001000
00000100
00001000
,
00000100
00000010
00000100
00000010
00000001
00000100
00001000
00000000
,
00010000
00000000
00010000
00000010
00000100
00000010
00000100
00000010
,
00001000
00010000
00001000
00010000
01000000
00100000
10000000
00000000
,
00010000
00000000
00010000
00100000
01000000
00100000
01000000
00100000
,
00001000
00010000
00001000
00010000
00000010
00001000
00000100
00000000
,
00000010
00000000
00000010
00000001
00001000
00000001
00001000
00000100
,
00000000
00000010
00000000
00000001
00000100
00000110
00000000
00000010
,
00001000
00000000
00001000
00000100
00010000
00000100
00010000
00000100
,
00010000
01000000
00010000
01000000
00100000
00010000
01000000
00000000
,
00100000
00000000
00100000
10000000
01000000
10000000
01000000
10000000
,
00100000
00010000
00100000
00010000
00001000
00000100
00000010
00000000
,
00001000
00000000
00001000
00000100
00000010
00000100
00000010
00000100
,
00000010
00000001
00000010
00000001
00001000
00000100
00000001
00000000
,
00000100
00000000
00000100
00010000
00001000
00010000
00001000
00100000
,
00000000
00010000
00000000
10000000
00100000
01100000
00000000
00100000
,
10000000
00000000
00000000
00000000
,
00010000
00000000
00000000
10000000
,
00100000
00000000
00100000
10000000
00010000
10000000
01000000
00010000
,
00001000
00000010
00000001
00001000
00000010
00000100
00000001
00000000
,
00001000
00000000
00001000
00000100
00000010
00000001
00000100
00000010
,
00000100
00001000
00010000
00100000
10000000
01000000
00100000
00000000
,
00010000
00000000
00010000
10000000
01000000
00100000
00010000
00001000
,
00000000
00000000
00000100
00000000
00000000
00000000
00000010
00000000
00000001
00000000
00001001
00000000
00000000
00000000
00000010
00000100
,
00000010
00000000
00000000
00000000
,
00000000
00000000
00000000
00000000
00000000
00000000
00000000
00000010
,
00001000
00000010
00000000
00000000
00000000
00000000
00000000
00011000
,
00000000
01100000
00000000
10010000
00000000
00100000
01000000
00010000
,
10000000
01000000
00100000
00000000
00010000
01000000
00100000
00000000
,
00010000
00001000
00000010
00000000
00000001
00000100
00000010
00000000
,
00001000
00000001
00000100
00001000
00010000
00100000
10000000
01000000
,
00100000
01000000
10000000
00010000
01000000
00001000
00010000
00001000
,
00011000
00000000
00000000
00000000
,
00000000
00000000
00000000
00000000
;
